<?xml version="1.0" standalone="no"?>
<!DOCTYPE svg PUBLIC "-//W3C//DTD SVG 1.1//EN" "http://www.w3.org/Graphics/SVG/1.1/DTD/svg11.dtd" >
<svg xmlns="http://www.w3.org/2000/svg">
<metadata></metadata>
<defs>
<font id="vegan-sans-semibolditalic" horiz-adv-x="600" >
<font-face units-per-em="1000" ascent="800" descent="-200" />
<missing-glyph horiz-adv-x="300" />
<glyph unicode="fb" horiz-adv-x="941" d="M83 439l14 81h85l6 37q18 100 98.5 151t194.5 51q109 0 187 -31l-46 -260q81 67 168 67q71 0 111.5 -54.5t40.5 -152.5q0 -155 -82 -249t-190 -94q-80 0 -122 61l-8 -46h-120l118 671q-34 8 -71 8q-60 0 -103.5 -29.5t-54.5 -91.5l-6 -38h111l-14 -81h-112l-77 -439h-121 l78 439h-85zM560 116q37 -42 96 -42q67 0 114.5 65t47.5 176q0 66 -23.5 99t-64.5 33q-64 0 -119 -46l7 42z" />
<glyph unicode="ff" horiz-adv-x="704" d="M83 439l14 81h85l13 73q15 82 67.5 124t130.5 42q59 0 89 -17l-12 -74q-40 9 -64 9q-77 0 -91 -84l-13 -73h213l13 73q15 82 68 124t131 42q58 0 89 -17l-13 -74q-40 9 -63 9q-77 0 -91 -84l-13 -73h141l-14 -81h-141l-78 -439h-120l77 439h-213l-77 -439h-121l78 439 h-85z" />
<glyph unicode="fh" horiz-adv-x="954" d="M83 439l14 81h85l6 37q18 100 98.5 151t194.5 51q109 0 187 -31l-48 -276q94 83 195 83q66 0 102.5 -40.5t20.5 -130.5l-64 -364h-121l60 344q17 96 -72 96q-67 0 -133 -53l-68 -387h-121l119 671q-34 8 -71 8q-60 0 -103.5 -29.5t-54.5 -91.5l-6 -38h111l-14 -81h-112 l-77 -439h-121l78 439h-85z" />
<glyph unicode="fi" horiz-adv-x="621" d="M83 439l14 81h85l13 73q15 82 67.5 124t130.5 42q54 0 85 -17l-13 -74q-40 9 -59 9q-77 0 -91 -84l-12 -73h329l-92 -520h-121l78 439h-209l-77 -439h-121l78 439h-85zM522 652q0 35 26 60.5t61 25.5q29 0 45.5 -18t16.5 -46q0 -35 -26.5 -60.5t-61.5 -25.5 q-28 0 -44.5 18t-16.5 46z" />
<glyph unicode="fj" horiz-adv-x="621" d="M83 439l14 81h85l13 73q15 82 67.5 124t130.5 42q54 0 85 -17l-13 -74q-40 9 -59 9q-77 0 -91 -84l-12 -73h329l-129 -728h-121l115 647h-209l-77 -439h-121l78 439h-85zM522 652q0 35 26 60.5t61 25.5q29 0 45.5 -18t16.5 -46q0 -35 -26.5 -60.5t-61.5 -25.5 q-28 0 -44.5 18t-16.5 46z" />
<glyph unicode="fk" horiz-adv-x="883" d="M83 439l14 81h85l6 37q18 100 98.5 151t194.5 51q109 0 187 -31l-78 -441l223 233h130l-239 -240l166 -280h-136l-148 262l-46 -262h-121l119 672q-34 8 -70 8q-60 0 -104 -29.5t-55 -92.5l-6 -38h111l-14 -81h-112l-77 -439h-121l78 439h-85z" />
<glyph unicode="fl" horiz-adv-x="620" d="M83 439l14 81h85l6 37q18 100 98.5 151t194.5 51q109 0 187 -31l-128 -728h-121l119 671q-34 8 -71 8q-60 0 -103.5 -29.5t-54.5 -91.5l-6 -38h111l-14 -81h-112l-77 -439h-121l78 439h-85z" />
<glyph unicode="ft" horiz-adv-x="718" d="M83 439l14 81h85l13 73q15 82 67.5 124t130.5 42q59 0 89 -17l-12 -74q-40 9 -64 9q-77 0 -91 -84l-13 -73h208l25 140h121l-25 -140h137l-14 -81h-137l-50 -286q-16 -85 51 -85q29 0 78 14l-13 -74q-49 -23 -117 -23t-102.5 37t-20.5 114l53 303h-208l-77 -439h-121 l78 439h-85z" />
<glyph unicode="ffb" horiz-adv-x="1274" d="M83 439l14 81h85l13 73q15 82 67.5 124t130.5 42q59 0 89 -17l-12 -74q-40 9 -64 9q-77 0 -91 -84l-12 -73h213l6 37q17 100 97.5 151t195.5 51q107 0 187 -31l-45 -259q80 66 166 66q72 0 112.5 -54.5t40.5 -152.5q0 -155 -82.5 -249t-190.5 -94q-81 0 -121 61l-8 -46 h-121l119 671q-35 8 -72 8q-60 0 -103.5 -29.5t-54.5 -91.5l-6 -38h111l-14 -81h-111l-78 -439h-120l77 439h-213l-77 -439h-121l78 439h-85zM894 116q36 -42 95 -42q67 0 114.5 65t47.5 176q0 66 -23.5 99t-64.5 33q-62 0 -118 -46z" />
<glyph unicode="ffh" horiz-adv-x="1292" d="M83 439l14 81h85l13 73q15 82 67.5 124t130.5 42q59 0 89 -17l-12 -74q-40 9 -64 9q-77 0 -91 -84l-12 -73h217l6 37q18 100 98.5 151t194.5 51q109 0 187 -31l-48 -276q94 83 195 83q66 0 102.5 -40.5t20.5 -130.5l-64 -364h-121l60 344q17 96 -72 96q-67 0 -133 -53 l-68 -387h-121l119 671q-34 8 -71 8q-60 0 -103.5 -29.5t-54.5 -91.5l-6 -38h111l-14 -81h-112l-77 -439h-121l78 439h-218l-77 -439h-121l78 439h-85z" />
<glyph unicode="ffi" horiz-adv-x="955" d="M83 439l14 81h85l13 73q15 82 67.5 124t130.5 42q59 0 89 -17l-12 -74q-40 9 -64 9q-77 0 -91 -84l-13 -73h214l12 73q15 82 68 124t131 42q54 0 84 -17l-12 -74q-40 9 -59 9q-77 0 -91 -84l-13 -73h329l-92 -520h-120l77 439h-208l-78 -439h-120l77 439h-213l-77 -439 h-121l78 439h-85zM855 652q0 35 26.5 60.5t61.5 25.5q29 0 45 -18t16 -46q0 -35 -26 -60.5t-61 -25.5q-29 0 -45.5 18t-16.5 46z" />
<glyph unicode="ffj" horiz-adv-x="955" d="M83 439l14 81h85l13 73q15 82 67.5 124t130.5 42q59 0 89 -17l-12 -74q-40 9 -64 9q-77 0 -91 -84l-13 -73h214l12 73q15 82 68 124t131 42q54 0 84 -17l-12 -74q-40 9 -59 9q-77 0 -91 -84l-13 -73h329l-129 -728h-120l114 647h-208l-78 -439h-120l77 439h-213l-77 -439 h-121l78 439h-85zM855 652q0 35 26.5 60.5t61.5 25.5q29 0 45 -18t16 -46q0 -35 -26 -60.5t-61 -25.5q-29 0 -45.5 18t-16.5 46z" />
<glyph unicode="ffk" horiz-adv-x="1217" d="M83 439l14 81h85l13 73q15 82 67.5 124t130.5 42q59 0 89 -17l-12 -74q-40 9 -64 9q-77 0 -91 -84l-12 -73h213l6 37q17 100 97.5 151t195.5 51q107 0 187 -31l-78 -440l222 232h131l-240 -240l167 -280h-136l-149 262l-46 -262h-120l119 671q-35 8 -72 8 q-60 0 -103.5 -29.5t-54.5 -91.5l-6 -38h111l-14 -81h-111l-78 -439h-120l77 439h-213l-77 -439h-121l78 439h-85z" />
<glyph unicode="ffl" horiz-adv-x="970" d="M83 439l14 81h85l13 73q15 82 67.5 124t130.5 42q59 0 89 -17l-12 -74q-40 9 -64 9q-77 0 -91 -84l-13 -73h213l7 37q17 100 97.5 151t195.5 51q107 0 187 -31l-129 -728h-120l118 669q-34 8 -70 8q-60 0 -104 -28.5t-55 -90.5l-7 -38h112l-14 -81h-112l-77 -439h-120 l77 439h-213l-77 -439h-121l78 439h-85z" />
<glyph unicode="fft" horiz-adv-x="1051" d="M83 439l14 81h85l13 73q15 82 67.5 124t130.5 42q59 0 89 -17l-12 -74q-40 9 -64 9q-77 0 -91 -84l-12 -73h213l12 73q15 82 68 124t131 42q58 0 89 -17l-13 -74q-40 9 -63 9q-77 0 -91 -84l-13 -73h208l25 140h120l-24 -140h137l-14 -81h-137l-51 -286q-15 -85 51 -85 q31 0 78 14l-13 -74q-49 -23 -117 -23q-67 0 -101.5 37.5t-20.5 113.5l53 303h-208l-78 -439h-120l77 439h-213l-77 -439h-121l78 439h-85z" />
<glyph unicode="tt" horiz-adv-x="738" d="M83 439l14 81h84l25 140h121l-25 -140h228l25 140h121l-25 -140h137l-14 -81h-137l-50 -286q-16 -85 51 -85q29 0 78 14l-13 -74q-49 -23 -117 -23t-102.5 37t-20.5 114l53 303h-228l-50 -286q-16 -85 51 -85q29 0 78 14l-13 -74q-49 -23 -117 -23t-102.5 37t-20.5 114 l53 303h-84z" />
<glyph unicode="&#xd;" horiz-adv-x="0" />
<glyph unicode=" "  horiz-adv-x="300" />
<glyph unicode="&#x09;" horiz-adv-x="300" />
<glyph unicode="&#xa0;" horiz-adv-x="300" />
<glyph unicode="!" horiz-adv-x="313" d="M77 50q0 39 27 65t66 26q30 0 47.5 -18t17.5 -47q0 -39 -27 -65t-66 -26q-29 0 -47 18t-18 47zM137 222l62 478h138l-105 -478h-95z" />
<glyph unicode="&#x22;" horiz-adv-x="385" d="M142 427l31 273h117l-64 -273h-84zM310 427l31 273h117l-64 -273h-84z" />
<glyph unicode="#" horiz-adv-x="702" d="M59 186l18 100h111l58 135h-95l17 100h122l77 179h119l-77 -179h146l77 179h119l-77 -179h85l-17 -100h-112l-58 -135h96l-18 -100h-121l-81 -186h-119l81 186h-146l-81 -186h-119l81 186h-86zM307 286h146l58 135h-146z" />
<glyph unicode="$" horiz-adv-x="603" d="M76 211h131q-6 -71 26.5 -102t88.5 -31q64 0 107 32t43 93q0 21 -9.5 37t-20 25.5t-35 18.5t-38.5 12.5t-46 10.5q-40 9 -69.5 20.5t-60 31.5t-47 51.5t-16.5 73.5q0 92 66.5 154t171.5 74l19 108h115l-20 -111q82 -15 124 -69t32 -142h-131q6 65 -24 94.5t-84 29.5 q-63 0 -101.5 -29t-38.5 -86q0 -21 9 -36.5t19 -24.5t35 -18.5t37 -12.5t46 -11q41 -9 70.5 -20t61 -30.5t48.5 -50.5t17 -73q0 -93 -72 -159.5t-175 -81.5l-19 -109h-115l19 110q-86 15 -131 71t-33 150z" />
<glyph unicode="%" horiz-adv-x="1023" d="M131 446q0 115 67 189t167 74q74 0 116 -47t42 -128q0 -115 -67 -189t-168 -74q-73 0 -115 47.5t-42 127.5zM219 0l576 700h130l-576 -700h-130zM240 443q0 -46 16.5 -70t45.5 -24q46 0 79 51.5t33 136.5q0 94 -62 94q-47 0 -79.5 -51.5t-32.5 -136.5zM622 166 q0 115 67 189t167 74q74 0 116 -47t42 -128q0 -115 -67 -189t-168 -74q-73 0 -115 47.5t-42 127.5zM731 163q0 -46 16.5 -70t45.5 -24q46 0 79 51.5t33 136.5q0 94 -62 94q-47 0 -79.5 -51.5t-32.5 -136.5z" />
<glyph unicode="&#x26;" horiz-adv-x="699" d="M62 160q0 69 42 127t112 95q-44 62 -44 117q0 90 73.5 153t178.5 63q101 0 155.5 -49t45.5 -143h-131q6 99 -86 99q-45 0 -78 -28t-33 -78q0 -49 46 -103l164 -194q38 69 53 155h123q-24 -131 -108 -235l118 -139h-155l-48 56q-97 -71 -206 -71q-97 0 -159.5 46.5 t-62.5 128.5zM186 185q0 -51 33.5 -78.5t85.5 -27.5q69 0 126 46l-163 191q-82 -49 -82 -131z" />
<glyph unicode="'" horiz-adv-x="217" d="M142 427l31 273h117l-64 -273h-84z" />
<glyph unicode="(" horiz-adv-x="378" d="M106 254q0 96 26.5 186.5t72.5 162t93.5 125t102.5 97.5h114q-120 -102 -197.5 -260t-77.5 -316q0 -107 28.5 -209.5t79.5 -164.5h-114q-54 61 -91 161t-37 218z" />
<glyph unicode=")" horiz-adv-x="378" d="M-34 -125q120 102 197.5 260t77.5 316q0 107 -28.5 209.5t-79.5 164.5h114q55 -60 92 -160t37 -219q0 -96 -26.5 -186.5t-72.5 -162t-94 -125t-103 -97.5h-114z" />
<glyph unicode="*" horiz-adv-x="479" d="M113 472l150 49l-133 50l77 102l99 -101l-2 148h118l-54 -147l134 100l41 -102l-150 -50l133 -49l-77 -101l-99 99l2 -148h-118l54 149l-133 -100z" />
<glyph unicode="+" horiz-adv-x="561" d="M96 318l16 95h187l33 187h95l-33 -187h187l-16 -95h-188l-33 -187h-95l33 187h-186z" />
<glyph unicode="," horiz-adv-x="222" d="M9 -160l71 286h122l-91 -286h-102z" />
<glyph unicode="-" horiz-adv-x="299" d="M55 229l17 95h244l-17 -95h-244z" />
<glyph unicode="." horiz-adv-x="240" d="M52 50q0 39 27 65t66 26q30 0 47.5 -18t17.5 -47q0 -39 -27 -65t-66 -26q-29 0 -47 18t-18 47z" />
<glyph unicode="/" horiz-adv-x="495" d="M16 -40l452 780h133l-452 -780h-133z" />
<glyph unicode="0" horiz-adv-x="625" d="M87 259q0 196 96.5 326t247.5 130q104 0 159.5 -73t55.5 -201q0 -196 -96.5 -326t-247.5 -130q-104 0 -159.5 73t-55.5 201zM218 259q0 -87 26.5 -133t74.5 -46q87 0 141.5 104t54.5 257q0 87 -26 133t-74 46q-88 0 -142.5 -104t-54.5 -257z" />
<glyph unicode="1" horiz-adv-x="404" d="M110 497l20 113l180 90h126l-123 -700h-126l103 586z" />
<glyph unicode="2" horiz-adv-x="557" d="M54 0l18 99q211 171 242 198q120 106 146 180q10 28 10 57q0 87 -82 87q-45 0 -82 -33t-54 -103h-131q25 111 101 170.5t182 59.5q90 0 142.5 -43.5t52.5 -123.5q0 -43 -15.5 -84t-40.5 -78.5t-74.5 -85.5t-100.5 -91.5t-135 -109.5h299l-17 -99h-461z" />
<glyph unicode="3" horiz-adv-x="575" d="M65 192h131q-5 -57 24 -85t79 -28q60 0 100 38.5t40 95.5q0 97 -130 97h-71l17 95h70q72 0 112.5 39t40.5 96q0 39 -22 60t-61 21q-45 0 -82.5 -29.5t-53.5 -83.5h-131q24 97 102 152t183 55q89 0 142 -43t53 -120q0 -62 -41 -114.5t-106 -73.5q55 -11 81.5 -49t26.5 -87 q0 -105 -84.5 -174t-201.5 -69q-116 0 -173 53.5t-45 153.5z" />
<glyph unicode="4" horiz-adv-x="559" d="M48 126l17 95l280 479h129l-283 -479h168l30 169h117l-30 -169h90l-16 -95h-91l-22 -126h-117l22 126h-294z" />
<glyph unicode="5" horiz-adv-x="551" d="M67 181h131q-4 -53 22.5 -77.5t69.5 -24.5q63 0 101 52.5t38 139.5q0 104 -85 104q-77 0 -127 -62h-109l68 387h416l-16 -95h-307l-37 -210q30 34 76 54t90 20q75 0 118 -46.5t43 -135.5q0 -139 -83.5 -220.5t-201.5 -81.5q-108 0 -163 50.5t-44 145.5z" />
<glyph unicode="6" horiz-adv-x="587" d="M84 235q0 210 97.5 345t246.5 135q92 0 143 -46.5t44 -130.5h-131q0 84 -74 84q-64 0 -113.5 -70t-70.5 -183q36 37 88.5 61t101.5 24q79 0 123.5 -47t44.5 -134q0 -129 -87.5 -208.5t-203.5 -79.5q-97 0 -153 67t-56 183zM214 234q0 -155 95 -155q64 0 104 50t40 126 q0 105 -91 105q-39 0 -78.5 -18t-67.5 -47q-2 -40 -2 -61z" />
<glyph unicode="7" horiz-adv-x="476" d="M90 0l349 605h-307l16 95h424l-16 -95l-345 -605h-121z" />
<glyph unicode="8" horiz-adv-x="592" d="M70 155q0 72 44.5 129.5t124.5 77.5q-43 17 -67 51.5t-24 80.5q0 102 77.5 161.5t197.5 59.5q94 0 150 -43t56 -122q0 -67 -40 -115.5t-107 -72.5q52 -14 79.5 -53.5t27.5 -91.5q0 -113 -82.5 -172.5t-212.5 -59.5q-102 0 -163 43t-61 127zM199 172q0 -46 30 -69.5 t82 -23.5q68 0 110 34.5t42 97.5q0 43 -28.5 69.5t-84.5 26.5q-72 0 -111.5 -38.5t-39.5 -96.5zM272 494q0 -41 24 -65.5t72 -24.5q65 0 99.5 37t34.5 94q0 41 -26.5 63.5t-70.5 22.5q-58 0 -95.5 -33.5t-37.5 -93.5z" />
<glyph unicode="9" horiz-adv-x="590" d="M76 177h132q-5 -99 80 -99q66 0 117.5 75t70.5 195q-37 -38 -90 -62.5t-102 -24.5q-78 0 -122.5 45.5t-44.5 130.5q0 126 86 202t203 76q101 0 155 -66t54 -184q0 -136 -42 -245t-121.5 -172t-181.5 -63q-94 0 -148 49.5t-46 142.5zM246 456q0 -101 93 -101q39 0 78.5 18 t66.5 47q1 15 1 46q0 155 -96 155q-64 0 -103.5 -46t-39.5 -119z" />
<glyph unicode=":" horiz-adv-x="240" d="M52 50q0 39 27 65t66 26q30 0 47.5 -18t17.5 -47q0 -39 -27 -65t-66 -26q-29 0 -47 18t-18 47zM120 441q0 38 27.5 64t66.5 26q29 0 47 -18t18 -47q0 -39 -27 -65t-66 -26q-30 0 -48 18.5t-18 47.5z" />
<glyph unicode=";" horiz-adv-x="240" d="M16 -149l68 275h123l-90 -275h-101zM120 441q0 38 27.5 64t66.5 26q29 0 47 -18t18 -47q0 -39 -27 -65t-66 -26q-30 0 -48 18.5t-18 47.5z" />
<glyph unicode="&#x3c;" horiz-adv-x="550" d="M87 316l18 102l503 195l-18 -102l-371 -145l320 -145l-18 -100z" />
<glyph unicode="=" horiz-adv-x="561" d="M77 214l17 95h469l-17 -95h-469zM114 423l17 95h469l-17 -95h-469z" />
<glyph unicode="&#x3e;" horiz-adv-x="550" d="M59 121l17 102l372 146l-321 144l18 100l435 -195l-18 -102z" />
<glyph unicode="?" horiz-adv-x="510" d="M108 513q23 96 94 149t176 53q91 0 143 -39t52 -111q0 -47 -18 -85.5t-45 -61t-58 -45.5t-57 -41.5t-42.5 -47t-13.5 -62.5h-122q-2 42 9.5 74t31.5 52.5t44.5 37t49.5 31.5t45.5 32t33.5 42t13 58q0 34 -22 53t-61 19q-93 0 -122 -108h-131zM173 50q0 39 27.5 65 t66.5 26q29 0 47 -18t18 -47q0 -39 -27 -65t-66 -26q-30 0 -48 18t-18 47z" />
<glyph unicode="@" horiz-adv-x="973" d="M60 183q0 231 158 381.5t409 150.5q161 0 269.5 -95.5t108.5 -250.5q0 -94 -29 -170t-75.5 -121t-98.5 -69t-102 -24q-43 0 -74 18t-39 56q-81 -74 -167 -74q-65 0 -105.5 55.5t-40.5 152.5q0 155 81 250t188 95q70 0 110 -62l-13 -74q-32 43 -84 43q-62 0 -107.5 -65.5 t-45.5 -173.5q0 -61 22.5 -94.5t55.5 -33.5q59 0 109 45v-2l71 399h125l-70 -393q-9 -58 29 -58q58 0 105 86t47 203q0 125 -75 200.5t-214 75.5q-120 0 -219 -52t-159.5 -152.5t-60.5 -230.5q0 -172 93 -256.5t248 -84.5q58 0 132 13t117 29l-14 -80q-46 -17 -121.5 -30 t-142.5 -13q-82 0 -156.5 25.5t-134 74t-95 128t-35.5 178.5z" />
<glyph unicode="A" horiz-adv-x="635" d="M1 0l367 700h127l130 -700h-130l-28 175h-253l-87 -175h-126zM260 268h192l-24 146l-19 166l-77 -166z" />
<glyph unicode="B" horiz-adv-x="627" d="M76 0l123 700h229q60 0 107 -12.5t80.5 -47.5t33.5 -90q0 -61 -40 -113t-100 -69q53 -11 83 -44t30 -86q0 -114 -85.5 -176t-209.5 -62h-251zM219 93h125q70 0 109 35.5t39 96.5q0 83 -110 83h-125zM273 399h102q63 0 102.5 33t39.5 95q0 80 -105 80h-102z" />
<glyph unicode="C" horiz-adv-x="659" d="M88 265q0 198 106 324t269 126q113 0 177 -64q55 -55 56 -154q0 -17 -2 -35h-134q1 11 1 21q0 63 -27 97q-31 40 -88 40q-97 0 -160.5 -99t-63.5 -254q0 -92 33.5 -139.5t96.5 -47.5q57 0 101.5 39.5t66.5 118.5h135q-34 -125 -121 -189t-200 -64q-123 0 -184.5 74 t-61.5 206z" />
<glyph unicode="D" horiz-adv-x="703" d="M76 0l123 700h224q138 0 218.5 -76t80.5 -210q0 -187 -119.5 -300.5t-302.5 -113.5h-224zM219 95h98q120 0 195.5 80.5t75.5 232.5q0 99 -48.5 148t-132.5 49h-97z" />
<glyph unicode="E" horiz-adv-x="553" d="M76 0l123 700h421l-16 -95h-294l-34 -189h274l-16 -95h-275l-40 -226h295l-17 -95h-421z" />
<glyph unicode="F" horiz-adv-x="524" d="M76 0l123 700h411l-16 -95h-284l-38 -210h265l-17 -95h-265l-52 -300h-127z" />
<glyph unicode="G" horiz-adv-x="670" d="M87 258q0 203 106.5 330t272.5 127q109 0 171 -60q56 -54 56 -151q0 -11 -1 -23h-134v12q0 60 -26 92q-30 35 -83 35q-101 0 -163.5 -98t-62.5 -247q0 -96 36.5 -146t98.5 -50q38 0 80 16.5t73 41.5l22 127h-146l15 90h269l-63 -354h-121l11 65q-37 -35 -92.5 -57.5 t-106.5 -22.5q-102 0 -157 72.5t-55 200.5z" />
<glyph unicode="H" horiz-adv-x="733" d="M76 0l123 700h127l-50 -284h313l50 284h126l-123 -700h-126l57 321h-314l-56 -321h-127z" />
<glyph unicode="I" horiz-adv-x="294" d="M76 0l123 700h127l-123 -700h-127z" />
<glyph unicode="J" horiz-adv-x="577" d="M59 233h129q-4 -32 -4 -57q0 -42 12 -64q21 -35 73 -35q51 0 86 30.5t45 90.5l89 502h126l-85 -482q-21 -118 -96 -175.5t-181 -57.5q-104 0 -159 57q-40 43 -40 125q0 31 5 66z" />
<glyph unicode="K" horiz-adv-x="630" d="M76 0l123 700h127l-57 -322l285 322h133l-299 -331l215 -369h-144l-194 352l-62 -352h-127z" />
<glyph unicode="L" horiz-adv-x="515" d="M76 0l123 700h127l-107 -605h265l-17 -95h-391z" />
<glyph unicode="M" horiz-adv-x="856" d="M76 0l123 700h137l116 -518l308 518h127l-123 -700h-118l58 330l29 149l-243 -420h-116l-99 434l-25 -158l-59 -335h-115z" />
<glyph unicode="N" horiz-adv-x="719" d="M76 0l123 700h122l227 -515l25 158l63 357h114l-123 -700h-121l-227 514l-25 -158l-63 -356h-115z" />
<glyph unicode="O" horiz-adv-x="726" d="M88 276q0 193 110 316t284 123q126 0 195 -78.5t69 -212.5q0 -193 -109.5 -316t-283.5 -123q-126 0 -195.5 78.5t-69.5 212.5zM222 276q0 -93 39.5 -144.5t108.5 -51.5q76 0 132 49t83.5 126t27.5 169q0 93 -39.5 144.5t-109.5 51.5q-112 0 -177 -100.5t-65 -243.5z" />
<glyph unicode="P" horiz-adv-x="597" d="M76 0l123 700h229q91 0 154.5 -50t63.5 -143q0 -66 -26.5 -119.5t-70.5 -85t-95.5 -48.5t-106.5 -17h-103l-41 -237h-127zM261 330h102q64 0 109 44.5t45 121.5q0 52 -29.5 81.5t-75.5 29.5h-102z" />
<glyph unicode="Q" horiz-adv-x="726" d="M88 276q0 193 110 316t284 123q126 0 195 -78.5t69 -212.5q0 -145 -64 -253.5t-175 -155.5l123 -166h-150l-97 137q-10 -1 -30 -1q-126 0 -195.5 78.5t-69.5 212.5zM222 276q0 -93 39.5 -144.5t108.5 -51.5q76 0 132 49t83.5 126t27.5 169q0 93 -39.5 144.5t-109.5 51.5 q-112 0 -177 -100.5t-65 -243.5z" />
<glyph unicode="R" horiz-adv-x="617" d="M76 0l123 700h224q96 0 158 -45.5t62 -137.5q0 -97 -53.5 -157.5t-139.5 -84.5l141 -275h-140l-120 262h-83l-45 -262h-127zM265 354h97q66 0 109 38t43 114q0 50 -29.5 75.5t-77.5 25.5h-97z" />
<glyph unicode="S" horiz-adv-x="603" d="M76 211h131q-1 -11 -1 -21q0 -55 28 -81q32 -31 88 -31q64 0 107 32t43 93q0 21 -9.5 37t-20 25.5t-35 18.5t-38.5 12.5t-46 10.5q-40 9 -69.5 20.5t-60 31.5t-47 51.5t-16.5 73.5q0 104 82 167.5t204 63.5q114 0 174 -56q50 -47 50 -128q0 -16 -2 -33h-131q1 11 1 21 q0 49 -25 73q-30 30 -84 30q-63 0 -101.5 -29t-38.5 -86q0 -21 9 -36.5t19 -24.5t35 -18.5t37 -12.5t46 -11q41 -9 70.5 -20t61 -30.5t48.5 -50.5t17 -73q0 -105 -89.5 -175t-207.5 -70q-115 -1 -179 57q-53 47 -53 131q0 18 3 38z" />
<glyph unicode="T" horiz-adv-x="541" d="M123 605l16 95h493l-16 -95h-183l-107 -605h-126l107 605h-184z" />
<glyph unicode="U" horiz-adv-x="712" d="M112 231l82 469h126l-79 -449q-5 -29 -5 -54q0 -47 19 -75q29 -42 109 -42q156 0 182 151l82 469h115l-78 -449q-24 -129 -108 -197.5t-211 -68.5q-128 1 -192 63q-48 47 -47 126q0 27 5 57z" />
<glyph unicode="V" horiz-adv-x="626" d="M118 700h130l65 -396l20 -166l77 166l197 396h126l-363 -700h-127z" />
<glyph unicode="W" horiz-adv-x="920" d="M118 700h129l26 -384l7 -166l66 166l165 384h132l33 -384l9 -168l64 168l154 384h124l-305 -700h-132l-34 363l-10 168l-68 -168l-160 -363h-131z" />
<glyph unicode="X" horiz-adv-x="592" d="M2 0l281 358l-154 342h135l99 -239l178 239h133l-263 -337l162 -363h-135l-108 261l-195 -261h-133z" />
<glyph unicode="Y" horiz-adv-x="586" d="M129 700h129l102 -331l203 331h124l-287 -436l-47 -264h-126l47 264z" />
<glyph unicode="Z" horiz-adv-x="538" d="M35 0l17 95l406 510h-310l16 95h455l-15 -95l-406 -510h315l-17 -95h-461z" />
<glyph unicode="[" horiz-adv-x="367" d="M99 -125l167 950h224l-14 -80h-98l-139 -790h98l-14 -80h-224z" />
<glyph unicode="\" horiz-adv-x="475" d="M145 740h119l178 -780h-119z" />
<glyph unicode="]" horiz-adv-x="376" d="M-6 -125l14 80h98l139 790h-98l14 80h224l-167 -950h-224z" />
<glyph unicode="^" horiz-adv-x="528" d="M84 300l240 400h101l100 -400h-103l-68 278l-166 -278h-104z" />
<glyph unicode="_" horiz-adv-x="501" d="M19 -110l16 95h420l-16 -95h-420z" />
<glyph unicode="`" horiz-adv-x="354" d="M181 740h144l81 -157h-99z" />
<glyph unicode="a" horiz-adv-x="588" d="M75 193q0 155 82.5 248.5t190.5 93.5q81 0 122 -61l8 46h120l-92 -520h-120l81 458l-10 -54q-37 43 -96 43q-67 0 -114 -65.5t-47 -176.5q0 -65 23.5 -98t63.5 -33q65 0 120 45l-12 -66q-79 -68 -168 -68q-71 0 -111.5 54.5t-40.5 153.5z" />
<glyph unicode="b" horiz-adv-x="588" d="M66 0l131 744h121l-49 -276q81 67 168 67q71 0 111.5 -54.5t40.5 -152.5q0 -155 -82 -249t-190 -94q-80 0 -122 61l-8 -46h-121zM207 116q37 -42 96 -42q66 0 113.5 65t47.5 176q0 66 -23 99t-64 33q-64 0 -119 -46l5 33z" />
<glyph unicode="c" horiz-adv-x="534" d="M75 197q0 148 80.5 243t210.5 95q92 0 144 -52q46 -46 45 -120v-21h-122v15q1 49 -17 73q-20 26 -65 26q-67 0 -109.5 -74.5t-42.5 -184.5q0 -132 86 -132q84 0 117 108h122q-25 -87 -94 -137.5t-161 -50.5q-98 0 -146 56t-48 156z" />
<glyph unicode="d" horiz-adv-x="588" d="M75 193q0 155 82.5 248.5t190.5 93.5q81 0 122 -60l47 269h120l-131 -744h-120l20 111l-11 -58q-79 -68 -168 -68q-71 0 -111.5 54.5t-40.5 153.5zM200 205q0 -65 23.5 -98t63.5 -33q65 0 120 45l53 299l-3 -14q-37 43 -96 43q-67 0 -114 -65.5t-47 -176.5z" />
<glyph unicode="e" horiz-adv-x="542" d="M75 195q0 149 82.5 244.5t204.5 95.5q116 0 162 -75q27 -43 26 -108q0 -49 -15 -112h-339q-2 -30 -2 -46q0 -129 87 -129q80 0 110 86h122q-22 -74 -91 -120t-157 -46q-97 0 -143.5 55.5t-46.5 154.5zM207 315h219q4 25 4 46q0 38 -14 61q-22 36 -69 36 q-49 0 -85.5 -36.5t-54.5 -106.5z" />
<glyph unicode="f" horiz-adv-x="371" d="M83 439l14 81h85l13 73q15 82 67.5 124t130.5 42q59 0 89 -17l-12 -74q-40 9 -64 9q-77 0 -91 -84l-13 -73h142l-14 -81h-142l-77 -439h-121l77 439h-84z" />
<glyph unicode="g" horiz-adv-x="588" d="M41 -47h120q-1 -8 -1 -15q0 -81 90 -81q48 0 84.5 30.5t48.5 99.5l13 72q-81 -67 -167 -67q-72 0 -113 53.5t-41 151.5q0 154 82 246t191 92q81 0 122 -61l8 46h120l-92 -519q-20 -113 -93 -168.5t-178 -55.5q-98 0 -151 45q-44 37 -44 106q0 12 1 25zM200 210 q0 -65 24 -97.5t65 -32.5q64 0 119 46l57 321l-8 -43q-37 43 -96 43q-67 0 -114 -63.5t-47 -173.5z" />
<glyph unicode="h" horiz-adv-x="601" d="M66 0l131 744h121l-51 -291q97 82 196 82q65 -1 101 -41q25 -28 26 -80q0 -23 -5 -50l-64 -364h-121l61 344q3 15 3 28q0 68 -76 68q-31 0 -69 -15.5t-64 -38.5l1 4l-69 -390h-121z" />
<glyph unicode="i" horiz-adv-x="268" d="M66 0l92 520h121l-92 -520h-121zM169 652q0 35 26.5 60.5t61.5 25.5q28 0 44.5 -18t16.5 -46q0 -35 -26 -60.5t-61 -25.5q-29 0 -45.5 18t-16.5 46z" />
<glyph unicode="j" horiz-adv-x="268" d="M30 -208l128 728h121l-129 -728h-120zM169 652q0 35 26.5 60.5t61.5 25.5q28 0 44.5 -18t16.5 -46q0 -35 -26 -60.5t-61 -25.5q-29 0 -45.5 18t-16.5 46z" />
<glyph unicode="k" horiz-adv-x="531" d="M66 0l131 744h121l-80 -457l222 233h130l-239 -240l166 -280h-135l-149 262l-46 -262h-121z" />
<glyph unicode="l" horiz-adv-x="268" d="M66 0l131 744h121l-131 -744h-121z" />
<glyph unicode="m" horiz-adv-x="923" d="M66 0l92 520h121l-12 -67q97 82 193 82q103 0 121 -88q101 88 207 88q65 -1 100 -41q24 -28 25 -78q0 -23 -6 -52l-64 -364h-121l61 344q3 15 3 28q0 68 -73 68q-66 0 -131 -54l-3 -22l-64 -364h-121l61 344q3 16 3 29q0 67 -73 67q-31 0 -67 -15.5t-63 -38.5l-68 -386 h-121z" />
<glyph unicode="n" horiz-adv-x="601" d="M66 0l92 520h121l-12 -67q97 82 196 82q65 -1 101 -41q25 -28 26 -80q0 -23 -5 -50l-64 -364h-121l61 344q3 15 3 28q0 68 -76 68q-31 0 -69 -15.5t-64 -38.5l-68 -386h-121z" />
<glyph unicode="o" horiz-adv-x="580" d="M76 204q0 145 83.5 238t217.5 93q97 0 150.5 -59t53.5 -160q0 -144 -83.5 -237.5t-218.5 -93.5q-97 0 -150 59t-53 160zM199 200q0 -65 25.5 -100t70.5 -35q71 0 117 67.5t46 187.5q0 65 -25.5 100.5t-70.5 35.5q-72 0 -117.5 -67.5t-45.5 -188.5z" />
<glyph unicode="p" horiz-adv-x="588" d="M29 -208l129 728h121l-9 -51q81 66 167 66q71 0 111.5 -54.5t40.5 -152.5q0 -155 -82 -249t-190 -94q-80 0 -122 61l-45 -254h-121zM207 116q37 -42 96 -42q66 0 113.5 65t47.5 176q0 66 -23 99t-64 33q-64 0 -119 -46l1 7z" />
<glyph unicode="q" horiz-adv-x="588" d="M75 193q0 155 82.5 248.5t190.5 93.5q81 0 122 -61l8 46h120l-129 -728h-120l56 315l-10 -54q-79 -68 -168 -68q-71 0 -111.5 54.5t-40.5 153.5zM200 205q0 -65 23.5 -98t63.5 -33q65 0 120 45l60 337l-10 -52q-37 43 -96 43q-67 0 -114 -65.5t-47 -176.5z" />
<glyph unicode="r" horiz-adv-x="421" d="M66 0l92 520h121l-16 -92q38 51 81.5 79t82.5 28q35 0 59 -22l-18 -103q-37 16 -70 16q-41 0 -82.5 -23t-66.5 -55l-62 -348h-121z" />
<glyph unicode="s" horiz-adv-x="513" d="M64 153h119v-7q1 -40 21 -60q22 -22 71 -23q45 0 75.5 21.5t30.5 61.5q0 13 -3.5 22.5t-13.5 17l-16 12t-25 9.5t-24.5 6t-28.5 6q-29 6 -47 11t-43.5 16t-40 24t-25.5 34.5t-11 49.5q0 84 67 132.5t168 48.5q91 0 140 -40q43 -35 43 -95q0 -9 -1 -18h-119 q1 38 -19.5 56.5t-60.5 18.5q-43 0 -72.5 -19.5t-29.5 -55.5q0 -23 15.5 -37.5t34.5 -20t50 -12.5q7 -1 11 -2q30 -6 47 -10.5t43 -15t40 -23.5t25 -34.5t11 -49.5q0 -84 -68.5 -138t-169.5 -54q-98 1 -150 45q-45 39 -45 105q0 9 1 18z" />
<glyph unicode="t" horiz-adv-x="389" d="M83 439l14 81h84l25 140h121l-25 -140h137l-14 -81h-137l-50 -286q-3 -16 -3 -30q0 -55 54 -55q29 0 78 14l-13 -74q-49 -23 -117 -23q-69 0 -103 37q-25 26 -24 73q0 19 4 41l53 303h-84z" />
<glyph unicode="u" horiz-adv-x="597" d="M94 156l64 364h121l-61 -344q-3 -17 -3 -31q-1 -27 11 -41q18 -22 63 -23q66 0 130 53l68 386h121l-92 -520h-121l12 67q-99 -82 -193 -82q-66 1 -101 41q-24 28 -24 78q0 24 5 52z" />
<glyph unicode="v" horiz-adv-x="509" d="M88 520h126l37 -232l19 -161l75 161l116 232h119l-278 -520h-115z" />
<glyph unicode="w" horiz-adv-x="792" d="M88 520h120l25 -229l11 -162l71 162l105 229h110l27 -229l17 -162l68 162l104 229h116l-256 -520h-113l-26 212l-16 162l-72 -162l-99 -212h-116z" />
<glyph unicode="x" horiz-adv-x="520" d="M2 0l231 268l-132 252h127l79 -166l138 166h126l-212 -245l144 -275h-127l-92 189l-156 -189h-126z" />
<glyph unicode="y" horiz-adv-x="505" d="M74 -208l117 211l-103 517h126l37 -213l19 -162l77 162l110 213h118l-392 -728h-109z" />
<glyph unicode="z" horiz-adv-x="459" d="M35 0l15 81l308 358h-235l14 81h368l-14 -81l-308 -358h245l-15 -81h-378z" />
<glyph unicode="{" horiz-adv-x="392" d="M100 305l16 90q100 0 114 81l32 175q15 87 75 130.5t152 43.5h27l-14 -80h-27q-37 0 -58.5 -24t-27.5 -60l-30 -174q-9 -51 -41 -88.5t-74 -48.5q38 -11 57 -49.5t9 -89.5l-30 -172q-14 -84 56 -84h27l-14 -80h-27q-92 0 -137 43.5t-30 130.5l32 175q7 40 -14 60.5 t-73 20.5z" />
<glyph unicode="|" horiz-adv-x="301" d="M61 -160l173 980h115l-173 -980h-115z" />
<glyph unicode="}" horiz-adv-x="397" d="M-5 -125l15 80h27q37 0 57.5 24t26.5 60l30 172q10 52 42.5 90t74.5 49q-38 11 -57.5 48t-10.5 89l30 174q7 36 -5.5 60t-49.5 24h-28l14 80h28q95 0 138.5 -43.5t27.5 -130.5l-31 -175q-8 -40 13 -60.5t72 -20.5l-15 -90q-100 0 -114 -81l-31 -175q-32 -174 -226 -174 h-28z" />
<glyph unicode="~" horiz-adv-x="573" d="M75 326q77 129 184 129q41 0 75 -19.5t61.5 -38.5t51.5 -19q43 0 91 70l76 -42q-77 -129 -184 -129q-41 0 -75.5 19.5t-62 38.5t-51.5 19q-41 0 -90 -70z" />
<glyph unicode="&#xa1;" horiz-adv-x="291" d="M37 -208l106 478h94l-62 -478h-138zM139 416q0 39 27 65t66 26q30 0 48 -18t18 -47q0 -39 -27 -65t-66 -26q-30 0 -48 18t-18 47z" />
<glyph unicode="&#xa2;" horiz-adv-x="534" d="M75 197q0 129 62.5 219.5t168.5 112.5l20 114h115l-20 -113q68 -14 104 -63.5t30 -124.5h-122q3 61 -17.5 87.5t-64.5 26.5q-67 0 -109.5 -74.5t-42.5 -184.5q0 -132 86 -132q84 0 117 108h122q-21 -72 -73 -120t-124 -62l-20 -111h-115l20 111q-137 30 -137 206z" />
<glyph unicode="&#xa3;" horiz-adv-x="578" d="M24 0l17 95h81l35 198h-81l17 95h81l20 115q17 99 87 155.5t169 56.5q102 0 155.5 -52.5t41.5 -153.5h-131q4 53 -19 78.5t-63 25.5q-41 0 -72 -22.5t-40 -73.5l-23 -129h205l-17 -95h-204l-35 -198h304l-17 -95h-511z" />
<glyph unicode="&#xa4;" horiz-adv-x="664" d="M47 135l99 84q-19 41 -19 96q0 116 70 197l-63 77l75 66l65 -80q71 41 156 41q78 0 131 -39l97 82l65 -74l-100 -85q20 -43 20 -96q0 -114 -72 -197l64 -77l-75 -65l-65 79q-69 -40 -155 -40q-78 0 -132 38l-96 -82zM254 312q0 -60 26.5 -94t72.5 -34q67 0 114.5 60.5 t47.5 162.5q0 61 -26.5 95t-72.5 34q-67 0 -114.5 -60.5t-47.5 -163.5z" />
<glyph unicode="&#xa5;" horiz-adv-x="586" d="M75 89l16 94h169l19 110h-169l17 95h145l-138 312h129l106 -265l194 265h124l-242 -312h146l-17 -95h-169l-19 -110h168l-16 -94h-169l-16 -89h-126l16 89h-168z" />
<glyph unicode="&#xa6;" horiz-adv-x="301" d="M61 -160l80 455h115l-80 -455h-115zM163 420l71 400h115l-71 -400h-115z" />
<glyph unicode="&#xa7;" horiz-adv-x="616" d="M60 112h131q-11 -124 113 -124q63 0 102 27.5t39 77.5q0 23 -11 38t-36.5 24t-45 12.5t-58.5 8.5q-37 4 -60 8t-54 13.5t-48.5 23t-30.5 37t-13 55.5q0 93 105 163q-42 34 -42 99q0 104 82 167t205 63q115 0 176.5 -56t49.5 -161h-131q11 124 -113 124 q-63 0 -101.5 -27.5t-38.5 -77.5q0 -23 11 -38.5t36 -24t45 -12.5t58 -8q37 -5 59.5 -8.5t54 -13.5t49 -23t30.5 -37t13 -55q0 -92 -106 -163q44 -36 44 -99q0 -103 -82.5 -166.5t-205.5 -63.5q-115 0 -176.5 56t-49.5 161zM209 353q0 -21 10 -34.5t31.5 -21.5t41.5 -11.5 t54 -7.5q83 -11 119 -21q21 17 35.5 42t14.5 47q0 39 -34 54t-102 22q-78 8 -120 20q-20 -16 -35 -41.5t-15 -47.5z" />
<glyph unicode="&#xa8;" horiz-adv-x="449" d="M166 653q0 34 26 58.5t61 24.5q27 0 44 -17.5t17 -44.5q0 -34 -25.5 -58.5t-61.5 -24.5q-27 0 -44 17.5t-17 44.5zM369 652q0 34 25.5 59t60.5 25q27 0 44.5 -17.5t17.5 -44.5q0 -34 -26 -58.5t-61 -24.5q-27 0 -44 17t-17 44z" />
<glyph unicode="&#xa9;" horiz-adv-x="830" d="M50 350q0 152 105 258.5t260 106.5t260 -106.5t105 -258.5t-105 -258.5t-260 -106.5t-260 106.5t-105 258.5zM129 350q0 -122 82.5 -207t203.5 -85t203.5 85t82.5 207t-82.5 207t-203.5 85t-203.5 -85t-82.5 -207zM230 350q0 97 50.5 155.5t131.5 58.5q71 0 117 -37 t53 -111h-94q-5 41 -23 60.5t-53 19.5q-41 0 -64.5 -38.5t-23.5 -107.5q0 -147 88 -147q35 0 53 19.5t23 61.5h94q-7 -74 -53 -111.5t-117 -37.5q-88 0 -135 57.5t-47 157.5z" />
<glyph unicode="&#xaa;" horiz-adv-x="345" d="M115 552q0 87 48 140.5t116 53.5q43 0 70 -35l4 26h90l-51 -297h-90l8 45l-3 -15q-47 -39 -94 -39q-45 0 -71.5 32t-26.5 89zM208 561q0 -63 46 -63q31 0 63 27l22 128q-20 25 -52 25q-35 0 -57 -29.5t-22 -87.5z" />
<glyph unicode="&#xab;" horiz-adv-x="577" d="M89 218l19 111l274 191l-25 -138l-158 -110l120 -108l-24 -137zM326 218l19 111l274 191l-25 -138l-158 -110l120 -108l-24 -137z" />
<glyph unicode="&#xac;" horiz-adv-x="561" d="M96 318l16 95h469l-49 -282h-95l33 187h-374z" />
<glyph unicode="&#xad;" horiz-adv-x="299" d="M55 229l17 95h244l-17 -95h-244z" />
<glyph unicode="&#xae;" horiz-adv-x="578" d="M50 477q0 100 68.5 169t170.5 69t170.5 -69t68.5 -169t-68.5 -169t-170.5 -69t-170.5 69t-68.5 169zM112 477q0 -76 51 -129t126 -53t125.5 53t50.5 129t-50.5 128.5t-125.5 52.5t-126 -52.5t-51 -128.5zM198 353v255h87q40 0 70.5 -20t30.5 -59q0 -53 -55 -73l66 -103 h-68l-57 95h-13v-95h-61zM259 494h26q40 0 40 35q0 33 -40 33h-26v-68z" />
<glyph unicode="&#xaf;" horiz-adv-x="408" d="M158 612l15 86h308l-15 -86h-308z" />
<glyph unicode="&#xb0;" horiz-adv-x="428" d="M144 525q0 79 58 134.5t138 55.5q62 0 100 -38.5t38 -99.5q0 -79 -58 -134.5t-138 -55.5q-62 0 -100 38.5t-38 99.5zM228 537q0 -32 18.5 -52t49.5 -20q41 0 69.5 29.5t28.5 70.5q0 32 -18 52t-50 20q-41 0 -69.5 -29.5t-28.5 -70.5z" />
<glyph unicode="&#xb1;" horiz-adv-x="568" d="M45 0l17 95h469l-17 -95h-469zM107 350l17 95h186l33 186h95l-33 -186h188l-17 -95h-188l-33 -188h-94l33 188h-187z" />
<glyph unicode="&#xb4;" horiz-adv-x="354" d="M152 583l129 157h154l-179 -157h-104z" />
<glyph unicode="&#xb5;" horiz-adv-x="597" d="M29 -208l129 728h121l-61 -344q-9 -50 8.5 -72.5t62.5 -22.5q31 0 67 15.5t63 38.5l68 385h121l-92 -520h-121l12 68q-75 -67 -156 -76q-34 -4 -64 4l-37 -204h-121z" />
<glyph unicode="&#xb6;" horiz-adv-x="669" d="M117 466q0 78 42.5 133t102.5 78t128 23h305l-123 -700h-99l107 607h-71l-107 -607h-99l52 297h-36q-85 0 -143.5 42.5t-58.5 126.5z" />
<glyph unicode="&#xb7;" horiz-adv-x="226" d="M89 353q0 37 27.5 63.5t65.5 26.5q30 0 48 -18.5t18 -47.5q0 -37 -27.5 -63.5t-65.5 -26.5q-30 0 -48 18.5t-18 47.5z" />
<glyph unicode="&#xb8;" horiz-adv-x="302" d="M9 -234l10 59q26 -13 62 -13q21 0 38.5 10.5t17.5 30.5q0 15 -13 22.5t-30 7.5q-20 0 -40 -6l-16 39l78 84h73l-60 -64q42 2 70.5 -16t28.5 -55q0 -53 -44.5 -83t-105.5 -30q-42 0 -69 14z" />
<glyph unicode="&#xba;" horiz-adv-x="345" d="M116 561q0 80 53.5 132.5t134.5 52.5q62 0 97.5 -35t35.5 -94q0 -81 -53.5 -133.5t-134.5 -52.5q-62 0 -97.5 35.5t-35.5 94.5zM208 559q0 -66 52 -66q40 0 62.5 34.5t22.5 90.5q0 66 -51 66q-40 0 -63 -33.5t-23 -91.5z" />
<glyph unicode="&#xbb;" horiz-adv-x="577" d="M55 27l24 139l158 109l-120 109l25 136l206 -191l-19 -111zM292 27l24 139l158 109l-120 109l25 136l206 -191l-19 -111z" />
<glyph unicode="&#xbc;" horiz-adv-x="881" d="M135 0l576 700h130l-576 -700h-130zM146 556l16 91l115 53h105l-74 -420h-105l58 330zM494 65l13 80l177 275h103l-179 -275h88l16 89h98l-16 -89h61l-13 -80h-62l-11 -65h-98l11 65h-188z" />
<glyph unicode="&#xbd;" horiz-adv-x="911" d="M135 0l576 700h130l-576 -700h-130zM146 556l16 91l115 53h105l-74 -420h-105l58 330zM543 0l13 79q27 19 64 45t56.5 40.5t44.5 33t38 31t25.5 27.5t17.5 28.5t5 27.5q0 42 -47 42q-54 0 -71 -63h-107q15 67 66 102.5t125 35.5q65 0 102 -28.5t37 -80.5q0 -26 -9.5 -49 t-20.5 -39.5t-45.5 -45.5t-57.5 -46t-83 -61h178l-13 -79h-318z" />
<glyph unicode="&#xbe;" horiz-adv-x="954" d="M119 395h107q-2 -25 12.5 -37t47.5 -12q36 0 56 16.5t20 47.5q0 46 -76 46h-51l13 77h51q84 0 84 63q0 38 -48 38q-53 0 -71 -49h-107q16 59 67 91.5t124 32.5q64 0 102.5 -27t38.5 -75q0 -36 -25.5 -66t-70.5 -42q74 -13 74 -83q0 -64 -58 -104.5t-137 -40.5 q-80 0 -120 32t-33 92zM208 0l576 700h130l-576 -700h-130zM567 65l13 80l177 275h103l-179 -275h88l16 89h98l-16 -89h61l-13 -80h-62l-11 -65h-98l11 65h-188z" />
<glyph unicode="&#xbf;" horiz-adv-x="501" d="M7 -73q0 47 18 85.5t45 61t58.5 45.5t57.5 41.5t42 47t13 62.5h122q2 -42 -9.5 -74t-31 -52.5t-44 -37t-49.5 -31.5t-45.5 -32t-33.5 -42t-13 -58q0 -34 21.5 -53t60.5 -19q43 0 75.5 27t46.5 81h131q-23 -96 -94 -149t-176 -53q-91 0 -143 39t-52 111zM248 416 q0 39 27 65t66 26q30 0 48 -18t18 -47q0 -39 -27 -65t-66 -26q-30 0 -48 18t-18 47z" />
<glyph unicode="&#xc0;" horiz-adv-x="635" d="M1 0l367 700h127l130 -700h-130l-28 175h-253l-87 -175h-126zM260 268h192l-24 146l-19 166l-77 -166zM283 894h157l113 -143h-103z" />
<glyph unicode="&#xc1;" horiz-adv-x="635" d="M1 0l367 700h127l130 -700h-130l-28 175h-253l-87 -175h-126zM260 268h192l-24 146l-19 166l-77 -166zM328 751l152 143h166l-207 -143h-111z" />
<glyph unicode="&#xc2;" horiz-adv-x="635" d="M1 0l367 700h127l130 -700h-130l-28 175h-253l-87 -175h-126zM230 751l174 143h121l124 -143h-114l-83 64l-104 -64h-118zM260 268h192l-24 146l-19 166l-77 -166z" />
<glyph unicode="&#xc3;" horiz-adv-x="635" d="M1 0l367 700h127l130 -700h-130l-28 175h-253l-87 -175h-126zM253 794q28 49 64.5 76t71.5 27q32 0 81.5 -22t62.5 -22q32 0 59 41l61 -32q-27 -50 -63 -76.5t-72 -26.5q-31 0 -80.5 22t-63.5 22q-32 0 -60 -41zM260 268h192l-24 146l-19 166l-77 -166z" />
<glyph unicode="&#xc4;" horiz-adv-x="635" d="M1 0l367 700h127l130 -700h-130l-28 175h-253l-87 -175h-126zM260 268h192l-24 146l-19 166l-77 -166zM268 820q0 33 26 57t61 24q28 0 45 -17t17 -43q0 -35 -25.5 -58.5t-60.5 -23.5q-28 0 -45.5 17t-17.5 44zM489 819q0 34 25.5 58t60.5 24q28 0 45.5 -17t17.5 -44 q0 -34 -26 -57.5t-61 -23.5q-28 0 -45 16.5t-17 43.5z" />
<glyph unicode="&#xc5;" horiz-adv-x="635" d="M1 0l367 700h127l130 -700h-130l-28 175h-253l-87 -175h-126zM260 268h192l-24 146l-19 166l-77 -166zM328 807q0 51 41.5 83.5t99.5 32.5q47 0 76.5 -24t29.5 -63q0 -51 -41 -83t-100 -32q-47 0 -76.5 23.5t-29.5 62.5zM421 798q10 -10 22.5 -9.5t22.5 9.5q32 15 16 47 q-20 22 -45 1q-31 -16 -16 -48z" />
<glyph unicode="&#xc6;" horiz-adv-x="953" d="M1 0l593 700h426l-16 -95h-295l-33 -188h274l-17 -97h-274l-40 -225h295l-17 -95h-421l31 175h-222l-141 -175h-143zM360 268h163l46 261l-111 -140z" />
<glyph unicode="&#xc7;" horiz-adv-x="659" d="M88 265q0 198 106 324t269 126q113 0 177.5 -64t53.5 -189h-134q5 79 -26 118.5t-88 39.5q-97 0 -160.5 -99t-63.5 -254q0 -92 33.5 -139.5t96.5 -47.5q57 0 101.5 39.5t66.5 118.5h135q-32 -120 -113.5 -183.5t-189.5 -69.5l-46 -49q42 2 70.5 -16t28.5 -55 q0 -53 -44.5 -83t-105.5 -30q-42 0 -69 14l10 59q26 -13 62 -13q21 0 38.5 10.5t17.5 30.5q0 15 -13 22.5t-30 7.5q-21 0 -40 -6l-16 39l68 73q-98 15 -146.5 87t-48.5 189z" />
<glyph unicode="&#xc8;" horiz-adv-x="553" d="M76 0l123 700h421l-16 -95h-294l-34 -189h274l-16 -95h-275l-40 -226h295l-17 -95h-421zM249 894h157l113 -143h-103z" />
<glyph unicode="&#xc9;" horiz-adv-x="553" d="M76 0l123 700h421l-16 -95h-294l-34 -189h274l-16 -95h-275l-40 -226h295l-17 -95h-421zM295 751l152 143h166l-207 -143h-111z" />
<glyph unicode="&#xca;" horiz-adv-x="553" d="M76 0l123 700h421l-16 -95h-294l-34 -189h274l-16 -95h-275l-40 -226h295l-17 -95h-421zM208 751l174 143h121l124 -143h-114l-83 64l-104 -64h-118z" />
<glyph unicode="&#xcb;" horiz-adv-x="553" d="M76 0l123 700h421l-16 -95h-294l-34 -189h274l-16 -95h-275l-40 -226h295l-17 -95h-421zM245 820q0 33 26 57t61 24q28 0 45 -17t17 -43q0 -35 -25.5 -58.5t-60.5 -23.5q-28 0 -45.5 17t-17.5 44zM466 819q0 34 25.5 58t60.5 24q28 0 45.5 -17t17.5 -44q0 -34 -26 -57.5 t-61 -23.5q-28 0 -45 16.5t-17 43.5z" />
<glyph unicode="&#xcc;" horiz-adv-x="294" d="M76 0l123 700h127l-123 -700h-127zM108 894h157l113 -143h-103z" />
<glyph unicode="&#xcd;" horiz-adv-x="294" d="M76 0l123 700h127l-123 -700h-127zM173 751l152 143h166l-207 -143h-111z" />
<glyph unicode="&#xce;" horiz-adv-x="294" d="M66 751l174 143h121l124 -143h-114l-83 64l-104 -64h-118zM76 0l123 700h127l-123 -700h-127z" />
<glyph unicode="&#xcf;" horiz-adv-x="294" d="M76 0l123 700h127l-123 -700h-127zM127 820q0 33 26 57t61 24q28 0 45 -17t17 -43q0 -35 -25.5 -58.5t-61.5 -23.5q-27 0 -44.5 17t-17.5 44zM300 819q0 34 25.5 58t60.5 24q28 0 45.5 -17t17.5 -44q0 -34 -26 -57.5t-61 -23.5q-28 0 -45 17t-17 43z" />
<glyph unicode="&#xd0;" horiz-adv-x="703" d="M28 300l17 95h100l54 305h224q138 0 218.5 -76t80.5 -210q0 -187 -119.5 -300.5t-302.5 -113.5h-224l53 300h-101zM219 95h98q120 0 195.5 80.5t75.5 232.5q0 99 -48.5 148t-132.5 49h-97l-37 -210h145l-17 -95h-145z" />
<glyph unicode="&#xd1;" horiz-adv-x="719" d="M76 0l123 700h122l227 -515l25 158l63 357h114l-123 -700h-121l-227 514l-25 -158l-63 -356h-115zM297 794q28 49 64.5 76t71.5 27q32 0 81.5 -22t62.5 -22q32 0 59 41l61 -32q-27 -50 -63 -76.5t-72 -26.5q-31 0 -80.5 22t-63.5 22q-32 0 -60 -41z" />
<glyph unicode="&#xd2;" horiz-adv-x="726" d="M88 276q0 193 110 316t284 123q126 0 195 -78.5t69 -212.5q0 -193 -109.5 -316t-283.5 -123q-126 0 -195.5 78.5t-69.5 212.5zM222 276q0 -93 39.5 -144.5t108.5 -51.5q76 0 132 49t83.5 126t27.5 169q0 93 -39.5 144.5t-109.5 51.5q-112 0 -177 -100.5t-65 -243.5z M331 894h157l113 -143h-103z" />
<glyph unicode="&#xd3;" horiz-adv-x="726" d="M88 276q0 193 110 316t284 123q126 0 195 -78.5t69 -212.5q0 -193 -109.5 -316t-283.5 -123q-126 0 -195.5 78.5t-69.5 212.5zM222 276q0 -93 39.5 -144.5t108.5 -51.5q76 0 132 49t83.5 126t27.5 169q0 93 -39.5 144.5t-109.5 51.5q-112 0 -177 -100.5t-65 -243.5z M376 751l152 143h166l-207 -143h-111z" />
<glyph unicode="&#xd4;" horiz-adv-x="726" d="M88 276q0 193 110 316t284 123q126 0 195 -78.5t69 -212.5q0 -193 -109.5 -316t-283.5 -123q-126 0 -195.5 78.5t-69.5 212.5zM222 276q0 -93 39.5 -144.5t108.5 -51.5q76 0 132 49t83.5 126t27.5 169q0 93 -39.5 144.5t-109.5 51.5q-112 0 -177 -100.5t-65 -243.5z M279 751l174 143h121l124 -143h-114l-83 64l-104 -64h-118z" />
<glyph unicode="&#xd5;" horiz-adv-x="726" d="M88 276q0 193 110 316t284 123q126 0 195 -78.5t69 -212.5q0 -193 -109.5 -316t-283.5 -123q-126 0 -195.5 78.5t-69.5 212.5zM222 276q0 -93 39.5 -144.5t108.5 -51.5q76 0 132 49t83.5 126t27.5 169q0 93 -39.5 144.5t-109.5 51.5q-112 0 -177 -100.5t-65 -243.5z M301 794q28 49 64.5 76t71.5 27q32 0 81.5 -22t62.5 -22q32 0 59 41l61 -32q-27 -50 -63 -76.5t-72 -26.5q-31 0 -80.5 22t-63.5 22q-32 0 -60 -41z" />
<glyph unicode="&#xd6;" horiz-adv-x="726" d="M88 276q0 193 110 316t284 123q126 0 195 -78.5t69 -212.5q0 -193 -109.5 -316t-283.5 -123q-126 0 -195.5 78.5t-69.5 212.5zM222 276q0 -93 39.5 -144.5t108.5 -51.5q76 0 132 49t83.5 126t27.5 169q0 93 -39.5 144.5t-109.5 51.5q-112 0 -177 -100.5t-65 -243.5z M317 820q0 33 26 57t61 24q28 0 45 -17t17 -43q0 -35 -25.5 -58.5t-60.5 -23.5q-28 0 -45.5 17t-17.5 44zM538 819q0 34 25.5 58t60.5 24q28 0 45.5 -17t17.5 -44q0 -34 -26 -57.5t-61 -23.5q-28 0 -45 16.5t-17 43.5z" />
<glyph unicode="&#xd7;" horiz-adv-x="514" d="M86 219l178 151l-120 148l76 64l120 -147l178 151l61 -73l-179 -152l121 -149l-77 -64l-120 148l-177 -150z" />
<glyph unicode="&#xd8;" horiz-adv-x="726" d="M37 -90l114 161q-63 77 -63 205q0 193 110 316t284 123q64 0 113 -21l68 96h134l-114 -160q63 -78 63 -206q0 -193 -109.5 -316t-283.5 -123q-65 0 -114 21l-68 -96h-134zM222 276q0 -52 12 -89l297 418q-29 15 -67 15q-112 0 -177 -100.5t-65 -243.5zM303 96 q28 -16 67 -16q76 0 132 49t83.5 126t27.5 169q0 51 -12 90z" />
<glyph unicode="&#xd9;" horiz-adv-x="712" d="M112 231l82 469h126l-79 -449q-15 -86 14 -128.5t109 -42.5q156 0 182 151l82 469h115l-78 -449q-24 -129 -108 -197.5t-211 -68.5q-128 0 -191.5 62.5t-42.5 183.5zM322 894h157l113 -143h-103z" />
<glyph unicode="&#xda;" horiz-adv-x="712" d="M112 231l82 469h126l-79 -449q-15 -86 14 -128.5t109 -42.5q156 0 182 151l82 469h115l-78 -449q-24 -129 -108 -197.5t-211 -68.5q-128 0 -191.5 62.5t-42.5 183.5zM361 751l152 143h166l-207 -143h-111z" />
<glyph unicode="&#xdb;" horiz-adv-x="712" d="M112 231l82 469h126l-79 -449q-15 -86 14 -128.5t109 -42.5q156 0 182 151l82 469h115l-78 -449q-24 -129 -108 -197.5t-211 -68.5q-128 0 -191.5 62.5t-42.5 183.5zM269 751l174 143h121l124 -143h-114l-83 64l-104 -64h-118z" />
<glyph unicode="&#xdc;" horiz-adv-x="712" d="M112 231l82 469h126l-79 -449q-15 -86 14 -128.5t109 -42.5q156 0 182 151l82 469h115l-78 -449q-24 -129 -108 -197.5t-211 -68.5q-128 0 -191.5 62.5t-42.5 183.5zM307 820q0 33 26 57t61 24q28 0 45 -17t17 -43q0 -35 -25.5 -58.5t-60.5 -23.5q-28 0 -45.5 17 t-17.5 44zM528 819q0 34 25.5 58t60.5 24q28 0 45.5 -17t17.5 -44q0 -34 -26 -57.5t-61 -23.5q-28 0 -45 16.5t-17 43.5z" />
<glyph unicode="&#xdd;" horiz-adv-x="586" d="M129 700h129l102 -331l203 331h124l-287 -436l-47 -264h-126l47 264zM306 751l152 143h166l-207 -143h-111z" />
<glyph unicode="&#xde;" horiz-adv-x="589" d="M76 0l123 700h127l-19 -109h102q94 0 156 -49.5t62 -143.5q0 -88 -45.5 -150.5t-111.5 -90.5t-143 -28h-102l-22 -129h-127zM241 221h102q64 0 109.5 44.5t45.5 121.5q0 53 -29 82.5t-77 29.5h-102z" />
<glyph unicode="&#xdf;" horiz-adv-x="646" d="M66 0l87 492q23 127 109 197t198 70q81 0 135 -32t54 -98q0 -36 -15.5 -66t-37.5 -50.5t-44 -38t-37.5 -36.5t-15.5 -38q0 -18 15 -35t37 -32.5t44 -33.5t37 -47.5t15 -65.5q0 -92 -68.5 -146.5t-156.5 -54.5q-86 0 -125 43.5t-30 124.5h119q-3 -44 10 -65.5t49 -21.5 q33 0 58 23.5t25 67.5q0 28 -16 49.5t-38.5 37t-45 31.5t-38.5 40.5t-16 55.5t15 57.5t37 46t43.5 38.5t36.5 43t15 51q0 72 -80 72q-59 0 -104.5 -45.5t-62.5 -141.5l-87 -492h-121z" />
<glyph unicode="&#xe0;" horiz-adv-x="588" d="M75 193q0 155 82.5 248.5t190.5 93.5q81 0 122 -61l8 46h120l-92 -520h-120l81 458l-10 -54q-37 43 -96 43q-67 0 -114 -65.5t-47 -176.5q0 -65 23.5 -98t63.5 -33q65 0 120 45l-12 -66q-79 -68 -168 -68q-71 0 -111.5 54.5t-40.5 153.5zM245 740h144l81 -157h-99z" />
<glyph unicode="&#xe1;" horiz-adv-x="588" d="M75 193q0 155 82.5 248.5t190.5 93.5q81 0 122 -61l8 46h120l-92 -520h-120l81 458l-10 -54q-37 43 -96 43q-67 0 -114 -65.5t-47 -176.5q0 -65 23.5 -98t63.5 -33q65 0 120 45l-12 -66q-79 -68 -168 -68q-71 0 -111.5 54.5t-40.5 153.5zM276 583l129 157h154l-179 -157 h-104z" />
<glyph unicode="&#xe2;" horiz-adv-x="588" d="M75 193q0 155 82.5 248.5t190.5 93.5q81 0 122 -61l8 46h120l-92 -520h-120l81 458l-10 -54q-37 43 -96 43q-67 0 -114 -65.5t-47 -176.5q0 -65 23.5 -98t63.5 -33q65 0 120 45l-12 -66q-79 -68 -168 -68q-71 0 -111.5 54.5t-40.5 153.5zM214 583l147 157h122l90 -157 h-99l-64 79l-92 -79h-104z" />
<glyph unicode="&#xe3;" horiz-adv-x="588" d="M75 193q0 155 82.5 248.5t190.5 93.5q81 0 122 -61l8 46h120l-92 -520h-120l81 458l-10 -54q-37 43 -96 43q-67 0 -114 -65.5t-47 -176.5q0 -65 23.5 -98t63.5 -33q65 0 120 45l-12 -66q-79 -68 -168 -68q-71 0 -111.5 54.5t-40.5 153.5zM217 622q27 50 63.5 76.5 t70.5 26.5q32 0 74 -22t55 -22q29 0 55 41l62 -32q-27 -49 -63 -76t-70 -27q-32 0 -74 22t-56 22q-28 0 -56 -41z" />
<glyph unicode="&#xe4;" horiz-adv-x="588" d="M75 193q0 155 82.5 248.5t190.5 93.5q81 0 122 -61l8 46h120l-92 -520h-120l81 458l-10 -54q-37 43 -96 43q-67 0 -114 -65.5t-47 -176.5q0 -65 23.5 -98t63.5 -33q65 0 120 45l-12 -66q-79 -68 -168 -68q-71 0 -111.5 54.5t-40.5 153.5zM237 653q0 34 26 58.5t61 24.5 q27 0 44 -17.5t17 -44.5q0 -34 -25.5 -58.5t-61.5 -24.5q-27 0 -44 17.5t-17 44.5zM440 652q0 34 25.5 59t60.5 25q27 0 44.5 -17.5t17.5 -44.5q0 -34 -26 -58.5t-61 -24.5q-27 0 -44 17t-17 44z" />
<glyph unicode="&#xe5;" horiz-adv-x="588" d="M75 193q0 155 82.5 248.5t190.5 93.5q81 0 122 -61l8 46h120l-92 -520h-120l81 458l-10 -54q-37 43 -96 43q-67 0 -114 -65.5t-47 -176.5q0 -65 23.5 -98t63.5 -33q65 0 120 45l-12 -66q-79 -68 -168 -68q-71 0 -111.5 54.5t-40.5 153.5zM284 646q0 51 41 82t100 31 q47 0 76.5 -23t29.5 -62q0 -50 -41.5 -81t-99.5 -31q-47 0 -76.5 23t-29.5 61zM377 639q20 -21 45 -3q31 12 15 46q-19 21 -44 3q-32 -14 -16 -46z" />
<glyph unicode="&#xe6;" horiz-adv-x="872" d="M56 101q0 80 71 136.5t212 56.5q21 0 75 -4l10 57q19 109 -71 109q-96 0 -119 -110h-120q16 91 88 140t166 49q113 0 152 -67q75 67 172 67q115 0 161.5 -75t11.5 -220h-339q-2 -30 -2 -46q0 -129 87 -129q79 0 111 86h121q-22 -74 -91 -120t-156 -46q-131 0 -174 96 q-114 -96 -233 -96q-62 0 -97.5 31.5t-35.5 84.5zM181 130q0 -56 73 -56q70 0 149 70q-3 33 0 75q-32 4 -69 4q-77 0 -115 -25.5t-38 -67.5zM537 315h219q12 71 -9.5 107t-68.5 36q-50 0 -86.5 -36.5t-54.5 -106.5z" />
<glyph unicode="&#xe7;" horiz-adv-x="534" d="M75 197q0 148 80.5 243t210.5 95q92 0 144 -52t45 -141h-122q3 61 -17.5 87.5t-64.5 26.5q-67 0 -109.5 -74.5t-42.5 -184.5q0 -132 86 -132q84 0 117 108h122q-24 -82 -87 -132t-148 -55l-47 -50q42 2 70.5 -16t28.5 -55q0 -53 -44.5 -83t-105.5 -30q-42 0 -69 14l10 59 q26 -13 62 -13q21 0 38.5 10.5t17.5 30.5q0 15 -13 22.5t-30 7.5q-21 0 -40 -6l-16 39l68 73q-144 27 -144 208z" />
<glyph unicode="&#xe8;" horiz-adv-x="542" d="M75 195q0 149 82.5 244.5t204.5 95.5q115 0 161.5 -75t11.5 -220h-339q-2 -30 -2 -46q0 -129 87 -129q80 0 110 86h122q-22 -74 -91 -120t-157 -46q-97 0 -143.5 55.5t-46.5 154.5zM207 315h219q12 71 -10 107t-69 36q-49 0 -85.5 -36.5t-54.5 -106.5zM241 740h144 l81 -157h-99z" />
<glyph unicode="&#xe9;" horiz-adv-x="542" d="M75 195q0 149 82.5 244.5t204.5 95.5q115 0 161.5 -75t11.5 -220h-339q-2 -30 -2 -46q0 -129 87 -129q80 0 110 86h122q-22 -74 -91 -120t-157 -46q-97 0 -143.5 55.5t-46.5 154.5zM207 315h219q12 71 -10 107t-69 36q-49 0 -85.5 -36.5t-54.5 -106.5zM273 583l129 157 h154l-179 -157h-104z" />
<glyph unicode="&#xea;" horiz-adv-x="542" d="M75 195q0 149 82.5 244.5t204.5 95.5q115 0 161.5 -75t11.5 -220h-339q-2 -30 -2 -46q0 -129 87 -129q80 0 110 86h122q-22 -74 -91 -120t-157 -46q-97 0 -143.5 55.5t-46.5 154.5zM189 583l147 157h122l90 -157h-99l-64 79l-92 -79h-104zM207 315h219q12 71 -10 107 t-69 36q-49 0 -85.5 -36.5t-54.5 -106.5z" />
<glyph unicode="&#xeb;" horiz-adv-x="542" d="M75 195q0 149 82.5 244.5t204.5 95.5q115 0 161.5 -75t11.5 -220h-339q-2 -30 -2 -46q0 -129 87 -129q80 0 110 86h122q-22 -74 -91 -120t-157 -46q-97 0 -143.5 55.5t-46.5 154.5zM207 315h219q12 71 -10 107t-69 36q-49 0 -85.5 -36.5t-54.5 -106.5zM208 653 q0 34 26 58.5t61 24.5q27 0 44 -17.5t17 -44.5q0 -34 -25.5 -58.5t-61.5 -24.5q-27 0 -44 17.5t-17 44.5zM411 652q0 34 25.5 59t60.5 25q27 0 44.5 -17.5t17.5 -44.5q0 -34 -26 -58.5t-61 -24.5q-27 0 -44 17t-17 44z" />
<glyph unicode="&#xec;" horiz-adv-x="268" d="M66 0l92 520h121l-92 -520h-121zM97 740h144l81 -157h-99z" />
<glyph unicode="&#xed;" horiz-adv-x="268" d="M66 0l92 520h121l-92 -520h-121zM137 583l129 157h154l-179 -157h-104z" />
<glyph unicode="&#xee;" horiz-adv-x="268" d="M50 583l147 157h122l90 -157h-99l-64 79l-92 -79h-104zM66 0l92 520h121l-92 -520h-121z" />
<glyph unicode="&#xef;" horiz-adv-x="268" d="M66 0l92 520h121l-92 -520h-121zM84 653q0 34 25.5 58.5t60.5 24.5q28 0 45 -17.5t17 -44.5q0 -34 -25.5 -58.5t-61.5 -24.5q-27 0 -44 17.5t-17 44.5zM255 652q0 34 26 59t61 25q27 0 44.5 -17.5t17.5 -44.5q0 -34 -26 -58.5t-61 -24.5q-27 0 -44.5 17.5t-17.5 43.5z " />
<glyph unicode="&#xf0;" horiz-adv-x="579" d="M75 197q0 134 78 225t189 91q54 0 96 -32q-21 63 -57 116l-135 -43l-37 71l119 38q-39 42 -92 81h150q29 -21 53 -45l122 39l38 -71l-106 -34q90 -134 90 -289q0 -154 -83.5 -256.5t-217.5 -102.5q-97 0 -152 57t-55 155zM199 199q0 -130 98 -130q77 0 119.5 74.5 t42.5 194.5q0 28 -3 55q-36 41 -93 41q-72 0 -118 -63.5t-46 -171.5z" />
<glyph unicode="&#xf1;" horiz-adv-x="601" d="M66 0l92 520h121l-12 -67q97 82 196 82q65 0 101.5 -40.5t20.5 -130.5l-64 -364h-121l61 344q17 96 -73 96q-31 0 -69 -15.5t-64 -38.5l-68 -386h-121zM209 622q27 50 63.5 76.5t70.5 26.5q32 0 74 -22t55 -22q29 0 55 41l62 -32q-27 -49 -63 -76t-70 -27q-32 0 -74 22 t-56 22q-28 0 -56 -41z" />
<glyph unicode="&#xf2;" horiz-adv-x="580" d="M76 204q0 145 83.5 238t217.5 93q97 0 150.5 -59t53.5 -160q0 -144 -83.5 -237.5t-218.5 -93.5q-97 0 -150 59t-53 160zM199 200q0 -65 25.5 -100t70.5 -35q71 0 117 67.5t46 187.5q0 65 -25.5 100.5t-70.5 35.5q-72 0 -117.5 -67.5t-45.5 -188.5zM257 740h144l81 -157 h-99z" />
<glyph unicode="&#xf3;" horiz-adv-x="580" d="M76 204q0 145 83.5 238t217.5 93q97 0 150.5 -59t53.5 -160q0 -144 -83.5 -237.5t-218.5 -93.5q-97 0 -150 59t-53 160zM199 200q0 -65 25.5 -100t70.5 -35q71 0 117 67.5t46 187.5q0 65 -25.5 100.5t-70.5 35.5q-72 0 -117.5 -67.5t-45.5 -188.5zM286 583l129 157h154 l-179 -157h-104z" />
<glyph unicode="&#xf4;" horiz-adv-x="580" d="M76 204q0 145 83.5 238t217.5 93q97 0 150.5 -59t53.5 -160q0 -144 -83.5 -237.5t-218.5 -93.5q-97 0 -150 59t-53 160zM199 200q0 -65 25.5 -100t70.5 -35q71 0 117 67.5t46 187.5q0 65 -25.5 100.5t-70.5 35.5q-72 0 -117.5 -67.5t-45.5 -188.5zM205 583l147 157h122 l90 -157h-99l-64 79l-92 -79h-104z" />
<glyph unicode="&#xf5;" horiz-adv-x="580" d="M76 204q0 145 83.5 238t217.5 93q97 0 150.5 -59t53.5 -160q0 -144 -83.5 -237.5t-218.5 -93.5q-97 0 -150 59t-53 160zM199 200q0 -65 25.5 -100t70.5 -35q71 0 117 67.5t46 187.5q0 65 -25.5 100.5t-70.5 35.5q-72 0 -117.5 -67.5t-45.5 -188.5zM208 622 q27 50 63.5 76.5t70.5 26.5q32 0 74 -22t55 -22q29 0 55 41l62 -32q-27 -49 -63 -76t-70 -27q-31 0 -74 22t-56 22q-28 0 -56 -41z" />
<glyph unicode="&#xf6;" horiz-adv-x="580" d="M76 204q0 145 83.5 238t217.5 93q97 0 150.5 -59t53.5 -160q0 -144 -83.5 -237.5t-218.5 -93.5q-97 0 -150 59t-53 160zM199 200q0 -65 25.5 -100t70.5 -35q71 0 117 67.5t46 187.5q0 65 -25.5 100.5t-70.5 35.5q-72 0 -117.5 -67.5t-45.5 -188.5zM224 653q0 34 26 58.5 t61 24.5q27 0 44 -17.5t17 -44.5q0 -34 -25.5 -58.5t-61.5 -24.5q-27 0 -44 17.5t-17 44.5zM427 652q0 34 25.5 59t60.5 25q27 0 44.5 -17.5t17.5 -44.5q0 -34 -26 -58.5t-61 -24.5q-27 0 -44 17t-17 44z" />
<glyph unicode="&#xf7;" horiz-adv-x="561" d="M96 318l16 95h469l-16 -95h-469zM234 170q0 32 25 55.5t59 23.5q26 0 42.5 -16.5t16.5 -42.5q0 -33 -25 -56.5t-58 -23.5q-27 0 -43.5 17t-16.5 43zM299 542q0 33 25 56t59 23q27 0 43.5 -16.5t16.5 -42.5q0 -32 -25 -55.5t-59 -23.5q-27 0 -43.5 16.5t-16.5 42.5z" />
<glyph unicode="&#xf8;" horiz-adv-x="580" d="M15 -80l102 138q-41 58 -41 146q0 145 83.5 238t217.5 93q44 0 83 -14l58 79h123l-102 -138q42 -58 42 -146q0 -144 -83.5 -237.5t-218.5 -93.5q-46 0 -83 14l-59 -79h-122zM199 200q0 -20 1 -29l204 275q-17 10 -42 10q-72 0 -117.5 -67.5t-45.5 -188.5zM252 75 q17 -10 43 -10q71 0 117 67.5t46 187.5q0 11 -2 31z" />
<glyph unicode="&#xf9;" horiz-adv-x="597" d="M94 156l64 364h121l-61 -344q-9 -50 8.5 -72.5t62.5 -22.5q66 0 130 53l68 386h121l-92 -520h-121l12 67q-99 -82 -193 -82q-66 0 -101 40.5t-19 130.5zM261 740h144l81 -157h-99z" />
<glyph unicode="&#xfa;" horiz-adv-x="597" d="M94 156l64 364h121l-61 -344q-9 -50 8.5 -72.5t62.5 -22.5q66 0 130 53l68 386h121l-92 -520h-121l12 67q-99 -82 -193 -82q-66 0 -101 40.5t-19 130.5zM301 583l129 157h154l-179 -157h-104z" />
<glyph unicode="&#xfb;" horiz-adv-x="597" d="M94 156l64 364h121l-61 -344q-9 -50 8.5 -72.5t62.5 -22.5q66 0 130 53l68 386h121l-92 -520h-121l12 67q-99 -82 -193 -82q-66 0 -101 40.5t-19 130.5zM213 583l147 157h122l90 -157h-99l-64 79l-92 -79h-104z" />
<glyph unicode="&#xfc;" horiz-adv-x="597" d="M94 156l64 364h121l-61 -344q-9 -50 8.5 -72.5t62.5 -22.5q66 0 130 53l68 386h121l-92 -520h-121l12 67q-99 -82 -193 -82q-66 0 -101 40.5t-19 130.5zM232 653q0 34 26 58.5t61 24.5q27 0 44 -17.5t17 -44.5q0 -34 -25.5 -58.5t-61.5 -24.5q-27 0 -44 17.5t-17 44.5z M435 652q0 34 25.5 59t60.5 25q27 0 44.5 -17.5t17.5 -44.5q0 -34 -26 -58.5t-61 -24.5q-27 0 -44 17t-17 44z" />
<glyph unicode="&#xfd;" horiz-adv-x="505" d="M74 -208l117 211l-103 517h126l37 -213l19 -162l77 162l110 213h118l-392 -728h-109zM249 583l129 157h154l-179 -157h-104z" />
<glyph unicode="&#xfe;" horiz-adv-x="588" d="M29 -208l168 952h121l-49 -276q81 67 168 67q71 0 111.5 -54.5t40.5 -152.5q0 -155 -82 -249t-190 -94q-80 0 -122 61l6 35l-51 -289h-121zM207 116q37 -42 96 -42q66 0 113.5 65t47.5 176q0 66 -23 99t-64 33q-64 0 -119 -46l7 43z" />
<glyph unicode="&#xff;" horiz-adv-x="505" d="M74 -208l117 211l-103 517h126l37 -213l19 -162l77 162l110 213h118l-392 -728h-109zM190 653q0 34 26 58.5t61 24.5q27 0 44 -17.5t17 -44.5q0 -34 -25.5 -58.5t-61.5 -24.5q-27 0 -44 17.5t-17 44.5zM393 652q0 34 25.5 59t60.5 25q27 0 44.5 -17.5t17.5 -44.5 q0 -34 -26 -58.5t-61 -24.5q-27 0 -44 17t-17 44z" />
<glyph unicode="&#x100;" horiz-adv-x="635" d="M1 0l367 700h127l130 -700h-130l-28 175h-253l-87 -175h-126zM260 268h192l-24 146l-19 166l-77 -166zM278 782l15 86h333l-15 -86h-333z" />
<glyph unicode="&#x101;" horiz-adv-x="588" d="M75 193q0 155 82.5 248.5t190.5 93.5q81 0 122 -61l8 46h120l-92 -520h-120l81 458l-10 -54q-37 43 -96 43q-67 0 -114 -65.5t-47 -176.5q0 -65 23.5 -98t63.5 -33q65 0 120 45l-12 -66q-79 -68 -168 -68q-71 0 -111.5 54.5t-40.5 153.5zM245 612l15 86h308l-15 -86h-308 z" />
<glyph unicode="&#x102;" horiz-adv-x="635" d="M1 0l367 700h127l130 -700h-130l-28 175h-253l-87 -175h-126zM260 268h192l-24 146l-19 166l-77 -166zM300 894h85q-4 -27 13 -44t56 -17t61 17t26 44h88q-13 -74 -66.5 -113.5t-124.5 -39.5q-70 0 -110 39.5t-28 113.5z" />
<glyph unicode="&#x103;" horiz-adv-x="588" d="M75 193q0 155 82.5 248.5t190.5 93.5q81 0 122 -61l8 46h120l-92 -520h-120l81 458l-10 -54q-37 43 -96 43q-67 0 -114 -65.5t-47 -176.5q0 -65 23.5 -98t63.5 -33q65 0 120 45l-12 -66q-79 -68 -168 -68q-71 0 -111.5 54.5t-40.5 153.5zM268 740h84q-7 -32 7 -54.5 t49 -22.5q34 0 54.5 22t27.5 55h86q-15 -83 -67.5 -125t-116.5 -42t-101.5 42t-22.5 125z" />
<glyph unicode="&#x104;" horiz-adv-x="635" d="M1 0l367 700h127l130 -700h-1q-139 -65 -139 -136q0 -18 11.5 -28t26.5 -10q32 0 74 20l-12 -70q-48 -24 -109 -24q-46 0 -71 24t-25 62q0 92 137 162h-22l-28 175h-253l-87 -175h-126zM260 268h192l-24 146l-19 166l-77 -166z" />
<glyph unicode="&#x105;" horiz-adv-x="588" d="M75 193q0 155 82.5 248.5t190.5 93.5q81 0 122 -61l8 46h120l-92 -520h-1q-139 -65 -139 -136q0 -18 11.5 -28t26.5 -10q32 0 74 20l-12 -70q-48 -24 -109 -24q-46 0 -71 24t-25 62q0 92 137 162h-12l81 458l-10 -54q-37 43 -96 43q-67 0 -114 -65.5t-47 -176.5 q0 -65 23.5 -98t63.5 -33q65 0 120 45l-12 -66q-79 -68 -168 -68q-71 0 -111.5 54.5t-40.5 153.5z" />
<glyph unicode="&#x106;" horiz-adv-x="659" d="M88 265q0 198 106 324t269 126q113 0 177.5 -64t53.5 -189h-134q5 79 -26 118.5t-88 39.5q-97 0 -160.5 -99t-63.5 -254q0 -92 33.5 -139.5t96.5 -47.5q57 0 101.5 39.5t66.5 118.5h135q-34 -125 -121 -189t-200 -64q-123 0 -184.5 74t-61.5 206zM334 751l152 143h166 l-207 -143h-111z" />
<glyph unicode="&#x107;" horiz-adv-x="534" d="M75 197q0 148 80.5 243t210.5 95q92 0 144 -52t45 -141h-122q3 61 -17.5 87.5t-64.5 26.5q-67 0 -109.5 -74.5t-42.5 -184.5q0 -132 86 -132q84 0 117 108h122q-25 -87 -94 -137.5t-161 -50.5q-98 0 -146 56t-48 156zM261 583l129 157h154l-179 -157h-104z" />
<glyph unicode="&#x108;" horiz-adv-x="659" d="M88 265q0 198 106 324t269 126q113 0 177.5 -64t53.5 -189h-134q5 79 -26 118.5t-88 39.5q-97 0 -160.5 -99t-63.5 -254q0 -92 33.5 -139.5t96.5 -47.5q57 0 101.5 39.5t66.5 118.5h135q-34 -125 -121 -189t-200 -64q-123 0 -184.5 74t-61.5 206zM247 751l174 143h121 l124 -143h-114l-83 64l-104 -64h-118z" />
<glyph unicode="&#x109;" horiz-adv-x="534" d="M75 197q0 148 80.5 243t210.5 95q92 0 144 -52t45 -141h-122q3 61 -17.5 87.5t-64.5 26.5q-67 0 -109.5 -74.5t-42.5 -184.5q0 -132 86 -132q84 0 117 108h122q-25 -87 -94 -137.5t-161 -50.5q-98 0 -146 56t-48 156zM187 583l147 157h122l90 -157h-99l-64 79l-92 -79 h-104z" />
<glyph unicode="&#x10a;" horiz-adv-x="659" d="M88 265q0 198 106 324t269 126q113 0 177.5 -64t53.5 -189h-134q5 79 -26 118.5t-88 39.5q-97 0 -160.5 -99t-63.5 -254q0 -92 33.5 -139.5t96.5 -47.5q57 0 101.5 39.5t66.5 118.5h135q-34 -125 -121 -189t-200 -64q-123 0 -184.5 74t-61.5 206zM392 819q0 35 26.5 59 t63.5 24q29 0 47 -17t18 -45q0 -35 -27 -59.5t-63 -24.5q-29 0 -47 17.5t-18 45.5z" />
<glyph unicode="&#x10b;" horiz-adv-x="534" d="M75 197q0 148 80.5 243t210.5 95q92 0 144 -52t45 -141h-122q3 61 -17.5 87.5t-64.5 26.5q-67 0 -109.5 -74.5t-42.5 -184.5q0 -132 86 -132q84 0 117 108h122q-25 -87 -94 -137.5t-161 -50.5q-98 0 -146 56t-48 156zM305 652q0 35 27 60.5t63 25.5q29 0 46 -18t17 -46 q0 -35 -26.5 -60.5t-62.5 -25.5q-29 0 -46.5 18t-17.5 46z" />
<glyph unicode="&#x10c;" horiz-adv-x="659" d="M88 265q0 198 106 324t269 126q113 0 177.5 -64t53.5 -189h-134q5 79 -26 118.5t-88 39.5q-97 0 -160.5 -99t-63.5 -254q0 -92 33.5 -139.5t96.5 -47.5q57 0 101.5 39.5t66.5 118.5h135q-34 -125 -121 -189t-200 -64q-123 0 -184.5 74t-61.5 206zM271 894h114l83 -64 l105 64h118l-174 -143h-121z" />
<glyph unicode="&#x10d;" horiz-adv-x="534" d="M75 197q0 148 80.5 243t210.5 95q92 0 144 -52t45 -141h-122q3 61 -17.5 87.5t-64.5 26.5q-67 0 -109.5 -74.5t-42.5 -184.5q0 -132 86 -132q84 0 117 108h122q-25 -87 -94 -137.5t-161 -50.5q-98 0 -146 56t-48 156zM216 740h99l64 -78l92 78h104l-147 -157h-122z" />
<glyph unicode="&#x10e;" horiz-adv-x="703" d="M76 0l123 700h224q138 0 218.5 -76t80.5 -210q0 -187 -119.5 -300.5t-302.5 -113.5h-224zM219 95h98q120 0 195.5 80.5t75.5 232.5q0 99 -48.5 148t-132.5 49h-97zM242 894h114l83 -64l105 64h118l-174 -143h-121z" />
<glyph unicode="&#x10f;" horiz-adv-x="588" d="M75 193q0 155 82.5 248.5t190.5 93.5q81 0 122 -60l47 269h120l-131 -744h-120l20 111l-11 -58q-79 -68 -168 -68q-71 0 -111.5 54.5t-40.5 153.5zM200 205q0 -65 23.5 -98t63.5 -33q65 0 120 45l53 299l-3 -14q-37 43 -96 43q-67 0 -114 -65.5t-47 -176.5zM667 574 l41 229h110l-65 -229h-86z" />
<glyph unicode="&#x110;" horiz-adv-x="703" d="M28 300l17 95h100l54 305h224q138 0 218.5 -76t80.5 -210q0 -187 -119.5 -300.5t-302.5 -113.5h-224l53 300h-101zM219 95h98q120 0 195.5 80.5t75.5 232.5q0 99 -48.5 148t-132.5 49h-97l-37 -210h145l-17 -95h-145z" />
<glyph unicode="&#x111;" horiz-adv-x="588" d="M75 193q0 155 82.5 248.5t190.5 93.5q81 0 122 -60l21 119h-110l15 86h110l11 64h120l-11 -64h78l-15 -86h-78l-105 -594h-120l20 111l-11 -58q-79 -68 -168 -68q-71 0 -111.5 54.5t-40.5 153.5zM200 205q0 -65 23.5 -98t63.5 -33q65 0 120 45l53 299l-3 -14 q-37 43 -96 43q-67 0 -114 -65.5t-47 -176.5z" />
<glyph unicode="&#x112;" horiz-adv-x="553" d="M76 0l123 700h421l-16 -95h-294l-34 -189h274l-16 -95h-275l-40 -226h295l-17 -95h-421zM256 782l15 86h333l-15 -86h-333z" />
<glyph unicode="&#x113;" horiz-adv-x="542" d="M75 195q0 149 82.5 244.5t204.5 95.5q115 0 161.5 -75t11.5 -220h-339q-2 -30 -2 -46q0 -129 87 -129q80 0 110 86h122q-22 -74 -91 -120t-157 -46q-97 0 -143.5 55.5t-46.5 154.5zM207 315h219q12 71 -10 107t-69 36q-49 0 -85.5 -36.5t-54.5 -106.5zM217 612l15 86h308 l-15 -86h-308z" />
<glyph unicode="&#x114;" horiz-adv-x="553" d="M76 0l123 700h421l-16 -95h-294l-34 -189h274l-16 -95h-275l-40 -226h295l-17 -95h-421zM277 894h85q-4 -27 13 -44t56 -17t61 17t26 44h88q-13 -74 -66.5 -113.5t-124.5 -39.5q-70 0 -110 39.5t-28 113.5z" />
<glyph unicode="&#x115;" horiz-adv-x="542" d="M75 195q0 149 82.5 244.5t204.5 95.5q115 0 161.5 -75t11.5 -220h-339q-2 -30 -2 -46q0 -129 87 -129q80 0 110 86h122q-22 -74 -91 -120t-157 -46q-97 0 -143.5 55.5t-46.5 154.5zM207 315h219q12 71 -10 107t-69 36q-49 0 -85.5 -36.5t-54.5 -106.5zM243 740h84 q-7 -32 7 -54.5t49 -22.5q34 0 54.5 22t27.5 55h86q-15 -83 -67.5 -125t-116.5 -42t-101.5 42t-22.5 125z" />
<glyph unicode="&#x116;" horiz-adv-x="553" d="M76 0l123 700h421l-16 -95h-294l-34 -189h274l-16 -95h-275l-40 -226h295l-17 -95h-421zM353 819q0 35 26.5 59t63.5 24q29 0 47 -17t18 -45q0 -35 -27 -59.5t-63 -24.5q-29 0 -47 17.5t-18 45.5z" />
<glyph unicode="&#x117;" horiz-adv-x="542" d="M75 195q0 149 82.5 244.5t204.5 95.5q115 0 161.5 -75t11.5 -220h-339q-2 -30 -2 -46q0 -129 87 -129q80 0 110 86h122q-22 -74 -91 -120t-157 -46q-97 0 -143.5 55.5t-46.5 154.5zM207 315h219q12 71 -10 107t-69 36q-49 0 -85.5 -36.5t-54.5 -106.5zM301 652 q0 35 27 60.5t63 25.5q29 0 46 -18t17 -46q0 -35 -26.5 -60.5t-62.5 -25.5q-29 0 -46.5 18t-17.5 46z" />
<glyph unicode="&#x118;" horiz-adv-x="553" d="M76 0l123 700h421l-16 -95h-294l-34 -189h274l-16 -95h-275l-40 -226h295l-17 -95h-1q-139 -65 -139 -136q0 -18 11.5 -28t26.5 -10q32 0 74 20l-12 -70q-48 -24 -109 -24q-46 0 -71 24t-25 62q0 92 137 162h-313z" />
<glyph unicode="&#x119;" horiz-adv-x="542" d="M75 195q0 149 82.5 244.5t204.5 95.5q115 0 161.5 -75t11.5 -220h-339q-2 -30 -2 -46q0 -129 87 -129q80 0 110 86h122q-13 -40 -36 -69h1q-96 -128 -114 -161.5t-18 -56.5q0 -18 11.5 -28t27.5 -10q32 0 74 20l-12 -70q-48 -24 -109 -24q-46 0 -71 24t-25 62 q0 35 18.5 67.5t73.5 87.5q-35 -8 -69 -8q-97 0 -143.5 55.5t-46.5 154.5zM207 315h219q12 71 -10 107t-69 36q-49 0 -85.5 -36.5t-54.5 -106.5z" />
<glyph unicode="&#x11a;" horiz-adv-x="553" d="M76 0l123 700h421l-16 -95h-294l-34 -189h274l-16 -95h-275l-40 -226h295l-17 -95h-421zM232 894h114l83 -64l105 64h118l-174 -143h-121z" />
<glyph unicode="&#x11b;" horiz-adv-x="542" d="M75 195q0 149 82.5 244.5t204.5 95.5q115 0 161.5 -75t11.5 -220h-339q-2 -30 -2 -46q0 -129 87 -129q80 0 110 86h122q-22 -74 -91 -120t-157 -46q-97 0 -143.5 55.5t-46.5 154.5zM207 315h219q12 71 -10 107t-69 36q-49 0 -85.5 -36.5t-54.5 -106.5zM218 740h99l64 -78 l92 78h104l-147 -157h-122z" />
<glyph unicode="&#x11c;" horiz-adv-x="670" d="M87 258q0 203 106.5 330t272.5 127q109 0 171 -60t55 -174h-134q3 69 -26.5 104t-82.5 35q-101 0 -163.5 -98t-62.5 -247q0 -96 36.5 -146t98.5 -50q38 0 80 16.5t73 41.5l22 127h-146l15 90h269l-63 -354h-121l11 65q-37 -35 -92.5 -57.5t-106.5 -22.5q-102 0 -157 72.5 t-55 200.5zM250 751l174 143h121l124 -143h-114l-83 64l-104 -64h-118z" />
<glyph unicode="&#x11d;" horiz-adv-x="584" d="M41 -47h120q-9 -96 89 -96q48 0 84.5 30.5t48.5 99.5l13 72q-81 -67 -167 -67q-72 0 -113 53.5t-41 151.5q0 154 82 246t191 92q81 0 122 -61l8 46h120l-92 -519q-20 -113 -93 -168.5t-178 -55.5q-98 0 -150.5 44.5t-43.5 131.5zM200 210q0 -65 24 -97.5t65 -32.5 q64 0 119 46l57 321l-8 -43q-37 43 -96 43q-67 0 -114 -63.5t-47 -173.5zM214 583l147 157h122l90 -157h-99l-64 79l-92 -79h-104z" />
<glyph unicode="&#x11e;" horiz-adv-x="670" d="M87 258q0 203 106.5 330t272.5 127q109 0 171 -60t55 -174h-134q3 69 -26.5 104t-82.5 35q-101 0 -163.5 -98t-62.5 -247q0 -96 36.5 -146t98.5 -50q38 0 80 16.5t73 41.5l22 127h-146l15 90h269l-63 -354h-121l11 65q-37 -35 -92.5 -57.5t-106.5 -22.5q-102 0 -157 72.5 t-55 200.5zM319 894h85q-4 -27 13 -44t56 -17t61 17t26 44h88q-13 -74 -66.5 -113.5t-124.5 -39.5q-70 0 -110 39.5t-28 113.5z" />
<glyph unicode="&#x11f;" horiz-adv-x="584" d="M41 -47h120q-9 -96 89 -96q48 0 84.5 30.5t48.5 99.5l13 72q-81 -67 -167 -67q-72 0 -113 53.5t-41 151.5q0 154 82 246t191 92q81 0 122 -61l8 46h120l-92 -519q-20 -113 -93 -168.5t-178 -55.5q-98 0 -150.5 44.5t-43.5 131.5zM200 210q0 -65 24 -97.5t65 -32.5 q64 0 119 46l57 321l-8 -43q-37 43 -96 43q-67 0 -114 -63.5t-47 -173.5zM268 740h84q-7 -32 7 -54.5t49 -22.5q34 0 54.5 22t27.5 55h86q-15 -83 -67.5 -125t-116.5 -42t-101.5 42t-22.5 125z" />
<glyph unicode="&#x120;" horiz-adv-x="670" d="M87 258q0 203 106.5 330t272.5 127q109 0 171 -60t55 -174h-134q3 69 -26.5 104t-82.5 35q-101 0 -163.5 -98t-62.5 -247q0 -96 36.5 -146t98.5 -50q38 0 80 16.5t73 41.5l22 127h-146l15 90h269l-63 -354h-121l11 65q-37 -35 -92.5 -57.5t-106.5 -22.5q-102 0 -157 72.5 t-55 200.5zM390 819q0 35 26.5 59t63.5 24q29 0 47 -17t18 -45q0 -35 -27 -59.5t-63 -24.5q-29 0 -47 17.5t-18 45.5z" />
<glyph unicode="&#x121;" horiz-adv-x="584" d="M41 -47h120q-9 -96 89 -96q48 0 84.5 30.5t48.5 99.5l13 72q-81 -67 -167 -67q-72 0 -113 53.5t-41 151.5q0 154 82 246t191 92q81 0 122 -61l8 46h120l-92 -519q-20 -113 -93 -168.5t-178 -55.5q-98 0 -150.5 44.5t-43.5 131.5zM200 210q0 -65 24 -97.5t65 -32.5 q64 0 119 46l57 321l-8 -43q-37 43 -96 43q-67 0 -114 -63.5t-47 -173.5zM311 652q0 35 27 60.5t63 25.5q29 0 46 -18t17 -46q0 -35 -26.5 -60.5t-62.5 -25.5q-29 0 -46.5 18t-17.5 46z" />
<glyph unicode="&#x122;" horiz-adv-x="670" d="M87 258q0 203 106.5 330t272.5 127q109 0 171 -60t55 -174h-134q3 69 -26.5 104t-82.5 35q-101 0 -163.5 -98t-62.5 -247q0 -96 36.5 -146t98.5 -50q38 0 80 16.5t73 41.5l22 127h-146l15 90h269l-63 -354h-121l11 65q-37 -35 -92.5 -57.5t-106.5 -22.5q-102 0 -157 72.5 t-55 200.5zM221 -248l54 189h114l-82 -189h-86z" />
<glyph unicode="&#x123;" horiz-adv-x="584" d="M41 -47h120q-9 -96 89 -96q48 0 84.5 30.5t48.5 99.5l13 72q-81 -67 -167 -67q-72 0 -113 53.5t-41 151.5q0 154 82 246t191 92q81 0 122 -61l8 46h120l-92 -519q-20 -113 -93 -168.5t-178 -55.5q-98 0 -150.5 44.5t-43.5 131.5zM200 210q0 -65 24 -97.5t65 -32.5 q64 0 119 46l57 321l-8 -43q-37 43 -96 43q-67 0 -114 -63.5t-47 -173.5zM309 582l82 189h86l-54 -189h-114z" />
<glyph unicode="&#x124;" horiz-adv-x="733" d="M76 0l123 700h127l-50 -284h313l50 284h126l-123 -700h-126l57 321h-314l-56 -321h-127zM282 751l174 143h121l124 -143h-114l-83 64l-104 -64h-118z" />
<glyph unicode="&#x125;" horiz-adv-x="605" d="M53 781l174 143h121l124 -143h-114l-83 64l-104 -64h-118zM66 0l131 744h121l-51 -291q97 82 196 82q65 0 101.5 -40.5t20.5 -130.5l-64 -364h-121l61 344q17 96 -73 96q-31 0 -69 -15.5t-64 -38.5l1 4l-69 -390h-121z" />
<glyph unicode="&#x126;" horiz-adv-x="733" d="M76 0l89 504h-75l16 95h75l18 101h127l-18 -101h313l18 101h126l-18 -101h76l-17 -95h-75l-89 -504h-126l53 301h-313l-53 -301h-127zM272 396h314l19 108h-314z" />
<glyph unicode="&#x127;" horiz-adv-x="605" d="M66 0l105 594h-76l15 86h76l11 64h121l-11 -64h111l-15 -86h-111l-25 -141q97 82 196 82q65 0 101.5 -40.5t20.5 -130.5l-64 -364h-121l61 344q17 96 -73 96q-31 0 -69 -15.5t-64 -38.5l1 4l-69 -390h-121z" />
<glyph unicode="&#x128;" horiz-adv-x="294" d="M76 0l123 700h127l-123 -700h-127zM88 794q28 49 64.5 76t71.5 27q32 0 81.5 -22t62.5 -22q32 0 59 41l61 -32q-27 -50 -63 -76.5t-72 -26.5q-31 0 -80.5 22t-63.5 22q-32 0 -60 -41z" />
<glyph unicode="&#x129;" horiz-adv-x="268" d="M54 622q27 50 63.5 76.5t70.5 26.5q32 0 74 -22t55 -22q29 0 55 41l62 -32q-27 -49 -63 -76t-70 -27q-31 0 -74 22t-56 22q-28 0 -56 -41zM66 0l92 520h121l-92 -520h-121z" />
<glyph unicode="&#x12a;" horiz-adv-x="294" d="M76 0l123 700h127l-123 -700h-127zM149 782l15 86h261l-15 -86h-261z" />
<glyph unicode="&#x12b;" horiz-adv-x="268" d="M66 0l92 520h121l-92 -520h-121zM116 612l15 86h237l-15 -86h-237z" />
<glyph unicode="&#x12c;" horiz-adv-x="294" d="M76 0l123 700h127l-123 -700h-127zM135 894h85q-4 -27 13 -44t56 -17t61 17t26 44h88q-13 -74 -66.5 -113.5t-124.5 -39.5q-70 0 -110 39.5t-28 113.5z" />
<glyph unicode="&#x12d;" horiz-adv-x="268" d="M66 0l92 520h121l-92 -520h-121zM104 740h84q-7 -32 7 -54.5t49 -22.5q34 0 54.5 22t27.5 55h86q-15 -83 -67.5 -125t-116.5 -42t-101.5 42t-22.5 125z" />
<glyph unicode="&#x12e;" horiz-adv-x="294" d="M-41 -162q0 92 137 162h-20l123 700h127l-123 -700q-139 -65 -139 -136q0 -18 11.5 -28t26.5 -10q32 0 74 20l-12 -70q-48 -24 -109 -24q-46 0 -71 24t-25 62z" />
<glyph unicode="&#x12f;" horiz-adv-x="268" d="M-57 -162q0 92 137 162h-14l92 520h121l-92 -520q-139 -65 -139 -136q0 -18 11.5 -28t26.5 -10q32 0 74 20l-12 -70q-48 -24 -109 -24q-46 0 -71 24t-25 62zM169 652q0 35 26.5 60.5t61.5 25.5q28 0 44.5 -18t16.5 -46q0 -35 -26 -60.5t-61 -25.5q-29 0 -45.5 18 t-16.5 46z" />
<glyph unicode="&#x130;" horiz-adv-x="294" d="M76 0l123 700h127l-123 -700h-127zM210 819q0 35 26.5 59t63.5 24q29 0 47 -17t18 -45q0 -35 -27 -59.5t-63 -24.5q-29 0 -47 17.5t-18 45.5z" />
<glyph unicode="&#x131;" horiz-adv-x="268" d="M66 0l92 520h121l-92 -520h-121z" />
<glyph unicode="&#x132;" horiz-adv-x="871" d="M76 0l123 700h127l-123 -700h-127zM352 233h129q-12 -86 8.5 -121t72.5 -35q51 0 86 30.5t45 90.5l89 502h126l-85 -482q-21 -118 -96 -175.5t-181 -57.5q-104 0 -159 57.5t-35 190.5z" />
<glyph unicode="&#x133;" horiz-adv-x="537" d="M66 0l92 520h121l-92 -520h-121zM169 652q0 35 26.5 60.5t61.5 25.5q28 0 44.5 -18t16.5 -46q0 -35 -26 -60.5t-61 -25.5q-29 0 -45.5 18t-16.5 46zM298 -208l128 728h121l-129 -728h-120zM437 652q0 35 26.5 60.5t61.5 25.5q28 0 44.5 -18t16.5 -46q0 -35 -26 -60.5 t-61 -25.5q-29 0 -45.5 18t-16.5 46z" />
<glyph unicode="&#x134;" horiz-adv-x="577" d="M59 233h129q-12 -86 8.5 -121t72.5 -35q51 0 86 30.5t45 90.5l89 502h126l-85 -482q-21 -118 -96 -175.5t-181 -57.5q-104 0 -159 57.5t-35 190.5zM354 751l174 143h121l124 -143h-114l-83 64l-104 -64h-118z" />
<glyph unicode="&#x135;" horiz-adv-x="268" d="M30 -208l128 728h121l-129 -728h-120zM50 583l147 157h122l90 -157h-99l-64 79l-92 -79h-104z" />
<glyph unicode="&#x136;" horiz-adv-x="630" d="M76 0l123 700h127l-57 -322l285 322h133l-299 -331l215 -369h-144l-194 352l-62 -352h-127zM173 -248l54 189h114l-82 -189h-86z" />
<glyph unicode="&#x137;" horiz-adv-x="531" d="M66 0l131 744h121l-80 -457l222 233h130l-239 -240l166 -280h-135l-149 262l-46 -262h-121zM127 -248l54 189h114l-82 -189h-86z" />
<glyph unicode="&#x138;" horiz-adv-x="531" d="M66 0l92 520h121l-41 -233l222 233h130l-239 -240l166 -280h-135l-149 262l-46 -262h-121z" />
<glyph unicode="&#x139;" horiz-adv-x="515" d="M76 0l123 700h127l-107 -605h265l-17 -95h-391zM169 751l152 143h166l-207 -143h-111z" />
<glyph unicode="&#x13a;" horiz-adv-x="268" d="M66 0l131 744h121l-131 -744h-121zM161 781l152 143h166l-207 -143h-111z" />
<glyph unicode="&#x13b;" horiz-adv-x="515" d="M76 0l123 700h127l-107 -605h265l-17 -95h-391zM143 -248l54 189h114l-82 -189h-86z" />
<glyph unicode="&#x13c;" horiz-adv-x="268" d="M11 -248l54 189h114l-82 -189h-86zM66 0l131 744h121l-131 -744h-121z" />
<glyph unicode="&#x13d;" horiz-adv-x="515" d="M76 0l123 700h127l-107 -605h265l-17 -95h-391zM359 574l41 229h110l-65 -229h-86z" />
<glyph unicode="&#x13e;" horiz-adv-x="268" d="M66 0l131 744h121l-131 -744h-121zM348 574l41 229h110l-65 -229h-86z" />
<glyph unicode="&#x13f;" horiz-adv-x="515" d="M76 0l123 700h127l-107 -605h265l-17 -95h-391zM332 353q0 37 27.5 63.5t65.5 26.5q30 0 48 -18.5t18 -47.5q0 -37 -27.5 -63.5t-65.5 -26.5q-30 0 -48 18.5t-18 47.5z" />
<glyph unicode="&#x140;" horiz-adv-x="355" d="M66 0l131 744h121l-131 -744h-121zM289 353q0 37 27.5 63.5t65.5 26.5q30 0 48 -18.5t18 -47.5q0 -37 -27.5 -63.5t-65.5 -26.5q-30 0 -48 18.5t-18 47.5z" />
<glyph unicode="&#x141;" horiz-adv-x="515" d="M22 203l19 108l99 52l59 337h127l-46 -263l152 81l-20 -109l-152 -80l-41 -234h265l-17 -95h-391l45 255z" />
<glyph unicode="&#x142;" horiz-adv-x="268" d="M30 246l16 95l88 46l63 357h121l-50 -286l93 49l-17 -95l-93 -49l-64 -363h-121l51 292z" />
<glyph unicode="&#x143;" horiz-adv-x="719" d="M76 0l123 700h122l227 -515l25 158l63 357h114l-123 -700h-121l-227 514l-25 -158l-63 -356h-115zM372 751l152 143h166l-207 -143h-111z" />
<glyph unicode="&#x144;" horiz-adv-x="601" d="M66 0l92 520h121l-12 -67q97 82 196 82q65 0 101.5 -40.5t20.5 -130.5l-64 -364h-121l61 344q17 96 -73 96q-31 0 -69 -15.5t-64 -38.5l-68 -386h-121zM278 583l129 157h154l-179 -157h-104z" />
<glyph unicode="&#x145;" horiz-adv-x="719" d="M76 0l123 700h122l227 -515l25 158l63 357h114l-123 -700h-121l-227 514l-25 -158l-63 -356h-115zM235 -248l54 189h114l-82 -189h-86z" />
<glyph unicode="&#x146;" horiz-adv-x="601" d="M66 0l92 520h121l-12 -67q97 82 196 82q65 0 101.5 -40.5t20.5 -130.5l-64 -364h-121l61 344q17 96 -73 96q-31 0 -69 -15.5t-64 -38.5l-68 -386h-121zM172 -248l54 189h114l-82 -189h-86z" />
<glyph unicode="&#x147;" horiz-adv-x="719" d="M76 0l123 700h122l227 -515l25 158l63 357h114l-123 -700h-121l-227 514l-25 -158l-63 -356h-115zM299 894h114l83 -64l105 64h118l-174 -143h-121z" />
<glyph unicode="&#x148;" horiz-adv-x="601" d="M66 0l92 520h121l-12 -67q97 82 196 82q65 0 101.5 -40.5t20.5 -130.5l-64 -364h-121l61 344q17 96 -73 96q-31 0 -69 -15.5t-64 -38.5l-68 -386h-121zM235 740h99l64 -78l92 78h104l-147 -157h-122z" />
<glyph unicode="&#x14a;" horiz-adv-x="719" d="M76 0l123 700h122l227 -515l25 158l63 357h114l-123 -700q-21 -120 -92.5 -171.5t-169.5 -51.5q-49 0 -82 18l15 87q42 -13 83 -13q52 0 85 27t45 94l-232 524l-25 -158l-63 -356h-115z" />
<glyph unicode="&#x14b;" horiz-adv-x="601" d="M66 0l92 520h121l-12 -67q97 82 196 82q65 0 101.5 -40.5t20.5 -130.5l-101 -572h-121l98 552q17 96 -73 96q-31 0 -69 -15.5t-64 -38.5l-68 -386h-121z" />
<glyph unicode="&#x14c;" horiz-adv-x="726" d="M88 276q0 193 110 316t284 123q126 0 195 -78.5t69 -212.5q0 -193 -109.5 -316t-283.5 -123q-126 0 -195.5 78.5t-69.5 212.5zM222 276q0 -93 39.5 -144.5t108.5 -51.5q76 0 132 49t83.5 126t27.5 169q0 93 -39.5 144.5t-109.5 51.5q-112 0 -177 -100.5t-65 -243.5z M327 782l15 86h333l-15 -86h-333z" />
<glyph unicode="&#x14d;" horiz-adv-x="580" d="M76 204q0 145 83.5 238t217.5 93q97 0 150.5 -59t53.5 -160q0 -144 -83.5 -237.5t-218.5 -93.5q-97 0 -150 59t-53 160zM199 200q0 -65 25.5 -100t70.5 -35q71 0 117 67.5t46 187.5q0 65 -25.5 100.5t-70.5 35.5q-72 0 -117.5 -67.5t-45.5 -188.5zM236 612l15 86h308 l-15 -86h-308z" />
<glyph unicode="&#x14e;" horiz-adv-x="726" d="M88 276q0 193 110 316t284 123q126 0 195 -78.5t69 -212.5q0 -193 -109.5 -316t-283.5 -123q-126 0 -195.5 78.5t-69.5 212.5zM222 276q0 -93 39.5 -144.5t108.5 -51.5q76 0 132 49t83.5 126t27.5 169q0 93 -39.5 144.5t-109.5 51.5q-112 0 -177 -100.5t-65 -243.5z M348 894h85q-4 -27 13 -44t56 -17t61 17t26 44h88q-13 -74 -66.5 -113.5t-124.5 -39.5q-70 0 -110 39.5t-28 113.5z" />
<glyph unicode="&#x14f;" horiz-adv-x="580" d="M76 204q0 145 83.5 238t217.5 93q97 0 150.5 -59t53.5 -160q0 -144 -83.5 -237.5t-218.5 -93.5q-97 0 -150 59t-53 160zM199 200q0 -65 25.5 -100t70.5 -35q71 0 117 67.5t46 187.5q0 65 -25.5 100.5t-70.5 35.5q-72 0 -117.5 -67.5t-45.5 -188.5zM259 740h84 q-7 -32 7 -54.5t49 -22.5q34 0 54.5 22t27.5 55h86q-15 -83 -67.5 -125t-116.5 -42t-101.5 42t-22.5 125z" />
<glyph unicode="&#x150;" horiz-adv-x="726" d="M88 276q0 193 110 316t284 123q126 0 195 -78.5t69 -212.5q0 -193 -109.5 -316t-283.5 -123q-126 0 -195.5 78.5t-69.5 212.5zM222 276q0 -93 39.5 -144.5t108.5 -51.5q76 0 132 49t83.5 126t27.5 169q0 93 -39.5 144.5t-109.5 51.5q-112 0 -177 -100.5t-65 -243.5z M294 751l131 143h151l-182 -143h-100zM493 751l131 143h152l-182 -143h-101z" />
<glyph unicode="&#x151;" horiz-adv-x="580" d="M76 204q0 145 83.5 238t217.5 93q97 0 150.5 -59t53.5 -160q0 -144 -83.5 -237.5t-218.5 -93.5q-97 0 -150 59t-53 160zM199 200q0 -65 25.5 -100t70.5 -35q71 0 117 67.5t46 187.5q0 65 -25.5 100.5t-70.5 35.5q-72 0 -117.5 -67.5t-45.5 -188.5zM217 583l110 157h145 l-158 -157h-97zM403 583l109 157h145l-157 -157h-97z" />
<glyph unicode="&#x152;" horiz-adv-x="940" d="M89 286q0 188 118 301t304 113h496l-16 -95h-295l-34 -189h275l-16 -95h-275l-40 -226h295l-17 -95h-496q-140 0 -219.5 75.5t-79.5 210.5zM224 292q0 -97 48 -147t133 -50h75l90 510h-75q-120 0 -195.5 -82t-75.5 -231z" />
<glyph unicode="&#x153;" horiz-adv-x="914" d="M76 204q0 145 83.5 238t217.5 93q123 0 168 -92q36 44 86.5 68t102.5 24q115 0 161.5 -75t11.5 -220h-339q-2 -30 -2 -46q0 -129 87 -129q79 0 111 86h121q-22 -74 -91 -120t-156 -46q-122 0 -162 88q-74 -88 -197 -88q-97 0 -150 59t-53 160zM199 200q0 -65 25.5 -100 t70.5 -35q69 0 116 68t47 187q0 65 -25.5 100.5t-70.5 35.5q-69 0 -116 -68.5t-47 -187.5zM579 315h219q12 71 -9.5 107t-68.5 36q-50 0 -86.5 -36.5t-54.5 -106.5z" />
<glyph unicode="&#x154;" horiz-adv-x="617" d="M76 0l123 700h224q96 0 158 -45.5t62 -137.5q0 -97 -53.5 -157.5t-139.5 -84.5l141 -275h-140l-120 262h-83l-45 -262h-127zM265 354h97q66 0 109 38t43 114q0 50 -29.5 75.5t-77.5 25.5h-97zM290 751l152 143h166l-207 -143h-111z" />
<glyph unicode="&#x155;" horiz-adv-x="421" d="M66 0l92 520h121l-16 -92q38 51 81.5 79t82.5 28q35 0 59 -22l-18 -103q-37 16 -70 16q-41 0 -82.5 -23t-66.5 -55l-62 -348h-121zM203 583l129 157h154l-179 -157h-104z" />
<glyph unicode="&#x156;" horiz-adv-x="617" d="M76 0l123 700h224q96 0 158 -45.5t62 -137.5q0 -97 -53.5 -157.5t-139.5 -84.5l141 -275h-140l-120 262h-83l-45 -262h-127zM182 -248l54 189h114l-82 -189h-86zM265 354h97q66 0 109 38t43 114q0 50 -29.5 75.5t-77.5 25.5h-97z" />
<glyph unicode="&#x157;" horiz-adv-x="421" d="M7 -248l54 189h114l-82 -189h-86zM66 0l92 520h121l-16 -92q38 51 81.5 79t82.5 28q35 0 59 -22l-18 -103q-37 16 -70 16q-41 0 -82.5 -23t-66.5 -55l-62 -348h-121z" />
<glyph unicode="&#x158;" horiz-adv-x="617" d="M76 0l123 700h224q96 0 158 -45.5t62 -137.5q0 -97 -53.5 -157.5t-139.5 -84.5l141 -275h-140l-120 262h-83l-45 -262h-127zM225 894h114l83 -64l105 64h118l-174 -143h-121zM265 354h97q66 0 109 38t43 114q0 50 -29.5 75.5t-77.5 25.5h-97z" />
<glyph unicode="&#x159;" horiz-adv-x="421" d="M66 0l92 520h121l-16 -92q38 51 81.5 79t82.5 28q35 0 59 -22l-18 -103q-37 16 -70 16q-41 0 -82.5 -23t-66.5 -55l-62 -348h-121zM165 740h99l64 -78l92 78h104l-147 -157h-122z" />
<glyph unicode="&#x15a;" horiz-adv-x="603" d="M76 211h131q-6 -71 26.5 -102t88.5 -31q64 0 107 32t43 93q0 21 -9.5 37t-20 25.5t-35 18.5t-38.5 12.5t-46 10.5q-40 9 -69.5 20.5t-60 31.5t-47 51.5t-16.5 73.5q0 104 82 167.5t204 63.5q113 0 173.5 -56t48.5 -161h-131q6 65 -24 94.5t-84 29.5q-63 0 -101.5 -29 t-38.5 -86q0 -21 9 -36.5t19 -24.5t35 -18.5t37 -12.5t46 -11q41 -9 70.5 -20t61 -30.5t48.5 -50.5t17 -73q0 -105 -89.5 -175t-207.5 -70q-115 0 -179 57.5t-50 168.5zM299 751l152 143h166l-207 -143h-111z" />
<glyph unicode="&#x15b;" horiz-adv-x="513" d="M64 153h119q-2 -45 20.5 -67.5t71.5 -22.5q45 0 75.5 21.5t30.5 61.5q0 13 -3.5 22.5t-13.5 17l-16 12t-25 9.5t-24.5 6t-28.5 6q-29 6 -47 11t-43.5 16t-40 24t-25.5 34.5t-11 49.5q0 84 67 132.5t168 48.5q91 0 140 -40t42 -113h-119q1 38 -19.5 56.5t-60.5 18.5 q-43 0 -72.5 -19.5t-29.5 -55.5q0 -23 15.5 -37.5t34.5 -20t50 -12.5q7 -1 11 -2q30 -6 47 -10.5t43 -15t40 -23.5t25 -34.5t11 -49.5q0 -84 -68.5 -138t-169.5 -54q-98 0 -149.5 44.5t-44.5 123.5zM236 583l129 157h154l-179 -157h-104z" />
<glyph unicode="&#x15c;" horiz-adv-x="603" d="M76 211h131q-6 -71 26.5 -102t88.5 -31q64 0 107 32t43 93q0 21 -9.5 37t-20 25.5t-35 18.5t-38.5 12.5t-46 10.5q-40 9 -69.5 20.5t-60 31.5t-47 51.5t-16.5 73.5q0 104 82 167.5t204 63.5q113 0 173.5 -56t48.5 -161h-131q6 65 -24 94.5t-84 29.5q-63 0 -101.5 -29 t-38.5 -86q0 -21 9 -36.5t19 -24.5t35 -18.5t37 -12.5t46 -11q41 -9 70.5 -20t61 -30.5t48.5 -50.5t17 -73q0 -105 -89.5 -175t-207.5 -70q-115 0 -179 57.5t-50 168.5zM222 751l174 143h121l124 -143h-114l-83 64l-104 -64h-118z" />
<glyph unicode="&#x15d;" horiz-adv-x="513" d="M64 153h119q-2 -45 20.5 -67.5t71.5 -22.5q45 0 75.5 21.5t30.5 61.5q0 13 -3.5 22.5t-13.5 17l-16 12t-25 9.5t-24.5 6t-28.5 6q-29 6 -47 11t-43.5 16t-40 24t-25.5 34.5t-11 49.5q0 84 67 132.5t168 48.5q91 0 140 -40t42 -113h-119q1 38 -19.5 56.5t-60.5 18.5 q-43 0 -72.5 -19.5t-29.5 -55.5q0 -23 15.5 -37.5t34.5 -20t50 -12.5q7 -1 11 -2q30 -6 47 -10.5t43 -15t40 -23.5t25 -34.5t11 -49.5q0 -84 -68.5 -138t-169.5 -54q-98 0 -149.5 44.5t-44.5 123.5zM169 583l147 157h122l90 -157h-99l-64 79l-92 -79h-104z" />
<glyph unicode="&#x15e;" horiz-adv-x="603" d="M76 211h131q-6 -71 26.5 -102t88.5 -31q64 0 107 32t43 93q0 21 -9.5 37t-20 25.5t-35 18.5t-38.5 12.5t-46 10.5q-40 9 -69.5 20.5t-60 31.5t-47 51.5t-16.5 73.5q0 104 82 167.5t204 63.5q113 0 173.5 -56t48.5 -161h-131q6 65 -24 94.5t-84 29.5q-63 0 -101.5 -29 t-38.5 -86q0 -21 9 -36.5t19 -24.5t35 -18.5t37 -12.5t46 -11q41 -9 70.5 -20t61 -30.5t48.5 -50.5t17 -73q0 -100 -81.5 -168.5t-193.5 -75.5l-47 -50q42 2 70.5 -16t28.5 -55q0 -53 -44.5 -83t-105.5 -30q-42 0 -69 14l10 59q26 -13 62 -13q21 0 38.5 10.5t17.5 30.5 q0 15 -13 22.5t-30 7.5q-21 0 -40 -6l-16 39l67 72q-94 12 -143.5 68.5t-36.5 154.5z" />
<glyph unicode="&#x15f;" horiz-adv-x="513" d="M64 153h119q-2 -45 20.5 -67.5t71.5 -22.5q45 0 75.5 21.5t30.5 61.5q0 13 -3.5 22.5t-13.5 17l-16 12t-25 9.5t-24.5 6t-28.5 6q-29 6 -47 11t-43.5 16t-40 24t-25.5 34.5t-11 49.5q0 84 67 132.5t168 48.5q91 0 140 -40t42 -113h-119q1 38 -19.5 56.5t-60.5 18.5 q-43 0 -72.5 -19.5t-29.5 -55.5q0 -23 15.5 -37.5t34.5 -20t50 -12.5q7 -1 11 -2q30 -6 47 -10.5t43 -15t40 -23.5t25 -34.5t11 -49.5q0 -80 -63 -133.5t-158 -58.5l-46 -49q42 2 70.5 -16t28.5 -55q0 -53 -44.5 -83t-105.5 -30q-42 0 -69 14l10 59q26 -13 62 -13 q21 0 38.5 10.5t17.5 30.5q0 15 -13 22.5t-30 7.5q-20 0 -40 -6l-16 39l68 73q-74 11 -111.5 53.5t-30.5 110.5z" />
<glyph unicode="&#x160;" horiz-adv-x="603" d="M76 211h131q-6 -71 26.5 -102t88.5 -31q64 0 107 32t43 93q0 21 -9.5 37t-20 25.5t-35 18.5t-38.5 12.5t-46 10.5q-40 9 -69.5 20.5t-60 31.5t-47 51.5t-16.5 73.5q0 104 82 167.5t204 63.5q113 0 173.5 -56t48.5 -161h-131q6 65 -24 94.5t-84 29.5q-63 0 -101.5 -29 t-38.5 -86q0 -21 9 -36.5t19 -24.5t35 -18.5t37 -12.5t46 -11q41 -9 70.5 -20t61 -30.5t48.5 -50.5t17 -73q0 -105 -89.5 -175t-207.5 -70q-115 0 -179 57.5t-50 168.5zM236 894h114l83 -64l105 64h118l-174 -143h-121z" />
<glyph unicode="&#x161;" horiz-adv-x="513" d="M64 153h119q-2 -45 20.5 -67.5t71.5 -22.5q45 0 75.5 21.5t30.5 61.5q0 13 -3.5 22.5t-13.5 17l-16 12t-25 9.5t-24.5 6t-28.5 6q-29 6 -47 11t-43.5 16t-40 24t-25.5 34.5t-11 49.5q0 84 67 132.5t168 48.5q91 0 140 -40t42 -113h-119q1 38 -19.5 56.5t-60.5 18.5 q-43 0 -72.5 -19.5t-29.5 -55.5q0 -23 15.5 -37.5t34.5 -20t50 -12.5q7 -1 11 -2q30 -6 47 -10.5t43 -15t40 -23.5t25 -34.5t11 -49.5q0 -84 -68.5 -138t-169.5 -54q-98 0 -149.5 44.5t-44.5 123.5zM193 740h99l64 -78l92 78h104l-147 -157h-122z" />
<glyph unicode="&#x162;" horiz-adv-x="541" d="M123 605l16 95h493l-16 -95h-183l-107 -605h-18l-60 -64q42 2 70.5 -16t28.5 -55q0 -53 -44.5 -83t-105.5 -30q-42 0 -69 14l10 59q26 -13 62 -13q21 0 38.5 10.5t17.5 30.5q0 15 -13 22.5t-30 7.5q-21 0 -40 -6l-16 39l78 84h-35l107 605h-184z" />
<glyph unicode="&#x163;" horiz-adv-x="389" d="M68 -234l10 59q26 -13 62 -13q21 0 38.5 10.5t17.5 30.5q0 15 -13 22.5t-30 7.5q-21 0 -40 -6l-16 39l75 80q-78 33 -58 140l53 303h-84l14 81h84l25 140h121l-25 -140h137l-14 -81h-137l-50 -286q-16 -85 51 -85q29 0 78 14l-13 -74q-49 -23 -117 -23h-3l-46 -49 q42 2 70.5 -16t28.5 -55q0 -53 -44.5 -83t-105.5 -30q-42 0 -69 14z" />
<glyph unicode="&#x164;" horiz-adv-x="541" d="M123 605l16 95h493l-16 -95h-183l-107 -605h-126l107 605h-184zM212 894h114l83 -64l105 64h118l-174 -143h-121z" />
<glyph unicode="&#x165;" horiz-adv-x="389" d="M83 439l14 81h84l25 140h121l-25 -140h137l-14 -81h-137l-50 -286q-16 -85 51 -85q29 0 78 14l-13 -74q-49 -23 -117 -23t-102.5 37t-20.5 114l53 303h-84zM366 574l41 229h110l-65 -229h-86z" />
<glyph unicode="&#x166;" horiz-adv-x="541" d="M123 605l16 95h493l-16 -95h-183l-37 -210h130l-17 -95h-130l-53 -300h-126l53 300h-123l17 95h123l37 210h-184z" />
<glyph unicode="&#x167;" horiz-adv-x="389" d="M63 253l15 86h72l17 100h-84l14 81h84l25 140h121l-25 -140h137l-14 -81h-137l-17 -100h115l-15 -86h-115l-18 -100q-16 -85 51 -85q29 0 78 14l-13 -74q-49 -23 -117 -23t-102.5 37t-20.5 114l21 117h-72z" />
<glyph unicode="&#x168;" horiz-adv-x="712" d="M112 231l82 469h126l-79 -449q-15 -86 14 -128.5t109 -42.5q156 0 182 151l82 469h115l-78 -449q-24 -129 -108 -197.5t-211 -68.5q-128 0 -191.5 62.5t-42.5 183.5zM291 794q28 49 64.5 76t71.5 27q32 0 81.5 -22t62.5 -22q32 0 59 41l61 -32q-27 -50 -63 -76.5 t-72 -26.5q-31 0 -80.5 22t-63.5 22q-32 0 -60 -41z" />
<glyph unicode="&#x169;" horiz-adv-x="597" d="M94 156l64 364h121l-61 -344q-9 -50 8.5 -72.5t62.5 -22.5q66 0 130 53l68 386h121l-92 -520h-121l12 67q-99 -82 -193 -82q-66 0 -101 40.5t-19 130.5zM217 622q27 50 63.5 76.5t70.5 26.5q32 0 74 -22t55 -22q29 0 55 41l62 -32q-27 -49 -63 -76t-70 -27q-32 0 -74 22 t-56 22q-28 0 -56 -41z" />
<glyph unicode="&#x16a;" horiz-adv-x="712" d="M112 231l82 469h126l-79 -449q-15 -86 14 -128.5t109 -42.5q156 0 182 151l82 469h115l-78 -449q-24 -129 -108 -197.5t-211 -68.5q-128 0 -191.5 62.5t-42.5 183.5zM317 782l15 86h333l-15 -86h-333z" />
<glyph unicode="&#x16b;" horiz-adv-x="597" d="M94 156l64 364h121l-61 -344q-9 -50 8.5 -72.5t62.5 -22.5q66 0 130 53l68 386h121l-92 -520h-121l12 67q-99 -82 -193 -82q-66 0 -101 40.5t-19 130.5zM245 612l15 86h308l-15 -86h-308z" />
<glyph unicode="&#x16c;" horiz-adv-x="712" d="M112 231l82 469h126l-79 -449q-15 -86 14 -128.5t109 -42.5q156 0 182 151l82 469h115l-78 -449q-24 -129 -108 -197.5t-211 -68.5q-128 0 -191.5 62.5t-42.5 183.5zM338 894h85q-4 -27 13 -44t56 -17t61 17t26 44h88q-13 -74 -66.5 -113.5t-124.5 -39.5q-70 0 -110 39.5 t-28 113.5z" />
<glyph unicode="&#x16d;" horiz-adv-x="597" d="M94 156l64 364h121l-61 -344q-9 -50 8.5 -72.5t62.5 -22.5q66 0 130 53l68 386h121l-92 -520h-121l12 67q-99 -82 -193 -82q-66 0 -101 40.5t-19 130.5zM267 740h84q-7 -32 7 -54.5t49 -22.5q34 0 54.5 22t27.5 55h86q-15 -83 -67.5 -125t-116.5 -42t-101.5 42t-22.5 125 z" />
<glyph unicode="&#x16e;" horiz-adv-x="712" d="M112 231l82 469h126l-79 -449q-15 -86 14 -128.5t109 -42.5q156 0 182 151l82 469h115l-78 -449q-24 -129 -108 -197.5t-211 -68.5q-128 0 -191.5 62.5t-42.5 183.5zM366 807q0 51 41.5 83.5t99.5 32.5q47 0 76.5 -24t29.5 -63q0 -51 -41 -83t-100 -32q-47 0 -76.5 23.5 t-29.5 62.5zM459 798q10 -10 22.5 -9.5t22.5 9.5q32 15 16 47q-20 22 -45 1q-31 -16 -16 -48z" />
<glyph unicode="&#x16f;" horiz-adv-x="597" d="M94 156l64 364h121l-61 -344q-9 -50 8.5 -72.5t62.5 -22.5q66 0 130 53l68 386h121l-92 -520h-121l12 67q-99 -82 -193 -82q-66 0 -101 40.5t-19 130.5zM284 646q0 51 41 82t100 31q47 0 76.5 -23t29.5 -62q0 -50 -41.5 -81t-99.5 -31q-47 0 -76.5 23t-29.5 61zM377 639 q20 -21 45 -3q31 12 15 46q-19 21 -44 3q-32 -14 -16 -46z" />
<glyph unicode="&#x170;" horiz-adv-x="712" d="M112 231l82 469h126l-79 -449q-15 -86 14 -128.5t109 -42.5q156 0 182 151l82 469h115l-78 -449q-24 -129 -108 -197.5t-211 -68.5q-128 0 -191.5 62.5t-42.5 183.5zM284 751l131 143h151l-182 -143h-100zM483 751l131 143h152l-182 -143h-101z" />
<glyph unicode="&#x171;" horiz-adv-x="597" d="M94 156l64 364h121l-61 -344q-9 -50 8.5 -72.5t62.5 -22.5q66 0 130 53l68 386h121l-92 -520h-121l12 67q-99 -82 -193 -82q-66 0 -101 40.5t-19 130.5zM221 583l110 157h145l-158 -157h-97zM407 583l109 157h145l-157 -157h-97z" />
<glyph unicode="&#x172;" horiz-adv-x="712" d="M112 231l82 469h126l-79 -449q-15 -86 14 -128.5t109 -42.5q156 0 182 151l82 469h115l-78 -449q-19 -103 -78 -168.5t-148 -86.5q-130 -64 -130 -132q0 -18 11.5 -28t26.5 -10q32 0 74 20l-12 -70q-48 -24 -109 -24q-46 0 -71 24t-25 62q0 83 111 148q-114 8 -168.5 70 t-34.5 175z" />
<glyph unicode="&#x173;" horiz-adv-x="597" d="M94 156l64 364h121l-61 -344q-9 -50 8.5 -72.5t62.5 -22.5q66 0 130 53l68 386h121l-92 -520h-1q-139 -65 -139 -136q0 -18 11.5 -28t26.5 -10q32 0 74 20l-12 -70q-48 -24 -109 -24q-46 0 -71 24t-25 62q0 92 137 162h-13l12 67q-99 -82 -193 -82q-66 0 -101 40.5 t-19 130.5z" />
<glyph unicode="&#x174;" horiz-adv-x="920" d="M118 700h129l26 -384l7 -166l66 166l165 384h132l33 -384l9 -168l64 168l154 384h124l-305 -700h-132l-34 363l-10 168l-68 -168l-160 -363h-131zM373 751l174 143h121l124 -143h-114l-83 64l-104 -64h-118z" />
<glyph unicode="&#x175;" horiz-adv-x="792" d="M88 520h120l25 -229l11 -162l71 162l105 229h110l27 -229l17 -162l68 162l104 229h116l-256 -520h-113l-26 212l-16 162l-72 -162l-99 -212h-116zM306 583l147 157h122l90 -157h-99l-64 79l-92 -79h-104z" />
<glyph unicode="&#x176;" horiz-adv-x="586" d="M129 700h129l102 -331l203 331h124l-287 -436l-47 -264h-126l47 264zM210 751l174 143h121l124 -143h-114l-83 64l-104 -64h-118z" />
<glyph unicode="&#x177;" horiz-adv-x="505" d="M74 -208l117 211l-103 517h126l37 -213l19 -162l77 162l110 213h118l-392 -728h-109zM172 583l147 157h122l90 -157h-99l-64 79l-92 -79h-104z" />
<glyph unicode="&#x178;" horiz-adv-x="586" d="M129 700h129l102 -331l203 331h124l-287 -436l-47 -264h-126l47 264zM248 820q0 33 26 57t61 24q28 0 45 -17t17 -43q0 -35 -25.5 -58.5t-60.5 -23.5q-28 0 -45.5 17t-17.5 44zM469 819q0 34 25.5 58t60.5 24q28 0 45.5 -17t17.5 -44q0 -34 -26 -57.5t-61 -23.5 q-28 0 -45 16.5t-17 43.5z" />
<glyph unicode="&#x179;" horiz-adv-x="538" d="M35 0l17 95l406 510h-310l16 95h455l-15 -95l-406 -510h315l-17 -95h-461zM294 751l152 143h166l-207 -143h-111z" />
<glyph unicode="&#x17a;" horiz-adv-x="459" d="M35 0l15 81l308 358h-235l14 81h368l-14 -81l-308 -358h245l-15 -81h-378zM236 583l129 157h154l-179 -157h-104z" />
<glyph unicode="&#x17b;" horiz-adv-x="538" d="M35 0l17 95l406 510h-310l16 95h455l-15 -95l-406 -510h315l-17 -95h-461zM337 819q0 35 26.5 59t63.5 24q29 0 47 -17t18 -45q0 -35 -27 -59.5t-63 -24.5q-29 0 -47 17.5t-18 45.5z" />
<glyph unicode="&#x17c;" horiz-adv-x="459" d="M35 0l15 81l308 358h-235l14 81h368l-14 -81l-308 -358h245l-15 -81h-378zM266 652q0 35 27 60.5t63 25.5q29 0 46 -18t17 -46q0 -35 -26.5 -60.5t-62.5 -25.5q-29 0 -46.5 18t-17.5 46z" />
<glyph unicode="&#x17d;" horiz-adv-x="538" d="M35 0l17 95l406 510h-310l16 95h455l-15 -95l-406 -510h315l-17 -95h-461zM216 894h114l83 -64l105 64h118l-174 -143h-121z" />
<glyph unicode="&#x17e;" horiz-adv-x="459" d="M35 0l15 81l308 358h-235l14 81h368l-14 -81l-308 -358h245l-15 -81h-378zM183 740h99l64 -78l92 78h104l-147 -157h-122z" />
<glyph unicode="&#x17f;" horiz-adv-x="313" d="M83 0l104 593q15 82 68 124t131 42q58 0 89 -17l-13 -74q-38 9 -63 9q-77 0 -91 -84l-105 -593h-120z" />
<glyph unicode="&#x192;" horiz-adv-x="640" d="M-62 -32h132q-7 -98 68 -98q37 0 65.5 25t38.5 80l39 220h-158l17 95h157l38 213q17 98 85.5 155t162.5 57q100 0 147.5 -49t36.5 -142h-132q7 98 -69 98q-36 0 -64.5 -25.5t-38.5 -79.5l-40 -227h158l-17 -95h-158l-36 -206q-17 -98 -85.5 -155t-161.5 -57 q-101 0 -148.5 49t-36.5 142z" />
<glyph unicode="&#x1fc;" horiz-adv-x="953" d="M1 0l593 700h426l-16 -95h-295l-33 -188h274l-17 -97h-274l-40 -225h295l-17 -95h-421l31 175h-222l-141 -175h-143zM360 268h163l46 261l-111 -140zM620 751l152 143h166l-207 -143h-111z" />
<glyph unicode="&#x1fd;" horiz-adv-x="872" d="M56 101q0 80 71 136.5t212 56.5q21 0 75 -4l10 57q19 109 -71 109q-96 0 -119 -110h-120q16 91 88 140t166 49q113 0 152 -67q75 67 172 67q115 0 161.5 -75t11.5 -220h-339q-2 -30 -2 -46q0 -129 87 -129q79 0 111 86h121q-22 -74 -91 -120t-156 -46q-131 0 -174 96 q-114 -96 -233 -96q-62 0 -97.5 31.5t-35.5 84.5zM181 130q0 -56 73 -56q70 0 149 70q-3 33 0 75q-32 4 -69 4q-77 0 -115 -25.5t-38 -67.5zM392 583l129 157h154l-179 -157h-104zM537 315h219q12 71 -9.5 107t-68.5 36q-50 0 -86.5 -36.5t-54.5 -106.5z" />
<glyph unicode="&#x218;" horiz-adv-x="603" d="M76 211h131q-6 -71 26.5 -102t88.5 -31q64 0 107 32t43 93q0 21 -9.5 37t-20 25.5t-35 18.5t-38.5 12.5t-46 10.5q-40 9 -69.5 20.5t-60 31.5t-47 51.5t-16.5 73.5q0 104 82 167.5t204 63.5q113 0 173.5 -56t48.5 -161h-131q6 65 -24 94.5t-84 29.5q-63 0 -101.5 -29 t-38.5 -86q0 -21 9 -36.5t19 -24.5t35 -18.5t37 -12.5t46 -11q41 -9 70.5 -20t61 -30.5t48.5 -50.5t17 -73q0 -105 -89.5 -175t-207.5 -70q-115 0 -179 57.5t-50 168.5zM182 -248l54 189h114l-82 -189h-86z" />
<glyph unicode="&#x219;" horiz-adv-x="513" d="M64 153h119q-2 -45 20.5 -67.5t71.5 -22.5q45 0 75.5 21.5t30.5 61.5q0 13 -3.5 22.5t-13.5 17l-16 12t-25 9.5t-24.5 6t-28.5 6q-29 6 -47 11t-43.5 16t-40 24t-25.5 34.5t-11 49.5q0 84 67 132.5t168 48.5q91 0 140 -40t42 -113h-119q1 38 -19.5 56.5t-60.5 18.5 q-43 0 -72.5 -19.5t-29.5 -55.5q0 -23 15.5 -37.5t34.5 -20t50 -12.5q7 -1 11 -2q30 -6 47 -10.5t43 -15t40 -23.5t25 -34.5t11 -49.5q0 -84 -68.5 -138t-169.5 -54q-98 0 -149.5 44.5t-44.5 123.5zM140 -248l54 189h114l-82 -189h-86z" />
<glyph unicode="&#x21a;" horiz-adv-x="541" d="M123 605l16 95h493l-16 -95h-183l-107 -605h-126l107 605h-184zM144 -248l54 189h114l-82 -189h-86z" />
<glyph unicode="&#x21b;" horiz-adv-x="389" d="M79 -248l54 189h114l-82 -189h-86zM83 439l14 81h84l25 140h121l-25 -140h137l-14 -81h-137l-50 -286q-16 -85 51 -85q29 0 78 14l-13 -74q-49 -23 -117 -23t-102.5 37t-20.5 114l53 303h-84z" />
<glyph unicode="&#x2c6;" horiz-adv-x="459" d="M152 583l147 157h122l90 -157h-99l-64 79l-92 -79h-104z" />
<glyph unicode="&#x2c7;" horiz-adv-x="459" d="M181 740h99l64 -78l92 78h104l-147 -157h-122z" />
<glyph unicode="&#x2d8;" horiz-adv-x="408" d="M181 740h84q-7 -32 7 -54.5t49 -22.5q34 0 54.5 22t27.5 55h86q-15 -83 -67.5 -125t-116.5 -42t-101.5 42t-22.5 125z" />
<glyph unicode="&#x2d9;" horiz-adv-x="252" d="M166 652q0 35 27 60.5t63 25.5q29 0 46 -18t17 -46q0 -35 -26.5 -60.5t-62.5 -25.5q-29 0 -46.5 18t-17.5 46z" />
<glyph unicode="&#x2da;" horiz-adv-x="344" d="M165 646q0 51 41 82t100 31q47 0 76.5 -23t29.5 -62q0 -50 -41.5 -81t-99.5 -31q-47 0 -76.5 23t-29.5 61zM258 639q20 -21 45 -3q31 12 15 46q-19 21 -44 3q-32 -14 -16 -46z" />
<glyph unicode="&#x2db;" horiz-adv-x="316" d="M22 -162q0 92 137 162h107q-139 -65 -139 -136q0 -18 11.5 -28t26.5 -10q32 0 74 20l-12 -70q-48 -24 -109 -24q-46 0 -71 24t-25 62z" />
<glyph unicode="&#x2dc;" horiz-adv-x="468" d="M160 622q27 50 63.5 76.5t70.5 26.5q32 0 74 -22t55 -22q29 0 55 41l62 -32q-27 -49 -63 -76t-70 -27q-31 0 -74 22t-56 22q-28 0 -56 -41z" />
<glyph unicode="&#x2dd;" horiz-adv-x="509" d="M152 583l110 157h145l-158 -157h-97zM338 583l109 157h145l-157 -157h-97z" />
<glyph unicode="&#x326;" horiz-adv-x="0" d="M-228 -248l54 189h114l-82 -189h-86z" />
<glyph unicode="&#x3c0;" horiz-adv-x="602" d="M66 0l92 520h455l-92 -520h-121l78 439h-213l-78 -439h-121z" />
<glyph unicode="&#xe3f;" horiz-adv-x="627" d="M76 0l123 700h163l21 120h114l-22 -122q174 -19 174 -148q0 -61 -40 -113t-100 -69q53 -11 83 -44t30 -86q0 -108 -77 -169.5t-193 -67.5l-21 -121h-114l21 120h-162zM219 93h125q70 0 109 35.5t39 96.5q0 83 -110 83h-125zM273 399h102q63 0 102.5 33t39.5 95 q0 80 -105 80h-102z" />
<glyph unicode="&#x1e80;" horiz-adv-x="920" d="M118 700h129l26 -384l7 -166l66 166l165 384h132l33 -384l9 -168l64 168l154 384h124l-305 -700h-132l-34 363l-10 168l-68 -168l-160 -363h-131zM431 894h157l113 -143h-103z" />
<glyph unicode="&#x1e81;" horiz-adv-x="792" d="M88 520h120l25 -229l11 -162l71 162l105 229h110l27 -229l17 -162l68 162l104 229h116l-256 -520h-113l-26 212l-16 162l-72 -162l-99 -212h-116zM348 740h144l81 -157h-99z" />
<glyph unicode="&#x1e82;" horiz-adv-x="920" d="M118 700h129l26 -384l7 -166l66 166l165 384h132l33 -384l9 -168l64 168l154 384h124l-305 -700h-132l-34 363l-10 168l-68 -168l-160 -363h-131zM465 751l152 143h166l-207 -143h-111z" />
<glyph unicode="&#x1e83;" horiz-adv-x="792" d="M88 520h120l25 -229l11 -162l71 162l105 229h110l27 -229l17 -162l68 162l104 229h116l-256 -520h-113l-26 212l-16 162l-72 -162l-99 -212h-116zM397 583l129 157h154l-179 -157h-104z" />
<glyph unicode="&#x1e84;" horiz-adv-x="920" d="M118 700h129l26 -384l7 -166l66 166l165 384h132l33 -384l9 -168l64 168l154 384h124l-305 -700h-132l-34 363l-10 168l-68 -168l-160 -363h-131zM411 820q0 33 26 57t61 24q28 0 45 -17t17 -43q0 -35 -25.5 -58.5t-60.5 -23.5q-28 0 -45.5 17t-17.5 44zM632 819 q0 34 25.5 58t60.5 24q28 0 45.5 -17t17.5 -44q0 -34 -26 -57.5t-61 -23.5q-28 0 -45 16.5t-17 43.5z" />
<glyph unicode="&#x1e85;" horiz-adv-x="792" d="M88 520h120l25 -229l11 -162l71 162l105 229h110l27 -229l17 -162l68 162l104 229h116l-256 -520h-113l-26 212l-16 162l-72 -162l-99 -212h-116zM324 653q0 34 26 58.5t61 24.5q27 0 44 -17.5t17 -44.5q0 -34 -25.5 -58.5t-61.5 -24.5q-27 0 -44 17.5t-17 44.5zM527 652 q0 34 25.5 59t60.5 25q27 0 44.5 -17.5t17.5 -44.5q0 -34 -26 -58.5t-61 -24.5q-27 0 -44 17t-17 44z" />
<glyph unicode="&#x1e9e;" horiz-adv-x="726" d="M76 0l71 397q52 303 325 303h246l-16 -95l-185 -210q83 -21 118.5 -74t35.5 -109q0 -108 -73 -167.5t-168 -59.5q-88 0 -129 42t-30 117h123q-4 -35 10.5 -54t43.5 -19q41 0 68.5 32.5t27.5 91.5q0 52 -34.5 83.5t-100.5 31.5h-35l17 95l176 200h-111q-148 0 -181 -198 l-72 -407h-127z" />
<glyph unicode="&#x1ef2;" horiz-adv-x="586" d="M129 700h129l102 -331l203 331h124l-287 -436l-47 -264h-126l47 264zM263 894h157l113 -143h-103z" />
<glyph unicode="&#x1ef3;" horiz-adv-x="505" d="M74 -208l117 211l-103 517h126l37 -213l19 -162l77 162l110 213h118l-392 -728h-109zM204 740h144l81 -157h-99z" />
<glyph unicode="&#x2000;" horiz-adv-x="467" />
<glyph unicode="&#x2001;" horiz-adv-x="935" />
<glyph unicode="&#x2002;" horiz-adv-x="467" />
<glyph unicode="&#x2003;" horiz-adv-x="935" />
<glyph unicode="&#x2004;" horiz-adv-x="311" />
<glyph unicode="&#x2005;" horiz-adv-x="233" />
<glyph unicode="&#x2006;" horiz-adv-x="155" />
<glyph unicode="&#x2007;" horiz-adv-x="155" />
<glyph unicode="&#x2008;" horiz-adv-x="116" />
<glyph unicode="&#x2009;" horiz-adv-x="187" />
<glyph unicode="&#x200a;" horiz-adv-x="51" />
<glyph unicode="&#x2010;" horiz-adv-x="299" d="M55 229l17 95h244l-17 -95h-244z" />
<glyph unicode="&#x2011;" horiz-adv-x="299" d="M55 229l17 95h244l-17 -95h-244z" />
<glyph unicode="&#x2012;" horiz-adv-x="299" d="M55 229l17 95h244l-17 -95h-244z" />
<glyph unicode="&#x2013;" horiz-adv-x="497" d="M77 229l17 95h420l-17 -95h-420z" />
<glyph unicode="&#x2014;" horiz-adv-x="997" d="M77 229l17 95h920l-17 -95h-920z" />
<glyph unicode="&#x2018;" horiz-adv-x="255" d="M132 596l146 264h102l-121 -264h-127z" />
<glyph unicode="&#x2019;" horiz-adv-x="255" d="M132 596l121 264h127l-146 -264h-102z" />
<glyph unicode="&#x201a;" horiz-adv-x="255" d="M-2 -160l121 263h127l-145 -263h-103z" />
<glyph unicode="&#x201c;" horiz-adv-x="436" d="M132 596l146 264h102l-121 -264h-127zM313 596l146 264h103l-122 -264h-127z" />
<glyph unicode="&#x201d;" horiz-adv-x="436" d="M132 596l121 264h127l-146 -264h-102zM313 596l121 264h128l-146 -264h-103z" />
<glyph unicode="&#x201e;" horiz-adv-x="436" d="M-2 -160l121 263h127l-145 -263h-103zM180 -160l121 263h127l-146 -263h-102z" />
<glyph unicode="&#x2020;" horiz-adv-x="485" d="M109 435l16 95h138l30 170h126l-30 -170h138l-16 -95h-139l-76 -435h-126l76 435h-137z" />
<glyph unicode="&#x2021;" horiz-adv-x="485" d="M62 170l16 95h139l29 170h-137l16 95h138l30 170h126l-30 -170h138l-16 -95h-139l-29 -170h137l-16 -95h-138l-30 -170h-126l30 170h-138z" />
<glyph unicode="&#x2022;" horiz-adv-x="346" d="M87 329q0 65 49.5 111t112.5 46q49 0 81.5 -33t32.5 -83q0 -65 -49.5 -110.5t-112.5 -45.5q-49 0 -81.5 32.5t-32.5 82.5z" />
<glyph unicode="&#x2026;" horiz-adv-x="810" d="M52 50q0 39 27 65t66 26q30 0 47.5 -18t17.5 -47q0 -39 -27 -65t-66 -26q-29 0 -47 18t-18 47zM337 50q0 39 27 65t66 26q30 0 47.5 -18t17.5 -47q0 -39 -27 -65t-66 -26q-29 0 -47 18t-18 47zM622 50q0 39 27 65t66 26q30 0 47.5 -18t17.5 -47q0 -39 -27 -65t-66 -26 q-29 0 -47 18t-18 47z" />
<glyph unicode="&#x202f;" horiz-adv-x="187" />
<glyph unicode="&#x2030;" horiz-adv-x="1442" d="M131 446q0 115 67 189t167 74q74 0 116 -47t42 -128q0 -115 -67 -189t-168 -74q-73 0 -115 47.5t-42 127.5zM219 0l576 700h130l-576 -700h-130zM240 443q0 -46 16.5 -70t45.5 -24q46 0 79 51.5t33 136.5q0 94 -62 94q-47 0 -79.5 -51.5t-32.5 -136.5zM622 166 q0 115 67 189t167 74q74 0 116 -47t42 -128q0 -115 -67 -189t-168 -74q-73 0 -115 47.5t-42 127.5zM731 163q0 -46 16.5 -70t45.5 -24q46 0 79 51.5t33 136.5q0 94 -62 94q-47 0 -79.5 -51.5t-32.5 -136.5zM1041 166q0 115 67 189t167 74q74 0 116 -47t42 -128 q0 -115 -67 -189t-168 -74q-73 0 -115 47.5t-42 127.5zM1150 163q0 -46 16.5 -70t45.5 -24q46 0 79 51.5t33 136.5q0 94 -62 94q-47 0 -79.5 -51.5t-32.5 -136.5z" />
<glyph unicode="&#x2039;" horiz-adv-x="340" d="M89 218l19 111l274 191l-25 -138l-158 -110l120 -108l-24 -137z" />
<glyph unicode="&#x203a;" horiz-adv-x="340" d="M55 27l24 139l158 109l-120 109l25 136l206 -191l-19 -111z" />
<glyph unicode="&#x2044;" horiz-adv-x="634" d="M20 0l576 700h130l-576 -700h-130z" />
<glyph unicode="&#x205f;" horiz-adv-x="233" />
<glyph unicode="&#x20a1;" horiz-adv-x="659" d="M-14 -120l121 255q-19 54 -19 130q0 170 80 289t210 151l55 115h122l-51 -107q29 -4 61 -14l58 121h122l-89 -188q47 -62 38 -170h-134q5 79 -26 118.5t-88 39.5q-97 0 -160.5 -99t-63.5 -254q0 -92 33.5 -139.5t96.5 -47.5q57 0 101.5 39.5t66.5 118.5h135 q-32 -120 -115 -184.5t-192 -68.5l-50 -105h-122l57 121q-30 12 -54 30l-71 -151h-122z" />
<glyph unicode="&#x20a5;" horiz-adv-x="923" d="M66 0l92 520h121l-12 -67q97 82 193 82q103 0 121 -88q19 16 50 38l117 151h126l-78 -101q61 -3 93.5 -43.5t17.5 -127.5l-64 -364h-121l61 344q15 92 -61 96l-168 -219l-39 -221h-121l3 19l-99 -129h-126l263 340l20 114q17 96 -70 96q-31 0 -67 -15.5t-63 -38.5 l-68 -386h-121z" />
<glyph unicode="&#x20a6;" horiz-adv-x="736" d="M50 199l17 100h96l18 104h-95l17 100h95l35 197h121l196 -501l25 158l60 343h114l-35 -197h97l-18 -100h-96l-18 -104h96l-18 -100h-96l-35 -199h-121l-195 500l-25 -158l-60 -342h-115l35 199h-95z" />
<glyph unicode="&#x20a8;" horiz-adv-x="587" d="M108 438l17 95h300q-17 72 -106 72h-181l16 95h85h429l-16 -95h-138q30 -32 39 -72h86l-16 -95h-73q-20 -86 -92 -133.5t-168 -55.5l220 -249h-148l-214 248l17 92h107q52 0 91.5 24t55.5 74h-311z" />
<glyph unicode="&#x20a9;" horiz-adv-x="949" d="M50 202l16 94h130l-9 110h-101l16 94h78l-17 200h128l16 -384l5 -166l64 166l159 384h133l25 -384l7 -168l62 168l145 384h125l-85 -200h76l-17 -94h-98l-47 -110h126l-17 -94h-149l-85 -202h-134l-25 363l-7 168l-65 -168l-155 -363h-129l-17 202h-154z" />
<glyph unicode="&#x20aa;" horiz-adv-x="796" d="M94 0l123 700h224q103 0 152.5 -44.5t49.5 -143.5q0 -102 -75 -310h-105q67 199 67 277q0 62 -27.5 92t-88.5 30h-103l-106 -601h-111zM266 0l88 497h110l-70 -398h96q43 0 75 17t53 46t36 78.5t23.5 102.5t15.5 130q9 109 11 227h104q3 -31 3 -108q0 -300 -76.5 -446 t-252.5 -146h-216z" />
<glyph unicode="&#x20ab;" horiz-adv-x="577" d="M45 0l16 88h511l-15 -88h-512zM102 304q0 122 72 192t167 70q87 0 120 -58l15 89h-112l15 86h112l11 61h117l-11 -61h69l-15 -86h-69l-78 -448h-117l9 50q-68 -65 -156 -65q-66 0 -107.5 44.5t-41.5 125.5zM225 321q0 -48 22.5 -73.5t58.5 -25.5q56 0 112 44l30 172 q-35 40 -91 40q-53 0 -92.5 -41.5t-39.5 -115.5z" />
<glyph unicode="&#x20ac;" horiz-adv-x="669" d="M45 195l17 95h69q3 64 14 109h-64l17 95h78q45 103 125.5 162t181.5 59q106 0 168.5 -64.5t52.5 -188.5h-135q5 76 -23 115t-80 39q-46 0 -87.5 -31.5t-69.5 -90.5h172l-17 -95h-188q-11 -53 -14 -109h183l-16 -95h-164q17 -111 107 -111q52 0 94 38.5t64 115.5h134 q-34 -124 -119 -188.5t-191 -64.5q-99 0 -153.5 55t-66.5 155h-89z" />
<glyph unicode="&#x20ad;" horiz-adv-x="620" d="M65 320l17 95h90l50 285h126l-50 -285h4l252 285h133l-257 -285h210l-16 -95h-207l186 -320h-144l-176 320h-2l-56 -320h-126l56 320h-90z" />
<glyph unicode="&#x20ae;" horiz-adv-x="541" d="M95 104l19 106l132 50l13 74l-132 -50l19 106l132 50l29 165h-184l16 95h493l-16 -95h-183l-20 -114l132 50l-18 -106l-133 -50l-13 -75l132 50l-19 -106l-132 -50l-36 -204h-126l27 154z" />
<glyph unicode="&#x20b1;" horiz-adv-x="646" d="M83 420l16 95h90l33 185h204q90 0 152.5 -47.5t65.5 -137.5h78l-16 -95h-75q-29 -88 -110 -135.5t-176 -47.5h-78l-42 -237h-126l74 420h-90zM283 330h78q46 0 83.5 23.5t55.5 66.5h-201zM316 515h198q-5 44 -33.5 68t-70.5 24h-77z" />
<glyph unicode="&#x20b4;" horiz-adv-x="637" d="M90 139q0 99 95 161h-87l17 95h286q64 27 98.5 59.5t34.5 81.5q0 40 -26 63t-75 23q-123 0 -151 -113h-131q25 100 100.5 153t198.5 53q101 0 156.5 -41.5t55.5 -112.5q0 -103 -99 -166h99l-17 -95h-300q-62 -27 -95 -58t-33 -78q0 -40 26 -63t75 -23q128 0 156 113h132 q-25 -99 -103.5 -152.5t-201.5 -53.5q-100 0 -155.5 41.5t-55.5 112.5z" />
<glyph unicode="&#x20b5;" horiz-adv-x="659" d="M88 265q0 178 87 299.5t226 145.5l19 110h115l-19 -109q90 -14 138.5 -77t39.5 -172h-134q5 79 -26 118.5t-88 39.5q-97 0 -160.5 -99t-63.5 -254q0 -92 33.5 -139.5t96.5 -47.5q57 0 101.5 39.5t66.5 118.5h135q-30 -109 -100.5 -172t-166.5 -77l-19 -109h-115l19 110 q-93 18 -139 89.5t-46 185.5z" />
<glyph unicode="&#x2113;" horiz-adv-x="482" d="M29 168v79q50 25 85 45v137q0 139 47.5 212.5t131.5 73.5q60 0 98 -35t38 -114q0 -143 -194 -283v-125q0 -42 19 -64t52 -22q30 0 75 14v-78q-53 -23 -117 -23q-68 0 -109 37t-41 114v72q-37 -21 -85 -40zM235 383q86 88 86 182q0 66 -33 66q-53 0 -53 -202v-46z" />
<glyph unicode="&#x2117;" horiz-adv-x="830" d="M50 350q0 152 105 258.5t260 106.5t260 -106.5t105 -258.5t-105 -258.5t-260 -106.5t-260 106.5t-105 258.5zM129 350q0 -122 82.5 -207t203.5 -85t203.5 85t82.5 207t-82.5 207t-203.5 85t-203.5 -85t-82.5 -207zM292 143v413h139q64 0 111.5 -35t47.5 -102 q0 -65 -47.5 -100.5t-111.5 -35.5h-50v-140h-89zM381 349h50q32 0 51 17.5t19 52.5q0 71 -70 71h-50v-141z" />
<glyph unicode="&#x2120;" horiz-adv-x="698" d="M50 492h73q5 -42 52 -42t47 35q0 17 -15 24t-45 13q-5 1 -7 1q-22 4 -36 8t-31.5 14t-26 28t-8.5 44q0 41 32 66t82 25q54 0 86 -23.5t35 -69.5h-73q-5 36 -48 36q-44 0 -44 -29q0 -25 57 -35q6 -1 9 -2q24 -5 36.5 -8.5t30.5 -13.5t26.5 -28t8.5 -44q0 -44 -33 -71 t-83 -27q-55 0 -88 24.5t-37 74.5zM337 401v299h75l83 -196l80 196h73v-299h-68v89l1 86l-63 -154h-50l-67 156l2 -90v-87h-66z" />
<glyph unicode="&#x2122;" horiz-adv-x="680" d="M50 644v56h226v-56h-79v-243h-71v243h-76zM319 401v299h76l82 -196l81 196h72v-299h-68v89l2 86l-64 -154h-50l-66 156l1 -90v-87h-66z" />
<glyph unicode="&#x2126;" horiz-adv-x="736" d="M35 0l17 95h170q-51 38 -83.5 107.5t-32.5 145.5q0 149 108.5 258t273.5 109q127 0 198.5 -76t71.5 -194q0 -105 -64 -202t-153 -148h164l-17 -95h-260l17 95q71 46 123 135t52 200q0 91 -39.5 140.5t-110.5 49.5q-107 0 -171.5 -90t-64.5 -221q0 -69 22 -127t56 -87 l-17 -95h-260z" />
<glyph unicode="&#x212e;" horiz-adv-x="774" d="M50 321q0 144 98 241t239 97t239 -97t98 -241h-523v-239q79 -65 186 -65q75 0 138 34t104 93h47q-45 -74 -121.5 -117t-167.5 -43q-141 0 -239 96.5t-98 240.5zM201 354h373l-1 206q-80 66 -186 66t-186 -66v-206z" />
<glyph unicode="&#x2153;" horiz-adv-x="925" d="M135 0l576 700h130l-576 -700h-130zM146 556l16 91l115 53h105l-74 -420h-105l58 330zM549 115h107q-2 -25 12.5 -37t47.5 -12q36 0 56 16.5t20 47.5q0 46 -76 46h-51l13 77h51q84 0 84 63q0 38 -48 38q-53 0 -71 -49h-107q16 59 67 91.5t124 32.5q64 0 102.5 -27 t38.5 -75q0 -36 -25.5 -66t-70.5 -42q74 -13 74 -83q0 -64 -58 -104.5t-137 -40.5q-80 0 -120 32t-33 92z" />
<glyph unicode="&#x2154;" horiz-adv-x="1023" d="M110 280l13 79q27 19 64 45t56.5 40.5t44.5 33t38 31t25.5 27.5t17.5 28.5t5 27.5q0 42 -47 42q-54 0 -71 -63h-107q15 67 66 102.5t125 35.5q65 0 102 -28.5t37 -80.5q0 -26 -9.5 -49t-20.5 -39.5t-45.5 -45.5t-57.5 -46t-83 -61h178l-13 -79h-318zM234 0l576 700h130 l-576 -700h-130zM647 115h107q-2 -25 12.5 -37t47.5 -12q36 0 56 16.5t20 47.5q0 46 -76 46h-51l13 77h51q84 0 84 63q0 38 -48 38q-53 0 -71 -49h-107q16 59 67 91.5t124 32.5q64 0 102.5 -27t38.5 -75q0 -36 -25.5 -66t-70.5 -42q74 -13 74 -83q0 -64 -58 -104.5 t-137 -40.5q-80 0 -120 32t-33 92z" />
<glyph unicode="&#x215b;" horiz-adv-x="934" d="M135 0l576 700h130l-576 -700h-130zM146 556l16 91l115 53h105l-74 -420h-105l58 330zM545 95q0 42 29 76.5t80 46.5q-29 9 -45 30.5t-16 49.5q0 61 53 96t135 35q67 0 107.5 -26.5t40.5 -74.5q0 -40 -26 -69t-69 -41q34 -9 52.5 -33.5t18.5 -55.5q0 -68 -56 -103 t-145 -35q-73 0 -116 26.5t-43 77.5zM654 112q0 -46 63 -46q37 0 60 16.5t23 49.5q0 45 -63 45q-83 0 -83 -65zM697 292q0 -42 53 -42q70 0 70 61q0 43 -52 43q-31 0 -51 -15.5t-20 -46.5z" />
<glyph unicode="&#x215c;" horiz-adv-x="1007" d="M119 395h107q-2 -25 12.5 -37t47.5 -12q36 0 56 16.5t20 47.5q0 46 -76 46h-51l13 77h51q84 0 84 63q0 38 -48 38q-53 0 -71 -49h-107q16 59 67 91.5t124 32.5q64 0 102.5 -27t38.5 -75q0 -36 -25.5 -66t-70.5 -42q74 -13 74 -83q0 -64 -58 -104.5t-137 -40.5 q-80 0 -120 32t-33 92zM208 0l576 700h130l-576 -700h-130zM617 95q0 42 29 76.5t80 46.5q-29 9 -45 30.5t-16 49.5q0 61 53 96t135 35q67 0 107.5 -26.5t40.5 -74.5q0 -40 -26 -69t-69 -41q34 -9 52.5 -33.5t18.5 -55.5q0 -68 -56 -103t-145 -35q-73 0 -116 26.5t-43 77.5z M726 112q0 -46 63 -46q37 0 60 16.5t23 49.5q0 45 -63 45q-83 0 -83 -65zM769 292q0 -42 53 -42q70 0 70 61q0 43 -52 43q-31 0 -51 -15.5t-20 -46.5z" />
<glyph unicode="&#x215d;" horiz-adv-x="987" d="M118 388h107q0 -42 49 -42q37 0 56.5 24t19.5 68q0 53 -50 53q-40 0 -69 -27h-88l42 236h289l-14 -80h-202l-15 -88q41 33 99 33q52 0 83.5 -31t31.5 -87q0 -81 -59 -128.5t-137 -47.5q-75 0 -112 30t-31 87zM188 0l576 700h130l-576 -700h-130zM598 95q0 42 29 76.5 t80 46.5q-29 9 -45 30.5t-16 49.5q0 61 53 96t135 35q67 0 107.5 -26.5t40.5 -74.5q0 -40 -26 -69t-69 -41q34 -9 52.5 -33.5t18.5 -55.5q0 -68 -56 -103t-145 -35q-73 0 -116 26.5t-43 77.5zM707 112q0 -46 63 -46q37 0 60 16.5t23 49.5q0 45 -63 45q-83 0 -83 -65z M750 292q0 -42 53 -42q70 0 70 61q0 43 -52 43q-31 0 -51 -15.5t-20 -46.5z" />
<glyph unicode="&#x215e;" horiz-adv-x="884" d="M85 0l576 700h130l-576 -700h-130zM131 280l217 340h-190l14 80h291l-14 -80l-214 -340h-104zM495 95q0 42 29 76.5t80 46.5q-29 9 -45 30.5t-16 49.5q0 61 53 96t135 35q67 0 107.5 -26.5t40.5 -74.5q0 -40 -26 -69t-69 -41q34 -9 52.5 -33.5t18.5 -55.5q0 -68 -56 -103 t-145 -35q-73 0 -116 26.5t-43 77.5zM604 112q0 -46 63 -46q37 0 60 16.5t23 49.5q0 45 -63 45q-83 0 -83 -65zM647 292q0 -42 53 -42q70 0 70 61q0 43 -52 43q-31 0 -51 -15.5t-20 -46.5z" />
<glyph unicode="&#x2190;" horiz-adv-x="759" d="M86 263l361 307l59 -72l-218 -186h486l-18 -99h-490l154 -188l-81 -68z" />
<glyph unicode="&#x2191;" horiz-adv-x="693" d="M92 295l361 307l252 -307l-82 -69l-155 187l-85 -490h-99l85 486l-218 -185z" />
<glyph unicode="&#x2192;" horiz-adv-x="759" d="M77 213l18 99h490l-154 188l81 69l253 -306l-361 -307l-59 72l217 185h-485z" />
<glyph unicode="&#x2193;" horiz-adv-x="693" d="M81 230l82 70l154 -188l87 490h99l-87 -486l219 186l59 -72l-361 -307z" />
<glyph unicode="&#x2196;" horiz-adv-x="634" d="M95 87l77 433h433l-17 -99h-265l284 -345l-81 -70l-285 346l-46 -265h-100z" />
<glyph unicode="&#x2197;" horiz-adv-x="634" d="M52 76l406 345h-263l18 99h433l-77 -433h-99l46 262l-405 -344z" />
<glyph unicode="&#x2198;" horiz-adv-x="634" d="M120 451l82 68l283 -345l47 266h99l-76 -434h-433l17 100h265z" />
<glyph unicode="&#x2199;" horiz-adv-x="634" d="M81 6l76 434h100l-47 -264l406 346l58 -73l-405 -343h263l-18 -100h-433z" />
<glyph unicode="&#x2202;" horiz-adv-x="611" d="M54 189q0 119 69 191.5t179 72.5q47 0 91 -22.5t68 -57.5q6 48 6 102q0 96 -31 146t-80 50q-76 0 -104 -89h-129q24 85 88 131t162 46q99 0 159 -81t60 -221q0 -216 -88.5 -344t-243.5 -128q-89 0 -147.5 55.5t-58.5 148.5zM182 191q0 -53 25.5 -85.5t69.5 -32.5 q57 0 103 59.5t69 162.5q-18 28 -53 46t-74 18q-69 0 -104.5 -48t-35.5 -120z" />
<glyph unicode="&#x2205;" horiz-adv-x="653" d="M103 86l59 72q-59 67 -59 164q0 136 100.5 231t234.5 95q57 0 106 -22l60 73l71 -53l-59 -73q58 -66 58 -163q0 -136 -100.5 -231t-234.5 -95q-54 0 -104 21l-60 -73zM204 336q0 -53 26 -94l247 302q-25 9 -57 9q-87 0 -151.5 -62.5t-64.5 -154.5zM302 188q24 -9 54 -9 q87 0 152 62.5t65 154.5q0 55 -26 93z" />
<glyph unicode="&#x2206;" horiz-adv-x="630" d="M33 0l17 94l316 606h127l112 -606l-17 -94h-555zM173 94h306l-52 320l-20 166l-77 -166z" />
<glyph unicode="&#x220f;" horiz-adv-x="733" d="M76 0l123 700h566l-123 -700h-126l107 605h-313l-107 -605h-127z" />
<glyph unicode="&#x2211;" horiz-adv-x="564" d="M76 0l17 95l246 273l-155 237l15 95h432l-16 -95h-298l129 -197l-17 -99l-198 -214h294l-17 -95h-432z" />
<glyph unicode="&#x2212;" horiz-adv-x="561" d="M96 318l16 95h469l-16 -95h-469z" />
<glyph unicode="&#x221a;" horiz-adv-x="647" d="M98 439l14 81h193l35 -232l19 -161l74 161l198 412h118l-358 -700h-115l-79 439h-99z" />
<glyph unicode="&#x221e;" horiz-adv-x="819" d="M87 321q0 93 66 159.5t155 66.5q54 0 91.5 -31t76.5 -88q57 55 107.5 87t105.5 32q68 0 110 -46t42 -116q0 -93 -65.5 -159.5t-154.5 -66.5q-54 0 -92 31t-77 88q-57 -55 -107.5 -87t-104.5 -32q-69 0 -111 46t-42 116zM194 337q0 -33 18.5 -56.5t52.5 -23.5q49 0 141 96 q-28 45 -53.5 70.5t-55.5 25.5q-45 0 -74 -34t-29 -78zM522 353q28 -45 53.5 -70.5t55.5 -25.5q45 0 74 34t29 78q0 33 -18.5 56.5t-52.5 23.5q-30 0 -62.5 -24.5t-78.5 -71.5z" />
<glyph unicode="&#x222b;" horiz-adv-x="427" d="M7 -223l16 93q91 0 109 101l94 532q18 99 87 155.5t168 56.5l-17 -93q-91 0 -109 -101l-94 -532q-17 -99 -86 -155.5t-168 -56.5z" />
<glyph unicode="&#x2248;" horiz-adv-x="572" d="M56 221q77 129 184 129q32 0 61 -12t46.5 -26.5t39.5 -26.5t42 -12q41 0 90 71l76 -43q-76 -128 -184 -128q-41 0 -75 19.5t-61.5 38.5t-51.5 19q-43 0 -91 -71zM93 430q77 129 184 129q41 0 75 -19.5t61.5 -38.5t51.5 -19q43 0 91 71l76 -43q-76 -128 -184 -128 q-32 0 -61 12t-46.5 26.5t-39.5 26.5t-42 12q-42 0 -91 -71z" />
<glyph unicode="&#x2260;" horiz-adv-x="561" d="M77 214l17 95h160l63 114h-203l17 95h239l87 157h106l-87 -157h124l-17 -95h-160l-63 -114h203l-17 -95h-239l-88 -159h-106l88 159h-124z" />
<glyph unicode="&#x2264;" horiz-adv-x="550" d="M31 0l17 95h469l-17 -95h-469zM92 348l18 101l503 196l-17 -103l-372 -145l321 -144l-18 -101z" />
<glyph unicode="&#x2265;" horiz-adv-x="550" d="M37 0l17 95h469l-17 -95h-469zM65 152l17 103l371 145l-320 144l18 101l434 -196l-17 -101z" />
<glyph unicode="&#x25ca;" horiz-adv-x="545" d="M89 350l243 350h117l121 -350l-244 -350h-117zM200 346l83 -233l175 241l-84 232z" />
<glyph unicode="&#x25fc;" horiz-adv-x="520" d="M0 0v520h520v-520h-520z" />
<glyph unicode="&#x27f5;" horiz-adv-x="1388" d="M86 263l361 307l59 -72l-218 -186h1115l-17 -99h-1120l154 -188l-81 -68z" />
<glyph unicode="&#x27f6;" horiz-adv-x="1388" d="M77 213l18 99h1120l-154 188l80 69l254 -306l-362 -307l-59 72l218 185h-1115z" />
<glyph unicode="&#x301a;" horiz-adv-x="388" d="M99 -125l167 950h245l-14 -80h-74l-139 -790h74l-14 -80h-245zM182 -45h32l139 790h-32z" />
<glyph unicode="&#x301b;" horiz-adv-x="397" d="M-6 -125l14 80h74l139 790h-74l14 80h245l-167 -950h-245zM152 -45h32l139 790h-32z" />
<glyph horiz-adv-x="726" d="M88 276q0 193 110 316t284 123q126 0 195 -78.5t69 -212.5q0 -193 -109.5 -316t-283.5 -123q-126 0 -195.5 78.5t-69.5 212.5zM199 -152l16 95h374l-17 -95h-373zM222 276q0 -93 39.5 -144.5t108.5 -51.5q76 0 132 49t83.5 126t27.5 169q0 93 -39.5 144.5t-109.5 51.5 q-112 0 -177 -100.5t-65 -243.5z" />
<glyph horiz-adv-x="564" d="M56 101q0 80 71 136.5t212 56.5q21 0 75 -4l10 57q18 109 -71 109q-96 0 -119 -110h-120q16 91 88 140t166 49q40 0 73 -8t61.5 -26t41 -53.5t3.5 -85.5l-64 -362h-120l39 220q-36 3 -68 3q-77 0 -115 -25.5t-38 -67.5q0 -56 78 -56q62 0 126 54l-12 -70 q-88 -73 -184 -73q-62 0 -97.5 31.5t-35.5 84.5z" />
<glyph horiz-adv-x="598" d="M15 -94q0 40 28 77.5t73 65.5q-32 22 -32 67q0 64 71 125q-45 37 -45 101q0 92 75 142.5t185 50.5q57 0 102 -15h184l-14 -81h-79q8 -24 8 -49q0 -92 -75 -143t-185 -51q-60 0 -106 17q-15 -29 -15 -49q0 -35 40 -35h158q75 0 116 -32t41 -88q0 -96 -95 -164t-225 -68 q-104 0 -157 34t-53 95zM131 -54q0 -93 121 -93q77 0 122.5 32t45.5 86q0 28 -20 43t-51 15h-154q-19 0 -34 3q-30 -42 -30 -86zM227 349q0 -39 27 -58t71 -19q57 0 93 27t36 84q0 38 -26 57.5t-71 19.5q-60 0 -95 -27t-35 -84z" />
<glyph horiz-adv-x="268" d="M-106 -206l13 74q34 -9 62 -9q32 0 56 21t32 63l101 577h121l-102 -577q-15 -83 -68 -124.5t-137 -41.5q-44 0 -78 17zM169 652q0 35 26.5 60.5t61.5 25.5q28 0 44.5 -18t16.5 -46q0 -35 -26 -60.5t-61 -25.5q-29 0 -45.5 18t-16.5 46z" />
<glyph horiz-adv-x="373" d="M83 439l14 81h110l25 140h120l-25 -140h112l-14 -81h-112l-77 -439h-120l77 439h-110z" />
<glyph horiz-adv-x="537" d="M66 0l92 520h121l-92 -520h-121zM162 -206l13 74q34 -9 62 -9q32 0 56 21t32 63l101 577h121l-102 -577q-15 -83 -68 -124.5t-137 -41.5q-44 0 -78 17zM169 652q0 35 26.5 60.5t61.5 25.5q28 0 44.5 -18t16.5 -46q0 -35 -26 -60.5t-61 -25.5q-29 0 -45.5 18t-16.5 46z M437 652q0 35 26.5 60.5t61.5 25.5q28 0 44.5 -18t16.5 -46q0 -35 -26 -60.5t-61 -25.5q-29 0 -45.5 18t-16.5 46z" />
<glyph horiz-adv-x="564" d="M56 101q0 80 71 136.5t212 56.5q21 0 75 -4l10 57q18 109 -71 109q-96 0 -119 -110h-120q16 91 88 140t166 49q40 0 73 -8t61.5 -26t41 -53.5t3.5 -85.5l-64 -362h-120l39 220q-36 3 -68 3q-77 0 -115 -25.5t-38 -67.5q0 -56 78 -56q62 0 126 54l-12 -70 q-88 -73 -184 -73q-62 0 -97.5 31.5t-35.5 84.5zM275 583l129 157h154l-179 -157h-104z" />
<glyph horiz-adv-x="564" d="M56 101q0 80 71 136.5t212 56.5q21 0 75 -4l10 57q18 109 -71 109q-96 0 -119 -110h-120q16 91 88 140t166 49q40 0 73 -8t61.5 -26t41 -53.5t3.5 -85.5l-64 -362h-120l39 220q-36 3 -68 3q-77 0 -115 -25.5t-38 -67.5q0 -56 78 -56q62 0 126 54l-12 -70 q-88 -73 -184 -73q-62 0 -97.5 31.5t-35.5 84.5zM249 740h84q-7 -32 7 -54.5t49 -22.5q34 0 54.5 22t27.5 55h86q-15 -83 -67.5 -125t-116.5 -42t-101.5 42t-22.5 125z" />
<glyph horiz-adv-x="564" d="M56 101q0 80 71 136.5t212 56.5q21 0 75 -4l10 57q18 109 -71 109q-96 0 -119 -110h-120q16 91 88 140t166 49q40 0 73 -8t61.5 -26t41 -53.5t3.5 -85.5l-64 -362h-120l39 220q-36 3 -68 3q-77 0 -115 -25.5t-38 -67.5q0 -56 78 -56q62 0 126 54l-12 -70 q-88 -73 -184 -73q-62 0 -97.5 31.5t-35.5 84.5zM195 583l147 157h122l90 -157h-99l-64 79l-92 -79h-104z" />
<glyph horiz-adv-x="564" d="M56 101q0 80 71 136.5t212 56.5q21 0 75 -4l10 57q18 109 -71 109q-96 0 -119 -110h-120q16 91 88 140t166 49q40 0 73 -8t61.5 -26t41 -53.5t3.5 -85.5l-64 -362h-120l39 220q-36 3 -68 3q-77 0 -115 -25.5t-38 -67.5q0 -56 78 -56q62 0 126 54l-12 -70 q-88 -73 -184 -73q-62 0 -97.5 31.5t-35.5 84.5zM214 653q0 34 26 58.5t61 24.5q27 0 44 -17.5t17 -44.5q0 -34 -25.5 -58.5t-61.5 -24.5q-27 0 -44 17.5t-17 44.5zM417 652q0 34 25.5 59t60.5 25q27 0 44.5 -17.5t17.5 -44.5q0 -34 -26 -58.5t-61 -24.5q-27 0 -44 17 t-17 44z" />
<glyph horiz-adv-x="564" d="M56 101q0 80 71 136.5t212 56.5q21 0 75 -4l10 57q18 109 -71 109q-96 0 -119 -110h-120q16 91 88 140t166 49q40 0 73 -8t61.5 -26t41 -53.5t3.5 -85.5l-64 -362h-120l39 220q-36 3 -68 3q-77 0 -115 -25.5t-38 -67.5q0 -56 78 -56q62 0 126 54l-12 -70 q-88 -73 -184 -73q-62 0 -97.5 31.5t-35.5 84.5zM245 740h144l81 -157h-99z" />
<glyph horiz-adv-x="564" d="M56 101q0 80 71 136.5t212 56.5q21 0 75 -4l10 57q18 109 -71 109q-96 0 -119 -110h-120q16 91 88 140t166 49q40 0 73 -8t61.5 -26t41 -53.5t3.5 -85.5l-64 -362h-120l39 220q-36 3 -68 3q-77 0 -115 -25.5t-38 -67.5q0 -56 78 -56q62 0 126 54l-12 -70 q-88 -73 -184 -73q-62 0 -97.5 31.5t-35.5 84.5zM226 612l15 86h308l-15 -86h-308z" />
<glyph horiz-adv-x="564" d="M56 101q0 80 71 136.5t212 56.5q21 0 75 -4l10 57q18 109 -71 109q-96 0 -119 -110h-120q16 91 88 140t166 49q40 0 73 -8t61.5 -26t41 -53.5t3.5 -85.5l-64 -362h-1q-139 -65 -139 -136q0 -18 11.5 -28t26.5 -10q32 0 74 20l-12 -70q-48 -24 -109 -24q-46 0 -71 24 t-25 62q0 92 137 162h-12l39 220q-36 3 -68 3q-77 0 -115 -25.5t-38 -67.5q0 -56 78 -56q62 0 126 54l-12 -70q-88 -73 -184 -73q-62 0 -97.5 31.5t-35.5 84.5z" />
<glyph horiz-adv-x="564" d="M56 101q0 80 71 136.5t212 56.5q21 0 75 -4l10 57q18 109 -71 109q-96 0 -119 -110h-120q16 91 88 140t166 49q40 0 73 -8t61.5 -26t41 -53.5t3.5 -85.5l-64 -362h-120l39 220q-36 3 -68 3q-77 0 -115 -25.5t-38 -67.5q0 -56 78 -56q62 0 126 54l-12 -70 q-88 -73 -184 -73q-62 0 -97.5 31.5t-35.5 84.5zM265 646q0 51 41 82t100 31q47 0 76.5 -23t29.5 -62q0 -50 -41.5 -81t-99.5 -31q-47 0 -76.5 23t-29.5 61zM358 639q20 -21 45 -3q31 12 15 46q-19 21 -44 3q-32 -14 -16 -46z" />
<glyph horiz-adv-x="564" d="M56 101q0 80 71 136.5t212 56.5q21 0 75 -4l10 57q18 109 -71 109q-96 0 -119 -110h-120q16 91 88 140t166 49q40 0 73 -8t61.5 -26t41 -53.5t3.5 -85.5l-64 -362h-120l39 220q-36 3 -68 3q-77 0 -115 -25.5t-38 -67.5q0 -56 78 -56q62 0 126 54l-12 -70 q-88 -73 -184 -73q-62 0 -97.5 31.5t-35.5 84.5zM198 622q27 50 63.5 76.5t70.5 26.5q32 0 74 -22t55 -22q29 0 55 41l62 -32q-27 -49 -63 -76t-70 -27q-31 0 -74 22t-56 22q-28 0 -56 -41z" />
<glyph horiz-adv-x="598" d="M15 -94q0 40 28 77.5t73 65.5q-32 22 -32 67q0 64 71 125q-45 37 -45 101q0 92 75 142.5t185 50.5q57 0 102 -15h184l-14 -81h-79q8 -24 8 -49q0 -92 -75 -143t-185 -51q-60 0 -106 17q-15 -29 -15 -49q0 -35 40 -35h158q75 0 116 -32t41 -88q0 -96 -95 -164t-225 -68 q-104 0 -157 34t-53 95zM131 -54q0 -93 121 -93q77 0 122.5 32t45.5 86q0 28 -20 43t-51 15h-154q-19 0 -34 3q-30 -42 -30 -86zM227 349q0 -39 27 -58t71 -19q57 0 93 27t36 84q0 38 -26 57.5t-71 19.5q-60 0 -95 -27t-35 -84zM258 740h84q-7 -32 7 -54.5t49 -22.5 q34 0 54.5 22t27.5 55h86q-15 -83 -67.5 -125t-116.5 -42t-101.5 42t-22.5 125z" />
<glyph horiz-adv-x="598" d="M15 -94q0 40 28 77.5t73 65.5q-32 22 -32 67q0 64 71 125q-45 37 -45 101q0 92 75 142.5t185 50.5q57 0 102 -15h184l-14 -81h-79q8 -24 8 -49q0 -92 -75 -143t-185 -51q-60 0 -106 17q-15 -29 -15 -49q0 -35 40 -35h158q75 0 116 -32t41 -88q0 -96 -95 -164t-225 -68 q-104 0 -157 34t-53 95zM131 -54q0 -93 121 -93q77 0 122.5 32t45.5 86q0 28 -20 43t-51 15h-154q-19 0 -34 3q-30 -42 -30 -86zM204 583l147 157h122l90 -157h-99l-64 79l-92 -79h-104zM227 349q0 -39 27 -58t71 -19q57 0 93 27t36 84q0 38 -26 57.5t-71 19.5 q-60 0 -95 -27t-35 -84z" />
<glyph horiz-adv-x="598" d="M15 -94q0 40 28 77.5t73 65.5q-32 22 -32 67q0 64 71 125q-45 37 -45 101q0 92 75 142.5t185 50.5q57 0 102 -15h184l-14 -81h-79q8 -24 8 -49q0 -92 -75 -143t-185 -51q-60 0 -106 17q-15 -29 -15 -49q0 -35 40 -35h158q75 0 116 -32t41 -88q0 -96 -95 -164t-225 -68 q-104 0 -157 34t-53 95zM131 -54q0 -93 121 -93q77 0 122.5 32t45.5 86q0 28 -20 43t-51 15h-154q-19 0 -34 3q-30 -42 -30 -86zM227 349q0 -39 27 -58t71 -19q57 0 93 27t36 84q0 38 -26 57.5t-71 19.5q-60 0 -95 -27t-35 -84zM304 582l82 189h86l-54 -189h-114z" />
<glyph horiz-adv-x="598" d="M15 -94q0 40 28 77.5t73 65.5q-32 22 -32 67q0 64 71 125q-45 37 -45 101q0 92 75 142.5t185 50.5q57 0 102 -15h184l-14 -81h-79q8 -24 8 -49q0 -92 -75 -143t-185 -51q-60 0 -106 17q-15 -29 -15 -49q0 -35 40 -35h158q75 0 116 -32t41 -88q0 -96 -95 -164t-225 -68 q-104 0 -157 34t-53 95zM131 -54q0 -93 121 -93q77 0 122.5 32t45.5 86q0 28 -20 43t-51 15h-154q-19 0 -34 3q-30 -42 -30 -86zM227 349q0 -39 27 -58t71 -19q57 0 93 27t36 84q0 38 -26 57.5t-71 19.5q-60 0 -95 -27t-35 -84zM321 652q0 35 27 60.5t63 25.5q29 0 46 -18 t17 -46q0 -35 -26.5 -60.5t-62.5 -25.5q-29 0 -46.5 18t-17.5 46z" />
<glyph horiz-adv-x="268" d="M66 0l92 520h121l-92 -520h-121zM169 652q0 35 26.5 60.5t61.5 25.5q28 0 44.5 -18t16.5 -46q0 -35 -26 -60.5t-61 -25.5q-29 0 -45.5 18t-16.5 46z" />
<glyph horiz-adv-x="268" d="M-106 -206l13 74q34 -9 62 -9q32 0 56 21t32 63l101 577h121l-102 -577q-15 -83 -68 -124.5t-137 -41.5q-44 0 -78 17zM50 583l147 157h122l90 -157h-99l-64 79l-92 -79h-104z" />
<glyph horiz-adv-x="373" d="M69 252l15 86h91l18 101h-110l14 81h110l25 140h120l-25 -140h112l-14 -81h-112l-18 -101h96l-15 -86h-96l-44 -252h-120l44 252h-91z" />
<glyph horiz-adv-x="373" d="M83 439l14 81h110l25 140h120l-25 -140h112l-14 -81h-112l-77 -439h-120l77 439h-110zM391 574l41 229h110l-65 -229h-86z" />
<glyph horiz-adv-x="373" d="M44 -234l10 59q26 -13 62 -13q21 0 38.5 10.5t17.5 30.5q0 15 -13 22.5t-30 7.5q-21 0 -40 -6l-16 39l78 84h-35l77 439h-110l14 81h110l25 140h120l-25 -140h112l-14 -81h-112l-77 -439h-12l-60 -64q42 2 70.5 -16t28.5 -55q0 -53 -44.5 -83t-105.5 -30q-42 0 -69 14z " />
<glyph horiz-adv-x="373" d="M57 -248l54 189h114l-82 -189h-86zM83 439l14 81h110l25 140h120l-25 -140h112l-14 -81h-112l-77 -439h-120l77 439h-110z" />
<glyph horiz-adv-x="532" d="M1 0l294 543h109l118 -543h-123l-22 129h-194l-65 -129h-117zM226 214h136l-16 92l-17 119l-56 -119z" />
<glyph horiz-adv-x="546" d="M76 0l96 543h202q82 0 133 -29t51 -93q0 -47 -30.5 -84.5t-78.5 -51.5q41 -8 65 -35.5t24 -69.5q0 -88 -68.5 -134t-173.5 -46h-220zM210 81h100q109 0 109 91q0 62 -82 62h-100zM251 314h82q104 0 104 89q0 59 -78 59h-82z" />
<glyph horiz-adv-x="562" d="M82 213q0 149 86.5 246.5t220.5 97.5q91 0 148.5 -51.5t49.5 -147.5h-122q3 59 -22 87t-69 28q-80 0 -123.5 -77t-43.5 -184q0 -66 24.5 -104.5t71.5 -38.5q45 0 79.5 29t51.5 86h122q-26 -96 -101.5 -147.5t-166.5 -51.5q-99 0 -152.5 61.5t-53.5 166.5z" />
<glyph horiz-adv-x="597" d="M76 0l96 543h185q120 0 185.5 -59t65.5 -165q0 -146 -95.5 -232.5t-251.5 -86.5h-185zM210 85h66q94 0 150 58.5t56 170.5q0 72 -37 108t-103 36h-66z" />
<glyph horiz-adv-x="475" d="M76 0l96 543h355l-15 -85h-236l-23 -132h220l-15 -85h-221l-27 -156h236l-15 -85h-355z" />
<glyph horiz-adv-x="447" d="M76 0l96 543h346l-15 -85h-227l-26 -146h212l-15 -85h-212l-40 -227h-119z" />
<glyph horiz-adv-x="576" d="M81 201q0 158 86 257t223 99q90 0 147 -48.5t51 -135.5h-122q1 49 -24 74.5t-68 25.5q-80 0 -123.5 -77.5t-43.5 -185.5q0 -141 98 -141q65 0 123 47l14 81h-113l14 80h225l-49 -277h-112l8 47q-29 -27 -74 -44.5t-85 -17.5q-85 0 -130 58t-45 158z" />
<glyph horiz-adv-x="627" d="M76 0l96 543h119l-38 -217h234l39 217h118l-96 -543h-118l42 241h-235l-42 -241h-119z" />
<glyph horiz-adv-x="274" d="M76 0l96 543h119l-96 -543h-119z" />
<glyph horiz-adv-x="497" d="M53 186h124q-14 -117 60 -117q79 0 96 94l67 380h119l-65 -364q-17 -96 -79.5 -145t-152.5 -49q-39 0 -71 10.5t-58 32.5t-37 62.5t-3 95.5z" />
<glyph horiz-adv-x="548" d="M76 0l96 543h119l-44 -250l221 250h126l-235 -257l171 -286h-135l-152 273l-48 -273h-119z" />
<glyph horiz-adv-x="460" d="M83 0l96 543h119l-81 -458h212l-15 -85h-331z" />
<glyph horiz-adv-x="718" d="M76 0l96 543h128l86 -383l228 383h120l-96 -543h-110l41 231l22 113l-175 -298h-98l-73 313l-20 -122l-41 -237h-108z" />
<glyph horiz-adv-x="617" d="M76 0l96 543h113l175 -385l20 123l47 262h107l-96 -543h-113l-176 384l-19 -122l-46 -262h-108z" />
<glyph horiz-adv-x="612" d="M82 218q0 147 93 243t228 96q103 0 161.5 -63.5t58.5 -169.5q0 -147 -93 -243t-228 -96q-103 0 -161.5 63.5t-58.5 169.5zM208 219q0 -69 29 -109.5t80 -40.5q80 0 130.5 72t50.5 182q0 69 -29.5 109.5t-80.5 40.5q-80 0 -130 -72t-50 -182z" />
<glyph horiz-adv-x="509" d="M76 0l96 543h196q78 0 128.5 -40.5t50.5 -114.5q0 -100 -72 -155.5t-172 -55.5h-76l-32 -177h-119zM241 260h77q48 0 78.5 29.5t30.5 92.5q0 78 -74 78h-77z" />
<glyph horiz-adv-x="612" d="M82 218q0 147 93 243t228 96q103 0 161.5 -63.5t58.5 -169.5q0 -107 -51.5 -189.5t-136.5 -121.5l100 -130h-136l-76 103q-7 -1 -21 -1q-103 0 -161.5 63.5t-58.5 169.5zM208 219q0 -69 29 -109.5t80 -40.5q80 0 130.5 72t50.5 182q0 69 -29.5 109.5t-80.5 40.5 q-80 0 -130 -72t-50 -182z" />
<glyph horiz-adv-x="612" d="M82 218q0 147 93 243t228 96q103 0 161.5 -63.5t58.5 -169.5q0 -147 -93 -243t-228 -96q-103 0 -161.5 63.5t-58.5 169.5zM184 -130l15 84h295l-15 -84h-295zM208 219q0 -69 29 -109.5t80 -40.5q80 0 130.5 72t50.5 182q0 69 -29.5 109.5t-80.5 40.5q-80 0 -130 -72 t-50 -182z" />
<glyph horiz-adv-x="524" d="M76 0l96 543h191q79 0 129.5 -39t50.5 -111q0 -71 -40 -118t-106 -67l111 -208h-129l-92 194h-58l-34 -194h-119zM244 275h72q47 0 77 26.5t30 84.5q0 74 -75 74h-72z" />
<glyph horiz-adv-x="519" d="M71 163h120q-4 -49 23 -73t70 -24q46 0 79.5 22.5t33.5 64.5q0 35 -28 51t-82 27q-36 7 -62 15.5t-53.5 24t-42 41.5t-14.5 61q0 84 67.5 134t169.5 50q97 0 149 -44.5t44 -126.5h-120q4 44 -21 66.5t-67 22.5q-45 0 -75.5 -20.5t-30.5 -59.5q0 -18 8 -30.5t25.5 -21 t33 -12.5t42.5 -10q36 -8 62.5 -16.5t54 -24.5t42.5 -42t15 -60q0 -86 -72.5 -139.5t-172.5 -53.5t-155 46t-43 132z" />
<glyph horiz-adv-x="452" d="M108 458l15 85h406l-15 -85h-144l-81 -458h-118l80 458h-143z" />
<glyph horiz-adv-x="616" d="M113 190l62 353h119l-60 -338q-23 -136 91 -136q59 0 93.5 33t44.5 88l63 353h107l-59 -338q-18 -103 -91 -161.5t-174 -58.5q-108 0 -161 53t-35 152z" />
<glyph horiz-adv-x="532" d="M103 543h123l52 -277l21 -132l65 132l143 277h117l-294 -543h-109z" />
<glyph horiz-adv-x="765" d="M103 543h122l24 -259l10 -127l54 127l117 259h107l31 -259l13 -128l53 128l108 259h115l-248 -543h-107l-32 257l-12 130l-53 -130l-118 -257h-114z" />
<glyph horiz-adv-x="493" d="M2 0l225 272l-125 271h124l75 -175l139 175h123l-214 -258l132 -285h-123l-83 190l-150 -190h-123z" />
<glyph horiz-adv-x="515" d="M122 543h125l76 -244l158 244h112l-234 -344l-35 -199h-119l36 208z" />
<glyph horiz-adv-x="437" d="M35 0l16 85l310 373h-240l15 85h368l-15 -85l-310 -373h244l-15 -85h-373z" />
<glyph horiz-adv-x="782" d="M1 0l469 543h364l-15 -84h-236l-24 -133h220l-15 -85h-220l-27 -156h236l-15 -85h-355l23 129h-168l-106 -129h-131zM307 214h114l32 183l-78 -100z" />
<glyph horiz-adv-x="597" d="M41 227l15 85h75l41 231h185q120 0 185.5 -59t65.5 -165q0 -146 -95.5 -232.5t-251.5 -86.5h-185l40 227h-75zM210 85h66q94 0 150 58.5t56 170.5q0 72 -37 108t-103 36h-66l-26 -146h101l-15 -85h-101z" />
<glyph horiz-adv-x="771" d="M76 0l96 543h119l-96 -543h-119zM327 186h124q-14 -117 60 -117q79 0 96 94l67 380h119l-65 -364q-17 -96 -79.5 -145t-152.5 -49q-39 0 -71 10.5t-58 32.5t-37 62.5t-3 95.5z" />
<glyph horiz-adv-x="617" d="M76 0l96 543h113l175 -385l20 123l47 262h107l-96 -543q-31 -173 -210 -173q-49 0 -77 14l14 82q30 -10 70 -10q83 0 95 78l-181 393l-19 -122l-46 -262h-108z" />
<glyph horiz-adv-x="612" d="M42 -70l91 126q-51 63 -51 162q0 147 93 243t228 96q43 0 84 -13l49 68h127l-91 -126q51 -63 51 -162q0 -147 -93 -243t-228 -96q-43 0 -84 13l-49 -68h-127zM208 219q0 -26 5 -53l216 299q-19 8 -41 8q-80 0 -130 -72t-50 -182zM276 77q19 -8 41 -8q80 0 130.5 72 t50.5 182q0 26 -5 54z" />
<glyph horiz-adv-x="787" d="M82 223q0 146 97 233t251 87h409l-15 -85h-236l-24 -132h220l-15 -85h-220l-27 -156h236l-15 -85h-409q-117 0 -184.5 59t-67.5 164zM208 228q0 -143 141 -143h54l65 373h-53q-95 0 -151 -57.5t-56 -172.5z" />
<glyph horiz-adv-x="504" d="M76 0l96 543h119l-14 -81h77q78 0 128.5 -40t50.5 -114q0 -100 -72 -155.5t-172 -55.5h-77l-17 -97h-119zM227 180h77q48 0 78.5 29t30.5 92q0 78 -74 78h-77z" />
<glyph horiz-adv-x="629" d="M76 0l53 296q22 126 99.5 186.5t188.5 60.5h198l-15 -85l-139 -151q65 -18 92 -59.5t27 -84.5q0 -83 -61.5 -130.5t-135.5 -47.5q-72 0 -106 35.5t-24 101.5h100q-2 -28 9.5 -44t35.5 -16q32 0 51 24t19 64t-27.5 63.5t-81.5 23.5h-26l14 81l129 140h-78q-58 0 -96 -33.5 t-53 -118.5l-54 -306h-119z" />
<glyph horiz-adv-x="532" d="M1 0l294 543h109l118 -543h-123l-22 129h-194l-65 -129h-117zM226 214h136l-16 92l-17 119l-56 -119zM264 582l121 111h147l-165 -111h-103z" />
<glyph horiz-adv-x="532" d="M1 0l294 543h109l118 -543h-123l-22 129h-194l-65 -129h-117zM226 214h136l-16 92l-17 119l-56 -119zM233 693h82q-3 -18 9 -29t42 -11q55 0 62 40h84q-10 -58 -55 -88t-105 -30t-94.5 30t-24.5 88z" />
<glyph horiz-adv-x="532" d="M1 0l294 543h109l118 -543h-123l-22 129h-194l-65 -129h-117zM181 582l145 111h96l105 -111h-102l-63 40l-76 -40h-105zM226 214h136l-16 92l-17 119l-56 -119z" />
<glyph horiz-adv-x="532" d="M1 0l294 543h109l118 -543h-123l-22 129h-194l-65 -129h-117zM211 635q0 28 23 47.5t52 19.5q23 0 38.5 -14t15.5 -36q0 -28 -22.5 -47.5t-51.5 -19.5q-24 0 -39.5 14t-15.5 36zM226 214h136l-16 92l-17 119l-56 -119zM389 635q0 28 22.5 47.5t51.5 19.5q24 0 39.5 -14 t15.5 -36q0 -29 -22.5 -48t-52.5 -19q-23 0 -38.5 14t-15.5 36z" />
<glyph horiz-adv-x="532" d="M1 0l294 543h109l118 -543h-123l-22 129h-194l-65 -129h-117zM223 693h139l90 -111h-95zM226 214h136l-16 92l-17 119l-56 -119z" />
<glyph horiz-adv-x="532" d="M1 0l294 543h109l118 -543h-123l-22 129h-194l-65 -129h-117zM225 598l13 78h266l-13 -78h-266zM226 214h136l-16 92l-17 119l-56 -119z" />
<glyph horiz-adv-x="532" d="M1 0l294 543h109l118 -543h-1q-139 -65 -139 -136q0 -18 11.5 -28t26.5 -10q32 0 74 20l-12 -70q-48 -24 -109 -24q-46 0 -71 24t-25 62q0 92 137 162h-15l-22 129h-194l-65 -129h-117zM226 214h136l-16 92l-17 119l-56 -119z" />
<glyph horiz-adv-x="532" d="M1 0l294 543h109l118 -543h-123l-22 129h-194l-65 -129h-117zM226 214h136l-16 92l-17 119l-56 -119zM265 627q0 40 33 64.5t81 24.5q40 0 64 -18t24 -49q0 -39 -33 -63.5t-81 -24.5q-40 0 -64 18t-24 48zM345 623q14 -14 32 -1q22 8 10 32q-14 14 -32 1q-21 -10 -10 -32 z" />
<glyph horiz-adv-x="532" d="M1 0l294 543h109l118 -543h-123l-22 129h-194l-65 -129h-117zM199 617q45 81 110 81q24 0 65 -15t55 -15q22 0 42 27l58 -29q-43 -81 -109 -81q-24 0 -66 15t-56 15q-19 0 -41 -27zM226 214h136l-16 92l-17 119l-56 -119z" />
<glyph horiz-adv-x="562" d="M82 213q0 149 86.5 246.5t220.5 97.5q91 0 148.5 -51.5t49.5 -147.5h-122q3 59 -22 87t-69 28q-80 0 -123.5 -77t-43.5 -184q0 -66 24.5 -104.5t71.5 -38.5q45 0 79.5 29t51.5 86h122q-26 -96 -101.5 -147.5t-166.5 -51.5q-99 0 -152.5 61.5t-53.5 166.5zM285 582 l121 111h147l-165 -111h-103z" />
<glyph horiz-adv-x="562" d="M82 213q0 149 86.5 246.5t220.5 97.5q91 0 148.5 -51.5t49.5 -147.5h-122q3 59 -22 87t-69 28q-80 0 -123.5 -77t-43.5 -184q0 -66 24.5 -104.5t71.5 -38.5q45 0 79.5 29t51.5 86h122q-26 -96 -101.5 -147.5t-166.5 -51.5q-99 0 -152.5 61.5t-53.5 166.5zM230 693h102 l62 -40l77 40h106l-145 -111h-96z" />
<glyph horiz-adv-x="562" d="M82 213q0 149 86.5 246.5t220.5 97.5q91 0 148.5 -51.5t49.5 -147.5h-122q3 59 -22 87t-69 28q-80 0 -123.5 -77t-43.5 -184q0 -66 24.5 -104.5t71.5 -38.5q45 0 79.5 29t51.5 86h122q-24 -88 -90 -139t-150 -59l-47 -50q42 2 70.5 -16t28.5 -55q0 -53 -44.5 -83 t-105.5 -30q-42 0 -69 14l10 59q26 -13 62 -13q21 0 38.5 10.5t17.5 30.5q0 15 -13 22.5t-30 7.5q-21 0 -40 -6l-16 39l67 72q-79 13 -121 72.5t-42 152.5z" />
<glyph horiz-adv-x="562" d="M82 213q0 149 86.5 246.5t220.5 97.5q91 0 148.5 -51.5t49.5 -147.5h-122q3 59 -22 87t-69 28q-80 0 -123.5 -77t-43.5 -184q0 -66 24.5 -104.5t71.5 -38.5q45 0 79.5 29t51.5 86h122q-26 -96 -101.5 -147.5t-166.5 -51.5q-99 0 -152.5 61.5t-53.5 166.5zM211 582 l145 111h96l105 -111h-102l-63 40l-76 -40h-105z" />
<glyph horiz-adv-x="562" d="M82 213q0 149 86.5 246.5t220.5 97.5q91 0 148.5 -51.5t49.5 -147.5h-122q3 59 -22 87t-69 28q-80 0 -123.5 -77t-43.5 -184q0 -66 24.5 -104.5t71.5 -38.5q45 0 79.5 29t51.5 86h122q-26 -96 -101.5 -147.5t-166.5 -51.5q-99 0 -152.5 61.5t-53.5 166.5zM328 634 q0 29 23.5 49t53.5 20q24 0 39.5 -14.5t15.5 -36.5q0 -29 -23 -48.5t-54 -19.5q-24 0 -39.5 14t-15.5 36z" />
<glyph horiz-adv-x="597" d="M76 0l96 543h185q120 0 185.5 -59t65.5 -165q0 -146 -95.5 -232.5t-251.5 -86.5h-185zM210 85h66q94 0 150 58.5t56 170.5q0 72 -37 108t-103 36h-66zM214 693h102l62 -40l77 40h106l-145 -111h-96z" />
<glyph horiz-adv-x="597" d="M41 227l15 85h75l41 231h185q120 0 185.5 -59t65.5 -165q0 -146 -95.5 -232.5t-251.5 -86.5h-185l40 227h-75zM210 85h66q94 0 150 58.5t56 170.5q0 72 -37 108t-103 36h-66l-26 -146h101l-15 -85h-101z" />
<glyph horiz-adv-x="475" d="M76 0l96 543h355l-15 -85h-236l-23 -132h220l-15 -85h-221l-27 -156h236l-15 -85h-355zM239 582l121 111h147l-165 -111h-103z" />
<glyph horiz-adv-x="475" d="M76 0l96 543h355l-15 -85h-236l-23 -132h220l-15 -85h-221l-27 -156h236l-15 -85h-355zM229 693h82q-3 -18 9 -29t42 -11q55 0 62 40h84q-10 -58 -55 -88t-105 -30t-94.5 30t-24.5 88z" />
<glyph horiz-adv-x="475" d="M76 0l96 543h355l-15 -85h-236l-23 -132h220l-15 -85h-221l-27 -156h236l-15 -85h-355zM195 693h102l62 -40l77 40h106l-145 -111h-96z" />
<glyph horiz-adv-x="475" d="M76 0l96 543h355l-15 -85h-236l-23 -132h220l-15 -85h-221l-27 -156h236l-15 -85h-355zM176 582l145 111h96l105 -111h-102l-63 40l-76 -40h-105z" />
<glyph horiz-adv-x="475" d="M76 0l96 543h355l-15 -85h-236l-23 -132h220l-15 -85h-221l-27 -156h236l-15 -85h-355zM207 635q0 28 23 47.5t52 19.5q23 0 38.5 -14t15.5 -36q0 -28 -22.5 -47.5t-51.5 -19.5q-24 0 -39.5 14t-15.5 36zM385 635q0 28 22.5 47.5t51.5 19.5q24 0 39.5 -14t15.5 -36 q0 -29 -22.5 -48t-52.5 -19q-23 0 -38.5 14t-15.5 36z" />
<glyph horiz-adv-x="475" d="M76 0l96 543h355l-15 -85h-236l-23 -132h220l-15 -85h-221l-27 -156h236l-15 -85h-355zM293 634q0 29 23.5 49t53.5 20q24 0 39.5 -14.5t15.5 -36.5q0 -29 -23 -48.5t-54 -19.5q-24 0 -39.5 14t-15.5 36z" />
<glyph horiz-adv-x="475" d="M76 0l96 543h355l-15 -85h-236l-23 -132h220l-15 -85h-221l-27 -156h236l-15 -85h-355zM219 693h139l90 -111h-95z" />
<glyph horiz-adv-x="475" d="M76 0l96 543h355l-15 -85h-236l-23 -132h220l-15 -85h-221l-27 -156h236l-15 -85h-355zM219 598l13 78h266l-13 -78h-266z" />
<glyph horiz-adv-x="475" d="M76 0l96 543h355l-15 -85h-236l-23 -132h220l-15 -85h-221l-27 -156h236l-15 -85h-1q-139 -65 -139 -136q0 -18 11.5 -28t26.5 -10q32 0 74 20l-12 -70q-48 -24 -109 -24q-46 0 -71 24t-25 62q0 92 137 162h-247z" />
<glyph horiz-adv-x="576" d="M81 201q0 158 86 257t223 99q90 0 147 -48.5t51 -135.5h-122q1 49 -24 74.5t-68 25.5q-80 0 -123.5 -77.5t-43.5 -185.5q0 -141 98 -141q65 0 123 47l14 81h-113l14 80h225l-49 -277h-112l8 47q-29 -27 -74 -44.5t-85 -17.5q-85 0 -130 58t-45 158zM268 693h82 q-3 -18 9 -29t42 -11q55 0 62 40h84q-10 -58 -55 -88t-105 -30t-94.5 30t-24.5 88z" />
<glyph horiz-adv-x="576" d="M81 201q0 158 86 257t223 99q90 0 147 -48.5t51 -135.5h-122q1 49 -24 74.5t-68 25.5q-80 0 -123.5 -77.5t-43.5 -185.5q0 -141 98 -141q65 0 123 47l14 81h-113l14 80h225l-49 -277h-112l8 47q-29 -27 -74 -44.5t-85 -17.5q-85 0 -130 58t-45 158zM216 582l145 111h96 l105 -111h-102l-63 40l-76 -40h-105z" />
<glyph horiz-adv-x="576" d="M81 201q0 158 86 257t223 99q90 0 147 -48.5t51 -135.5h-122q1 49 -24 74.5t-68 25.5q-80 0 -123.5 -77.5t-43.5 -185.5q0 -141 98 -141q65 0 123 47l14 81h-113l14 80h225l-49 -277h-112l8 47q-29 -27 -74 -44.5t-85 -17.5q-85 0 -130 58t-45 158zM175 -248l54 189h114 l-82 -189h-86z" />
<glyph horiz-adv-x="576" d="M81 201q0 158 86 257t223 99q90 0 147 -48.5t51 -135.5h-122q1 49 -24 74.5t-68 25.5q-80 0 -123.5 -77.5t-43.5 -185.5q0 -141 98 -141q65 0 123 47l14 81h-113l14 80h225l-49 -277h-112l8 47q-29 -27 -74 -44.5t-85 -17.5q-85 0 -130 58t-45 158zM332 634q0 29 23.5 49 t53.5 20q24 0 39.5 -14.5t15.5 -36.5q0 -29 -23 -48.5t-54 -19.5q-24 0 -39.5 14t-15.5 36z" />
<glyph horiz-adv-x="627" d="M76 0l68 383h-51l15 85h51l13 75h119l-13 -75h235l13 75h118l-13 -75h50l-15 -85h-50l-68 -383h-118l39 225h-234l-40 -225h-119zM250 310h235l13 73h-235z" />
<glyph horiz-adv-x="627" d="M76 0l96 543h119l-38 -217h234l39 217h118l-96 -543h-118l42 241h-235l-42 -241h-119zM241 582l145 111h96l105 -111h-102l-63 40l-76 -40h-105z" />
<glyph horiz-adv-x="274" d="M76 0l96 543h119l-96 -543h-119zM148 582l121 111h147l-165 -111h-103z" />
<glyph horiz-adv-x="274" d="M76 0l96 543h119l-96 -543h-119zM121 693h82q-3 -18 9 -29t42 -11q55 0 62 40h84q-10 -58 -55 -88t-105 -30t-94.5 30t-24.5 88z" />
<glyph horiz-adv-x="274" d="M69 582l145 111h96l105 -111h-102l-63 40l-76 -40h-105zM76 0l96 543h119l-96 -543h-119z" />
<glyph horiz-adv-x="274" d="M76 0l96 543h119l-96 -543h-119zM107 635q0 28 23 47.5t52 19.5q23 0 38.5 -14t15.5 -36q0 -29 -22.5 -48t-52.5 -19q-23 0 -38.5 14t-15.5 36zM268 635q0 28 23 47.5t52 19.5q23 0 38.5 -14t15.5 -36q0 -29 -22.5 -48t-52.5 -19q-23 0 -38.5 14t-15.5 36z" />
<glyph horiz-adv-x="274" d="M76 0l96 543h119l-96 -543h-119zM107 693h139l90 -111h-95z" />
<glyph horiz-adv-x="274" d="M76 0l96 543h119l-96 -543h-119zM116 598l13 78h257l-13 -78h-257z" />
<glyph horiz-adv-x="274" d="M-49 -162q0 92 137 162h-12l96 543h119l-96 -543q-139 -65 -139 -136q0 -18 11.5 -28t26.5 -10q32 0 74 20l-12 -70q-48 -24 -109 -24q-46 0 -71 24t-25 62z" />
<glyph horiz-adv-x="274" d="M76 0l96 543h119l-96 -543h-119zM87 617q45 81 110 81q24 0 65 -15t55 -15q22 0 42 27l58 -29q-43 -81 -109 -81q-24 0 -66 15t-56 15q-19 0 -41 -27z" />
<glyph horiz-adv-x="497" d="M53 186h124q-14 -117 60 -117q79 0 96 94l67 380h119l-65 -364q-17 -96 -79.5 -145t-152.5 -49q-39 0 -71 10.5t-58 32.5t-37 62.5t-3 95.5zM295 582l145 111h96l105 -111h-102l-63 40l-76 -40h-105z" />
<glyph horiz-adv-x="548" d="M76 0l96 543h119l-44 -250l221 250h126l-235 -257l171 -286h-135l-152 273l-48 -273h-119zM147 -248l54 189h114l-82 -189h-86z" />
<glyph horiz-adv-x="460" d="M83 0l96 543h119l-81 -458h212l-15 -85h-331zM163 582l121 111h147l-165 -111h-103z" />
<glyph horiz-adv-x="460" d="M83 0l96 543h119l-81 -458h212l-15 -85h-331zM358 373l41 229h110l-65 -229h-86z" />
<glyph horiz-adv-x="460" d="M83 0l96 543h119l-81 -458h212l-15 -85h-331zM121 -248l54 189h114l-82 -189h-86z" />
<glyph horiz-adv-x="460" d="M83 0l96 543h119l-81 -458h212l-15 -85h-331zM363 270q0 29 23.5 49t53.5 20q24 0 39.5 -14.5t15.5 -36.5q0 -29 -23 -48.5t-54 -19.5q-24 0 -39.5 14t-15.5 36z" />
<glyph horiz-adv-x="460" d="M42 149l18 100l74 38l45 256h119l-33 -187l114 59l-18 -100l-114 -59l-30 -171h212l-15 -85h-331l33 188z" />
<glyph horiz-adv-x="617" d="M76 0l96 543h113l175 -385l20 123l47 262h107l-96 -543h-113l-176 384l-19 -122l-46 -262h-108zM311 582l121 111h147l-165 -111h-103z" />
<glyph horiz-adv-x="617" d="M76 0l96 543h113l175 -385l20 123l47 262h107l-96 -543h-113l-176 384l-19 -122l-46 -262h-108zM251 693h102l62 -40l77 40h106l-145 -111h-96z" />
<glyph horiz-adv-x="617" d="M76 0l96 543h113l175 -385l20 123l47 262h107l-96 -543h-113l-176 384l-19 -122l-46 -262h-108zM201 -248l54 189h114l-82 -189h-86z" />
<glyph horiz-adv-x="617" d="M76 0l96 543h113l175 -385l20 123l47 262h107l-96 -543h-113l-176 384l-19 -122l-46 -262h-108zM250 617q45 81 110 81q24 0 65 -15t55 -15q22 0 42 27l58 -29q-44 -81 -109 -81q-24 0 -66 15t-56 15q-19 0 -41 -27z" />
<glyph horiz-adv-x="612" d="M82 218q0 147 93 243t228 96q103 0 161.5 -63.5t58.5 -169.5q0 -147 -93 -243t-228 -96q-103 0 -161.5 63.5t-58.5 169.5zM208 219q0 -69 29 -109.5t80 -40.5q80 0 130.5 72t50.5 182q0 69 -29.5 109.5t-80.5 40.5q-80 0 -130 -72t-50 -182zM309 582l121 111h147 l-165 -111h-103z" />
<glyph horiz-adv-x="612" d="M82 218q0 147 93 243t228 96q103 0 161.5 -63.5t58.5 -169.5q0 -147 -93 -243t-228 -96q-103 0 -161.5 63.5t-58.5 169.5zM208 219q0 -69 29 -109.5t80 -40.5q80 0 130.5 72t50.5 182q0 69 -29.5 109.5t-80.5 40.5q-80 0 -130 -72t-50 -182zM287 693h82q-3 -18 9 -29 t42 -11q55 0 62 40h84q-10 -58 -55 -88t-105 -30t-94.5 30t-24.5 88z" />
<glyph horiz-adv-x="612" d="M82 218q0 147 93 243t228 96q103 0 161.5 -63.5t58.5 -169.5q0 -147 -93 -243t-228 -96q-103 0 -161.5 63.5t-58.5 169.5zM208 219q0 -69 29 -109.5t80 -40.5q80 0 130.5 72t50.5 182q0 69 -29.5 109.5t-80.5 40.5q-80 0 -130 -72t-50 -182zM235 582l145 111h96l105 -111 h-102l-63 40l-76 -40h-105z" />
<glyph horiz-adv-x="612" d="M82 218q0 147 93 243t228 96q103 0 161.5 -63.5t58.5 -169.5q0 -147 -93 -243t-228 -96q-103 0 -161.5 63.5t-58.5 169.5zM208 219q0 -69 29 -109.5t80 -40.5q80 0 130.5 72t50.5 182q0 69 -29.5 109.5t-80.5 40.5q-80 0 -130 -72t-50 -182zM265 635q0 28 23 47.5 t52 19.5q23 0 38.5 -14t15.5 -36q0 -28 -22.5 -47.5t-51.5 -19.5q-24 0 -39.5 14t-15.5 36zM443 635q0 28 22.5 47.5t51.5 19.5q24 0 39.5 -14t15.5 -36q0 -29 -22.5 -48t-52.5 -19q-23 0 -38.5 14t-15.5 36z" />
<glyph horiz-adv-x="612" d="M82 218q0 147 93 243t228 96q103 0 161.5 -63.5t58.5 -169.5q0 -147 -93 -243t-228 -96q-103 0 -161.5 63.5t-58.5 169.5zM208 219q0 -69 29 -109.5t80 -40.5q80 0 130.5 72t50.5 182q0 69 -29.5 109.5t-80.5 40.5q-80 0 -130 -72t-50 -182zM277 693h139l90 -111h-95z " />
<glyph horiz-adv-x="612" d="M82 218q0 147 93 243t228 96q103 0 161.5 -63.5t58.5 -169.5q0 -147 -93 -243t-228 -96q-103 0 -161.5 63.5t-58.5 169.5zM208 219q0 -69 29 -109.5t80 -40.5q80 0 130.5 72t50.5 182q0 69 -29.5 109.5t-80.5 40.5q-80 0 -130 -72t-50 -182zM241 582l105 111h134 l-145 -111h-94zM414 582l105 111h135l-145 -111h-95z" />
<glyph horiz-adv-x="612" d="M82 218q0 147 93 243t228 96q103 0 161.5 -63.5t58.5 -169.5q0 -147 -93 -243t-228 -96q-103 0 -161.5 63.5t-58.5 169.5zM208 219q0 -69 29 -109.5t80 -40.5q80 0 130.5 72t50.5 182q0 69 -29.5 109.5t-80.5 40.5q-80 0 -130 -72t-50 -182zM277 598l13 78h266l-13 -78 h-266z" />
<glyph horiz-adv-x="612" d="M82 218q0 147 93 243t228 96q103 0 161.5 -63.5t58.5 -169.5q0 -147 -93 -243t-228 -96q-103 0 -161.5 63.5t-58.5 169.5zM208 219q0 -69 29 -109.5t80 -40.5q80 0 130.5 72t50.5 182q0 69 -29.5 109.5t-80.5 40.5q-80 0 -130 -72t-50 -182zM252 617q45 81 110 81 q24 0 65 -15t55 -15q22 0 42 27l58 -29q-44 -81 -109 -81q-24 0 -66 15t-56 15q-19 0 -41 -27z" />
<glyph horiz-adv-x="524" d="M76 0l96 543h191q79 0 129.5 -39t50.5 -111q0 -71 -40 -118t-106 -67l111 -208h-129l-92 194h-58l-34 -194h-119zM244 275h72q47 0 77 26.5t30 84.5q0 74 -75 74h-72zM245 582l121 111h147l-165 -111h-103z" />
<glyph horiz-adv-x="524" d="M76 0l96 543h191q79 0 129.5 -39t50.5 -111q0 -71 -40 -118t-106 -67l111 -208h-129l-92 194h-58l-34 -194h-119zM198 693h102l62 -40l77 40h106l-145 -111h-96zM244 275h72q47 0 77 26.5t30 84.5q0 74 -75 74h-72z" />
<glyph horiz-adv-x="524" d="M76 0l96 543h191q79 0 129.5 -39t50.5 -111q0 -71 -40 -118t-106 -67l111 -208h-129l-92 194h-58l-34 -194h-119zM145 -248l54 189h114l-82 -189h-86zM244 275h72q47 0 77 26.5t30 84.5q0 74 -75 74h-72z" />
<glyph horiz-adv-x="519" d="M71 163h120q-4 -49 23 -73t70 -24q46 0 79.5 22.5t33.5 64.5q0 35 -28 51t-82 27q-36 7 -62 15.5t-53.5 24t-42 41.5t-14.5 61q0 84 67.5 134t169.5 50q97 0 149 -44.5t44 -126.5h-120q4 44 -21 66.5t-67 22.5q-45 0 -75.5 -20.5t-30.5 -59.5q0 -18 8 -30.5t25.5 -21 t33 -12.5t42.5 -10q36 -8 62.5 -16.5t54 -24.5t42.5 -42t15 -60q0 -86 -72.5 -139.5t-172.5 -53.5t-155 46t-43 132zM257 582l121 111h147l-165 -111h-103z" />
<glyph horiz-adv-x="519" d="M71 163h120q-4 -49 23 -73t70 -24q46 0 79.5 22.5t33.5 64.5q0 35 -28 51t-82 27q-36 7 -62 15.5t-53.5 24t-42 41.5t-14.5 61q0 84 67.5 134t169.5 50q97 0 149 -44.5t44 -126.5h-120q4 44 -21 66.5t-67 22.5q-45 0 -75.5 -20.5t-30.5 -59.5q0 -18 8 -30.5t25.5 -21 t33 -12.5t42.5 -10q36 -8 62.5 -16.5t54 -24.5t42.5 -42t15 -60q0 -86 -72.5 -139.5t-172.5 -53.5t-155 46t-43 132zM204 693h102l62 -40l77 40h106l-145 -111h-96z" />
<glyph horiz-adv-x="519" d="M71 163h120q-4 -49 23 -73t70 -24q46 0 79.5 22.5t33.5 64.5q0 35 -28 51t-82 27q-36 7 -62 15.5t-53.5 24t-42 41.5t-14.5 61q0 84 67.5 134t169.5 50q97 0 149 -44.5t44 -126.5h-120q4 44 -21 66.5t-67 22.5q-45 0 -75.5 -20.5t-30.5 -59.5q0 -18 8 -30.5t25.5 -21 t33 -12.5t42.5 -10q36 -8 62.5 -16.5t54 -24.5t42.5 -42t15 -60q0 -86 -72.5 -139.5t-172.5 -53.5t-155 46t-43 132zM142 -248l54 189h114l-82 -189h-86z" />
<glyph horiz-adv-x="519" d="M71 163h120q-4 -49 23 -73t70 -24q46 0 79.5 22.5t33.5 64.5q0 35 -28 51t-82 27q-36 7 -62 15.5t-53.5 24t-42 41.5t-14.5 61q0 84 67.5 134t169.5 50q97 0 149 -44.5t44 -126.5h-120q4 44 -21 66.5t-67 22.5q-45 0 -75.5 -20.5t-30.5 -59.5q0 -18 8 -30.5t25.5 -21 t33 -12.5t42.5 -10q36 -8 62.5 -16.5t54 -24.5t42.5 -42t15 -60q0 -86 -72.5 -139.5t-172.5 -53.5t-155 46t-43 132zM185 582l145 111h96l105 -111h-102l-63 40l-76 -40h-105z" />
<glyph horiz-adv-x="519" d="M71 163h120q-4 -49 23 -73t70 -24q46 0 79.5 22.5t33.5 64.5q0 35 -28 51t-82 27q-36 7 -62 15.5t-53.5 24t-42 41.5t-14.5 61q0 84 67.5 134t169.5 50q97 0 149 -44.5t44 -126.5h-120q4 44 -21 66.5t-67 22.5q-45 0 -75.5 -20.5t-30.5 -59.5q0 -18 8 -30.5t25.5 -21 t33 -12.5t42.5 -10q36 -8 62.5 -16.5t54 -24.5t42.5 -42t15 -60q0 -81 -64.5 -133.5t-157.5 -58.5l-47 -50q42 2 70.5 -16t28.5 -55q0 -53 -44.5 -83t-105.5 -30q-42 0 -69 14l10 59q26 -13 62 -13q21 0 38.5 10.5t17.5 30.5q0 15 -13 22.5t-30 7.5q-20 0 -40 -6l-16 39 l67 72q-79 11 -119.5 55.5t-30.5 119.5z" />
<glyph horiz-adv-x="452" d="M108 458l15 85h406l-15 -85h-144l-26 -146h97l-15 -85h-97l-40 -227h-118l40 227h-92l15 85h91l26 146h-143z" />
<glyph horiz-adv-x="452" d="M108 458l15 85h406l-15 -85h-144l-81 -458h-118l80 458h-143zM181 693h102l62 -40l77 40h106l-145 -111h-96z" />
<glyph horiz-adv-x="452" d="M94 -234l10 59q26 -13 62 -13q21 0 38.5 10.5t17.5 30.5q0 15 -13 22.5t-30 7.5q-21 0 -40 -6l-16 39l78 84h-30l80 458h-143l15 85h406l-15 -85h-144l-81 -458h-15l-60 -64q42 2 70.5 -16t28.5 -55q0 -53 -44.5 -83t-105.5 -30q-42 0 -69 14z" />
<glyph horiz-adv-x="452" d="M108 458l15 85h406l-15 -85h-144l-81 -458h-118l80 458h-143zM111 -248l54 189h114l-82 -189h-86z" />
<glyph horiz-adv-x="616" d="M113 190l62 353h119l-60 -338q-23 -136 91 -136q59 0 93.5 33t44.5 88l63 353h107l-59 -338q-18 -103 -91 -161.5t-174 -58.5q-108 0 -161 53t-35 152zM311 582l121 111h147l-165 -111h-103z" />
<glyph horiz-adv-x="616" d="M113 190l62 353h119l-60 -338q-23 -136 91 -136q59 0 93.5 33t44.5 88l63 353h107l-59 -338q-18 -103 -91 -161.5t-174 -58.5q-108 0 -161 53t-35 152zM290 693h82q-3 -18 9 -29t42 -11q55 0 62 40h84q-10 -58 -55 -88t-105 -30t-94.5 30t-24.5 88z" />
<glyph horiz-adv-x="616" d="M113 190l62 353h119l-60 -338q-23 -136 91 -136q59 0 93.5 33t44.5 88l63 353h107l-59 -338q-18 -103 -91 -161.5t-174 -58.5q-108 0 -161 53t-35 152zM238 582l145 111h96l105 -111h-102l-63 40l-76 -40h-105z" />
<glyph horiz-adv-x="616" d="M113 190l62 353h119l-60 -338q-23 -136 91 -136q59 0 93.5 33t44.5 88l63 353h107l-59 -338q-18 -103 -91 -161.5t-174 -58.5q-108 0 -161 53t-35 152zM268 635q0 28 23 47.5t52 19.5q23 0 38.5 -14t15.5 -36q0 -28 -22.5 -47.5t-51.5 -19.5q-24 0 -39.5 14t-15.5 36z M446 635q0 28 22.5 47.5t51.5 19.5q24 0 39.5 -14t15.5 -36q0 -29 -22.5 -48t-52.5 -19q-23 0 -38.5 14t-15.5 36z" />
<glyph horiz-adv-x="616" d="M113 190l62 353h119l-60 -338q-23 -136 91 -136q59 0 93.5 33t44.5 88l63 353h107l-59 -338q-18 -103 -91 -161.5t-174 -58.5q-108 0 -161 53t-35 152zM281 693h139l90 -111h-95z" />
<glyph horiz-adv-x="616" d="M113 190l62 353h119l-60 -338q-23 -136 91 -136q59 0 93.5 33t44.5 88l63 353h107l-59 -338q-18 -103 -91 -161.5t-174 -58.5q-108 0 -161 53t-35 152zM244 582l105 111h134l-145 -111h-94zM417 582l105 111h135l-145 -111h-95z" />
<glyph horiz-adv-x="616" d="M113 190l62 353h119l-60 -338q-23 -136 91 -136q59 0 93.5 33t44.5 88l63 353h107l-59 -338q-18 -103 -91 -161.5t-174 -58.5q-108 0 -161 53t-35 152zM280 598l13 78h266l-13 -78h-266z" />
<glyph horiz-adv-x="616" d="M113 190l62 353h119l-60 -338q-23 -136 91 -136q59 0 93.5 33t44.5 88l63 353h107l-59 -338q-15 -81 -63.5 -135t-119.5 -74q-131 -63 -131 -132q0 -18 11.5 -28t26.5 -10q32 0 74 20l-12 -70q-48 -24 -109 -24q-46 0 -71 24t-25 62q0 83 113 149q-89 10 -130 62t-25 141 z" />
<glyph horiz-adv-x="616" d="M113 190l62 353h119l-60 -338q-23 -136 91 -136q59 0 93.5 33t44.5 88l63 353h107l-59 -338q-18 -103 -91 -161.5t-174 -58.5q-108 0 -161 53t-35 152zM319 627q0 40 33 64.5t81 24.5q40 0 64 -18t24 -49q0 -39 -33 -63.5t-81 -24.5q-40 0 -64 18t-24 48zM399 623 q14 -14 32 -1q22 8 10 32q-14 14 -32 1q-21 -10 -10 -32z" />
<glyph horiz-adv-x="616" d="M113 190l62 353h119l-60 -338q-23 -136 91 -136q59 0 93.5 33t44.5 88l63 353h107l-59 -338q-18 -103 -91 -161.5t-174 -58.5q-108 0 -161 53t-35 152zM256 617q45 81 110 81q24 0 65 -15t55 -15q22 0 42 27l58 -29q-44 -81 -109 -81q-24 0 -66 15t-56 15q-19 0 -41 -27z " />
<glyph horiz-adv-x="765" d="M103 543h122l24 -259l10 -127l54 127l117 259h107l31 -259l13 -128l53 128l108 259h115l-248 -543h-107l-32 257l-12 130l-53 -130l-118 -257h-114zM398 582l121 111h147l-165 -111h-103z" />
<glyph horiz-adv-x="765" d="M103 543h122l24 -259l10 -127l54 127l117 259h107l31 -259l13 -128l53 128l108 259h115l-248 -543h-107l-32 257l-12 130l-53 -130l-118 -257h-114zM319 582l145 111h96l105 -111h-102l-63 40l-76 -40h-105z" />
<glyph horiz-adv-x="765" d="M103 543h122l24 -259l10 -127l54 127l117 259h107l31 -259l13 -128l53 128l108 259h115l-248 -543h-107l-32 257l-12 130l-53 -130l-118 -257h-114zM350 635q0 28 23 47.5t52 19.5q23 0 38.5 -14t15.5 -36q0 -28 -22.5 -47.5t-51.5 -19.5q-24 0 -39.5 14t-15.5 36z M528 635q0 28 22.5 47.5t51.5 19.5q24 0 39.5 -14t15.5 -36q0 -29 -22.5 -48t-52.5 -19q-23 0 -38.5 14t-15.5 36z" />
<glyph horiz-adv-x="765" d="M103 543h122l24 -259l10 -127l54 127l117 259h107l31 -259l13 -128l53 128l108 259h115l-248 -543h-107l-32 257l-12 130l-53 -130l-118 -257h-114zM352 693h139l90 -111h-95z" />
<glyph horiz-adv-x="515" d="M122 543h125l76 -244l158 244h112l-234 -344l-35 -199h-119l36 208zM275 582l121 111h147l-165 -111h-103z" />
<glyph horiz-adv-x="515" d="M122 543h125l76 -244l158 244h112l-234 -344l-35 -199h-119l36 208zM196 582l145 111h96l105 -111h-102l-63 40l-76 -40h-105z" />
<glyph horiz-adv-x="515" d="M122 543h125l76 -244l158 244h112l-234 -344l-35 -199h-119l36 208zM226 635q0 28 23 47.5t52 19.5q23 0 38.5 -14t15.5 -36q0 -28 -22.5 -47.5t-51.5 -19.5q-24 0 -39.5 14t-15.5 36zM404 635q0 28 22.5 47.5t51.5 19.5q24 0 39.5 -14t15.5 -36q0 -29 -22.5 -48 t-52.5 -19q-23 0 -38.5 14t-15.5 36z" />
<glyph horiz-adv-x="515" d="M122 543h125l76 -244l158 244h112l-234 -344l-35 -199h-119l36 208zM225 693h139l90 -111h-95z" />
<glyph horiz-adv-x="437" d="M35 0l16 85l310 373h-240l15 85h368l-15 -85l-310 -373h244l-15 -85h-373zM227 582l121 111h147l-165 -111h-103z" />
<glyph horiz-adv-x="437" d="M35 0l16 85l310 373h-240l15 85h368l-15 -85l-310 -373h244l-15 -85h-373zM176 693h102l62 -40l77 40h106l-145 -111h-96z" />
<glyph horiz-adv-x="437" d="M35 0l16 85l310 373h-240l15 85h368l-15 -85l-310 -373h244l-15 -85h-373zM271 634q0 29 23.5 49t53.5 20q24 0 39.5 -14.5t15.5 -36.5q0 -29 -23 -48.5t-54 -19.5q-24 0 -39.5 14t-15.5 36z" />
<glyph horiz-adv-x="782" d="M1 0l469 543h364l-15 -84h-236l-24 -133h220l-15 -85h-220l-27 -156h236l-15 -85h-355l23 129h-168l-106 -129h-131zM307 214h114l32 183l-78 -100zM479 582l121 111h147l-165 -111h-103z" />
<glyph horiz-adv-x="621" d="M83 439l14 81h85l13 73q15 82 67.5 124t130.5 42q54 0 85 -17l-13 -74q-40 9 -59 9q-77 0 -91 -84l-12 -73h329l-102 -577q-15 -83 -68 -124.5t-137 -41.5q-46 0 -78 17l13 74q34 -9 62 -9q32 0 56 21t31 63l88 496h-209l-77 -439h-121l78 439h-85zM522 652q0 35 26 60.5 t61 25.5q29 0 45.5 -18t16.5 -46q0 -35 -26.5 -60.5t-61.5 -25.5q-28 0 -44.5 18t-16.5 46z" />
<glyph horiz-adv-x="677" d="M83 439l14 81h85l13 73q15 82 67.5 124t130.5 42q59 0 89 -17l-12 -74q-40 9 -64 9q-77 0 -91 -84l-13 -73h208l25 140h121l-25 -140h112l-14 -81h-112l-77 -439h-121l77 439h-208l-77 -439h-121l78 439h-85z" />
<glyph horiz-adv-x="955" d="M83 439l14 81h85l13 73q15 82 67.5 124t130.5 42q59 0 89 -17l-12 -74q-40 9 -64 9q-77 0 -91 -84l-13 -73h214l12 73q15 82 68 124t131 42q54 0 84 -17l-12 -74q-40 9 -59 9q-77 0 -91 -84l-13 -73h329l-102 -577q-15 -83 -68 -124.5t-137 -41.5q-44 0 -78 17l13 74 q34 -9 62 -9q32 0 56 21t32 63l87 496h-208l-78 -439h-120l77 439h-213l-77 -439h-121l78 439h-85zM855 652q0 35 26.5 60.5t61.5 25.5q29 0 45 -18t16 -46q0 -35 -26 -60.5t-61 -25.5q-29 0 -45.5 18t-16.5 46z" />
<glyph horiz-adv-x="1010" d="M83 439l14 81h85l13 73q15 82 67.5 124t130.5 42q59 0 89 -17l-12 -74q-40 9 -64 9q-77 0 -91 -84l-12 -73h213l12 73q15 82 68 124t131 42q58 0 89 -17l-13 -74q-40 9 -63 9q-77 0 -91 -84l-13 -73h208l25 140h120l-25 -140h112l-14 -81h-112l-77 -439h-120l77 439h-208 l-78 -439h-120l77 439h-213l-77 -439h-121l78 439h-85z" />
<glyph horiz-adv-x="713" d="M83 439l14 81h110l25 140h120l-25 -140h220l25 140h120l-25 -140h112l-14 -81h-112l-77 -439h-120l77 439h-220l-77 -439h-120l77 439h-110z" />
<glyph horiz-adv-x="345" d="M115 552q0 87 48 140.5t116 53.5q43 0 70 -35l4 26h90l-51 -297h-90l8 45l-3 -15q-47 -39 -94 -39q-45 0 -71.5 32t-26.5 89zM208 561q0 -63 46 -63q31 0 63 27l22 128q-20 25 -52 25q-35 0 -57 -29.5t-22 -87.5z" />
<glyph horiz-adv-x="345" d="M109 440l74 424h90l-27 -156q47 38 93 38q45 0 71.5 -32t26.5 -88q0 -87 -47.5 -141t-115.5 -54q-45 0 -71 34l-4 -25h-90zM214 523q20 -25 51 -25q36 0 58 31t22 88q0 61 -47 61q-31 0 -62 -26z" />
<glyph horiz-adv-x="325" d="M116 558q0 82 52 135t132 53q56 0 90.5 -30t30.5 -81h-90q-1 49 -42 49q-36 0 -58.5 -34t-22.5 -92q0 -65 47 -65q38 0 58 46h91q-15 -49 -60 -78.5t-100 -29.5q-62 0 -95 34.5t-33 92.5z" />
<glyph horiz-adv-x="345" d="M115 552q0 87 48 140.5t116 53.5q43 0 70 -35l-10 -58q-20 25 -52 25q-35 0 -57 -29.5t-22 -87.5q0 -63 46 -63q31 0 63 27l59 339h90l-74 -424h-90l11 62l-6 -32q-47 -39 -94 -39q-45 0 -71.5 32t-26.5 89z" />
<glyph horiz-adv-x="327" d="M116 559q0 81 53.5 134t127.5 53q71 0 103 -43.5t12 -130.5h-205v-16q0 -63 48 -63q37 0 53 33h91q-13 -42 -58 -68.5t-97 -26.5q-62 0 -95 34.5t-33 93.5zM217 625h112q10 60 -43 60q-50 0 -69 -60z" />
<glyph horiz-adv-x="237" d="M126 672l11 65h51l6 30q19 106 130 106q38 0 57 -10l-10 -60q-20 5 -38 5q-41 0 -49 -41l-5 -30h80l-11 -65h-81l-40 -232h-90l40 232h-51z" />
<glyph horiz-adv-x="345" d="M94 413h90q-2 -20 10 -29t38 -9q58 0 68 59l7 39q-47 -38 -93 -38q-45 0 -72 31.5t-27 87.5q0 87 47.5 139.5t116.5 52.5q43 0 70 -34l4 25h90l-51 -294q-11 -63 -61 -96.5t-110 -33.5q-65 0 -99.5 25.5t-27.5 74.5zM208 563q0 -61 47 -61q32 0 61 26l22 126 q-21 24 -51 24q-36 0 -57.5 -28.5t-21.5 -86.5z" />
<glyph horiz-adv-x="358" d="M109 440l74 424h90l-29 -164q56 46 111 46q43 0 69 -23.5t17 -74.5l-36 -208h-90l31 180q5 29 -5 41.5t-36 12.5q-34 0 -70 -29l3 20l-39 -225h-90z" />
<glyph horiz-adv-x="152" d="M113 440l52 297h90l-52 -297h-90zM172 817q0 24 18.5 41t44.5 17q19 0 31.5 -12t12.5 -31q0 -24 -18.5 -41t-43.5 -17q-20 0 -32.5 12t-12.5 31z" />
<glyph horiz-adv-x="152" d="M92 321l73 416h90l-73 -416h-90zM172 817q0 24 18.5 41t44.5 17q19 0 31.5 -12t12.5 -31q0 -24 -18.5 -41t-43.5 -17q-20 0 -32.5 12t-12.5 31z" />
<glyph horiz-adv-x="313" d="M109 440l74 424h90l-45 -259l117 132h96l-129 -139l89 -158h-98l-78 149l-26 -149h-90z" />
<glyph horiz-adv-x="152" d="M109 440l74 424h90l-74 -424h-90z" />
<glyph horiz-adv-x="556" d="M109 440l51 297h91l-6 -36q55 45 108 45q66 0 82 -48q61 48 120 48q42 0 67.5 -23.5t16.5 -74.5l-36 -208h-91l31 180q10 54 -38 54q-35 0 -68 -29l-36 -205h-90l31 180q9 54 -39 54q-34 0 -68 -29l2 9l-38 -214h-90z" />
<glyph horiz-adv-x="358" d="M109 440l51 297h91l-6 -36q55 45 110 45q43 0 69 -23.5t17 -74.5l-36 -208h-90l31 180q5 29 -5 41.5t-36 12.5q-34 0 -70 -29l2 9l-38 -214h-90z" />
<glyph horiz-adv-x="345" d="M116 561q0 80 53.5 132.5t134.5 52.5q62 0 97.5 -35t35.5 -94q0 -81 -53.5 -133.5t-134.5 -52.5q-62 0 -97.5 35.5t-35.5 94.5zM208 559q0 -66 52 -66q40 0 62.5 34.5t22.5 90.5q0 66 -51 66q-40 0 -63 -33.5t-23 -91.5z" />
<glyph horiz-adv-x="345" d="M88 321l72 416h91l-5 -29q47 38 93 38q45 0 71.5 -32t26.5 -88q0 -87 -47.5 -141t-115.5 -54q-46 0 -71 35l-25 -145h-90zM214 523q18 -25 51 -25q36 0 58 31t22 88q0 61 -47 61q-31 0 -62 -26z" />
<glyph horiz-adv-x="345" d="M115 552q0 87 48 140.5t116 53.5q43 0 70 -34l4 25h90l-72 -416h-90l26 149q-47 -39 -94 -39q-45 0 -71.5 32t-26.5 89zM208 561q0 -63 46 -63q29 0 62 26l23 130q-21 24 -52 24q-35 0 -57 -29.5t-22 -87.5z" />
<glyph horiz-adv-x="252" d="M109 440l51 297h91l-12 -69l4 21q46 57 93 57q23 0 35 -14l-13 -75q-20 9 -42 9q-49 0 -83 -36l-33 -190h-91z" />
<glyph horiz-adv-x="307" d="M109 530h90q-2 -18 10 -29t37 -11q23 0 38.5 9.5t15.5 26.5q0 14 -14 20.5t-47 11.5q-24 4 -39.5 8t-33.5 12.5t-27 24t-9 36.5q0 52 42.5 79.5t107.5 27.5q59 0 91.5 -24.5t27.5 -65.5h-90q1 15 -9.5 23t-31.5 8q-22 0 -36 -8.5t-14 -23.5q0 -13 12.5 -18.5t45.5 -10.5 q20 -4 31.5 -6.5t29 -8.5t26.5 -13.5t16.5 -21t7.5 -31.5q0 -52 -44.5 -83t-108.5 -31q-62 0 -96.5 27t-28.5 72z" />
<glyph horiz-adv-x="242" d="M126 672l11 65h52l14 79h90l-14 -79h74l-11 -65h-74l-23 -129q-5 -25 1 -36t24 -11q14 0 46 8l-11 -59q-37 -14 -73 -14q-97 0 -79 100l25 141h-52z" />
<glyph horiz-adv-x="354" d="M124 528l36 209h91l-31 -181q-5 -29 3.5 -41.5t34.5 -12.5q37 0 69 29l36 206h90l-52 -297h-90l6 34q-59 -44 -108 -44q-42 0 -68 23.5t-17 74.5z" />
<glyph horiz-adv-x="332" d="M137 737h93l19 -110l13 -94l46 94l56 110h89l-166 -297h-82z" />
<glyph horiz-adv-x="507" d="M137 737h90l15 -108l8 -92l43 92l52 108h76l16 -108l12 -92l41 92l50 108h89l-158 -297h-79l-14 106l-10 92l-44 -92l-51 -106h-80z" />
<glyph horiz-adv-x="334" d="M86 440l136 152l-81 145h95l42 -84l71 84h93l-125 -139l87 -158h-93l-50 96l-82 -96h-93z" />
<glyph horiz-adv-x="332" d="M134 321l70 122l-67 294h93l19 -110l13 -94l46 94l56 110h89l-232 -416h-87z" />
<glyph horiz-adv-x="278" d="M93 440l11 64l175 168h-139l11 65h241l-11 -65l-175 -168h145l-11 -64h-247z" />
<glyph horiz-adv-x="345" d="M16 -8q0 87 48 140.5t116 53.5q43 0 70 -35l4 26h90l-51 -297h-90l8 45l-3 -15q-47 -39 -94 -39q-45 0 -71.5 32t-26.5 89zM109 1q0 -63 46 -63q31 0 63 27l22 128q-20 25 -52 25q-35 0 -57 -29.5t-22 -87.5z" />
<glyph horiz-adv-x="345" d="M10 -120l74 424h90l-27 -156q47 38 93 38q45 0 71.5 -32t26.5 -88q0 -87 -47.5 -141t-115.5 -54q-45 0 -71 34l-4 -25h-90zM115 -37q20 -25 51 -25q36 0 58 31t22 88q0 61 -47 61q-31 0 -62 -26z" />
<glyph horiz-adv-x="325" d="M17 -2q0 82 52 135t132 53q56 0 90.5 -30t30.5 -81h-90q-1 49 -42 49q-36 0 -58.5 -34t-22.5 -92q0 -65 47 -65q38 0 58 46h91q-15 -49 -60 -78.5t-100 -29.5q-62 0 -95 34.5t-33 92.5z" />
<glyph horiz-adv-x="345" d="M16 -8q0 87 48 140.5t116 53.5q43 0 70 -35l-10 -58q-20 25 -52 25q-35 0 -57 -29.5t-22 -87.5q0 -63 46 -63q31 0 63 27l59 339h90l-74 -424h-90l11 62l-6 -32q-47 -39 -94 -39q-45 0 -71.5 32t-26.5 89z" />
<glyph horiz-adv-x="327" d="M17 -1q0 81 53.5 134t127.5 53q71 0 103 -43.5t12 -130.5h-205v-16q0 -63 48 -63q36 0 53 33h91q-13 -42 -58 -68.5t-97 -26.5q-62 0 -95 34.5t-33 93.5zM118 65h112q10 60 -43 60q-50 0 -69 -60z" />
<glyph horiz-adv-x="237" d="M27 112l11 65h51l6 30q19 106 130 106q38 0 57 -10l-10 -60q-20 5 -38 5q-41 0 -49 -41l-5 -30h80l-11 -65h-81l-40 -232h-90l40 232h-51z" />
<glyph horiz-adv-x="345" d="M-4 -147h90q-2 -20 10 -29t38 -9q58 0 68 59l7 39q-47 -38 -93 -38q-45 0 -72 31.5t-27 87.5q0 87 47.5 139.5t116.5 52.5q43 0 70 -34l4 25h90l-51 -294q-11 -63 -61 -96.5t-110 -33.5q-65 0 -99.5 25.5t-27.5 74.5zM110 3q0 -61 47 -61q32 0 61 26l22 126 q-21 24 -51 24q-36 0 -57.5 -28.5t-21.5 -86.5z" />
<glyph horiz-adv-x="358" d="M10 -120l74 424h90l-29 -164q56 46 111 46q43 0 69 -23.5t17 -74.5l-36 -208h-90l31 180q5 29 -5 41.5t-36 12.5q-34 0 -70 -29l3 20l-39 -225h-90z" />
<glyph horiz-adv-x="152" d="M14 -120l52 297h90l-52 -297h-90zM73 257q0 24 18.5 41t44.5 17q19 0 31.5 -12t12.5 -31q0 -24 -18.5 -41t-43.5 -17q-20 0 -32.5 12t-12.5 31z" />
<glyph horiz-adv-x="152" d="M-6 -239l73 416h90l-73 -416h-90zM74 257q0 24 18.5 41t44.5 17q19 0 31.5 -12t12.5 -31q0 -24 -18.5 -41t-43.5 -17q-20 0 -32.5 12t-12.5 31z" />
<glyph horiz-adv-x="313" d="M10 -120l74 424h90l-45 -259l117 132h96l-129 -139l89 -158h-98l-78 149l-26 -149h-90z" />
<glyph horiz-adv-x="152" d="M10 -120l74 424h90l-74 -424h-90z" />
<glyph horiz-adv-x="556" d="M10 -120l51 297h91l-6 -36q55 45 108 45q66 0 82 -48q61 48 120 48q42 0 67.5 -23.5t16.5 -74.5l-36 -208h-91l31 180q10 54 -38 54q-35 0 -68 -29l-36 -205h-90l31 180q9 54 -39 54q-34 0 -68 -29l2 9l-38 -214h-90z" />
<glyph horiz-adv-x="358" d="M10 -120l51 297h91l-6 -36q55 45 110 45q43 0 69 -23.5t17 -74.5l-36 -208h-90l31 180q5 29 -5 41.5t-36 12.5q-34 0 -70 -29l2 9l-38 -214h-90z" />
<glyph horiz-adv-x="345" d="M17 1q0 80 53.5 132.5t134.5 52.5q62 0 97.5 -35t35.5 -94q0 -81 -53.5 -133.5t-134.5 -52.5q-62 0 -97.5 35.5t-35.5 94.5zM109 -1q0 -66 52 -66q40 0 62.5 34.5t22.5 90.5q0 66 -51 66q-40 0 -63 -33.5t-23 -91.5z" />
<glyph horiz-adv-x="345" d="M-10 -239l72 416h91l-5 -29q47 38 93 38q45 0 71.5 -32t26.5 -88q0 -87 -47.5 -141t-115.5 -54q-46 0 -71 35l-25 -145h-90zM116 -37q18 -25 51 -25q36 0 58 31t22 88q0 61 -47 61q-31 0 -62 -26z" />
<glyph horiz-adv-x="345" d="M17 -8q0 87 48 140.5t116 53.5q43 0 70 -34l4 25h90l-72 -416h-90l26 149q-47 -39 -94 -39q-45 0 -71.5 32t-26.5 89zM110 1q0 -63 46 -63q29 0 62 26l23 130q-21 24 -52 24q-35 0 -57 -29.5t-22 -87.5z" />
<glyph horiz-adv-x="252" d="M10 -120l51 297h91l-12 -69l4 21q46 57 93 57q23 0 35 -14l-13 -75q-20 9 -42 9q-49 0 -83 -36l-33 -190h-91z" />
<glyph horiz-adv-x="307" d="M10 -30h90q-2 -18 10 -29t37 -11q23 0 38.5 9.5t15.5 26.5q0 14 -14 20.5t-47 11.5q-24 4 -39.5 8t-33.5 12.5t-27 24t-9 36.5q0 52 42.5 79.5t107.5 27.5q59 0 91.5 -24.5t27.5 -65.5h-90q1 15 -9.5 23t-31.5 8q-22 0 -36 -8.5t-14 -23.5q0 -13 12.5 -18.5t45.5 -10.5 q20 -4 31.5 -6.5t29 -8.5t26.5 -13.5t16.5 -21t7.5 -31.5q0 -52 -44.5 -83t-108.5 -31q-62 0 -96.5 27t-28.5 72z" />
<glyph horiz-adv-x="242" d="M27 112l11 65h52l14 79h90l-14 -79h74l-11 -65h-74l-23 -129q-5 -25 1 -36t24 -11q14 0 46 8l-11 -59q-37 -14 -73 -14q-97 0 -79 100l25 141h-52z" />
<glyph horiz-adv-x="354" d="M25 -32l36 209h91l-31 -181q-5 -29 3.5 -41.5t34.5 -12.5q37 0 69 29l36 206h90l-52 -297h-90l6 34q-59 -44 -108 -44q-42 0 -68 23.5t-17 74.5z" />
<glyph horiz-adv-x="332" d="M39 177h93l19 -110l13 -94l46 94l56 110h89l-166 -297h-82z" />
<glyph horiz-adv-x="507" d="M39 177h90l15 -108l8 -92l43 92l52 108h76l16 -108l12 -92l41 92l50 108h89l-158 -297h-79l-14 106l-10 92l-44 -92l-51 -106h-80z" />
<glyph horiz-adv-x="334" d="M-13 -120l136 152l-81 145h95l42 -84l71 84h93l-125 -139l87 -158h-93l-50 96l-82 -96h-93z" />
<glyph horiz-adv-x="332" d="M36 -239l70 122l-67 294h93l19 -110l13 -94l46 94l56 110h89l-232 -416h-87z" />
<glyph horiz-adv-x="278" d="M-5 -120l11 64l175 168h-139l11 65h241l-11 -65l-175 -168h145l-11 -64h-247z" />
<glyph d="M76 211h131q-6 -71 26.5 -102t88.5 -31q64 0 107 32t43 93q0 21 -9.5 37t-20 25.5t-35 18.5t-38.5 12.5t-46 10.5q-40 9 -69.5 20.5t-60 31.5t-47 51.5t-16.5 73.5q0 93 67 154.5t172 73.5l19 108h115l-20 -111q82 -15 123.5 -69t31.5 -142h-131q6 65 -24 94.5t-84 29.5 q-63 0 -101.5 -29t-38.5 -86q0 -21 9 -36.5t19 -24.5t35 -18.5t37 -12.5t46 -11q41 -9 70.5 -20t61 -30.5t48.5 -50.5t17 -73q0 -94 -71.5 -160t-174.5 -81l-19 -109h-115l20 110q-88 15 -133 70.5t-33 150.5z" />
<glyph d="M109 197q0 129 62.5 219.5t168.5 112.5l21 114h114l-20 -114q68 -14 104 -63t30 -124h-122q3 61 -17.5 87.5t-64.5 26.5q-67 0 -109.5 -74.5t-42.5 -184.5q0 -132 86 -132q84 0 117 108h122q-21 -72 -73.5 -120t-124.5 -62l-19 -111h-115l20 111q-137 30 -137 206z" />
<glyph d="M35 0l17 95h81l35 198h-81l17 95h81l20 115q17 99 87 155.5t169 56.5q102 0 155.5 -52.5t41.5 -153.5h-131q4 53 -19 78.5t-63 25.5q-41 0 -72 -22.5t-40 -73.5l-23 -129h205l-17 -95h-204l-35 -198h304l-17 -95h-511z" />
<glyph d="M88 89l16 94h169l19 110h-168l17 95h144l-138 312h129l106 -265l195 265h123l-242 -312h146l-17 -95h-169l-19 -110h169l-16 -94h-169l-16 -89h-126l16 89h-169z" />
<glyph d="M-26 -45h116q-5 -85 55 -85q30 0 53.5 22t31.5 70l41 233h-158l17 95h158l39 222q18 100 73 151.5t141 51.5q164 0 147 -161h-116q1 37 -9 52.5t-36 15.5q-28 0 -44.5 -21t-25.5 -71l-43 -240h158l-17 -95h-158l-38 -215q-17 -98 -78.5 -150.5t-148.5 -52.5 q-85 0 -126.5 45t-31.5 133z" />
<glyph d="M70 195l17 95h51q3 53 14 109h-46l17 95h58q41 103 112 162t162 59q104 0 154.5 -63t39.5 -190h-134q5 85 -11 121.5t-66 36.5q-41 0 -76.5 -33t-60.5 -93h135l-17 -95h-146q-10 -57 -13 -109h140l-17 -95h-123q9 -115 84 -115q50 0 79 36.5t52 121.5h135 q-69 -253 -284 -253q-172 0 -188 210h-68z" />
<glyph d="M31 0l123 700h170q94 0 139.5 -43.5t45.5 -140.5q0 -58 -17.5 -128t-58.5 -186h-87q55 174 63 227q5 30 5 57q0 128 -114 128h-69l-108 -614h-92zM178 0l88 497h93l-73 -411h61q43 0 75 16.5t53 46t36 80t24 106.5t17 138q10 99 12 227h86q2 -21 2 -108 q0 -169 -22.5 -287t-65.5 -183.5t-97 -93.5t-125 -28h-164z" />
<glyph d="M18 -120l90 241q-21 57 -21 135q0 158 65 274.5t171 161.5l48 128h122l-40 -105q30 -1 65 -10l43 115h122l-68 -180q49 -64 40 -178h-139q10 154 -95 154q-79 0 -142 -99.5t-63 -261.5q0 -82 29.5 -126.5t81.5 -44.5q105 0 149 154h139q-29 -107 -92.5 -169t-150.5 -78 l-42 -111h-122l42 111q-30 7 -59 24l-51 -135h-122z" />
<glyph d="M30 0l91 516h107l-9 -49q29 30 62 47t58 17q35 0 57 -18t26 -53q20 20 42 37l94 139h121l-79 -117q45 -29 31 -112l-72 -407h-107l67 381q2 16 2 21l-138 -205l-35 -197h-98l-74 -110h-121l74 110h-99zM140 16l140 208l28 157q10 56 -29 56q-32 0 -72 -40z" />
<glyph d="M57 202l17 94h55l19 110h-55l17 94h55l35 200h117l136 -487l25 158l57 329h111l-35 -200h55l-16 -94h-56l-19 -110h56l-17 -94h-56l-35 -202h-117l-136 487l-25 -158l-58 -329h-110l35 202h-55z" />
<glyph d="M125 438l17 95h292q-15 72 -103 72h-177l17 95h80h416l-16 -95h-124q30 -32 39 -72h72l-16 -95h-59q-21 -86 -92.5 -133.5t-166.5 -55.5l218 -249h-150l-212 248l17 92h107q52 0 90.5 24t53.5 74h-303z" />
<glyph d="M44 202l17 94h78l5 110h-64l17 94h51l9 200h106l-31 -365l-20 -171l49 171l115 365h109l-14 -365l-11 -173l40 173l93 365h96l-59 -200h50l-17 -94h-61l-32 -110h74l-17 -94h-85l-59 -202h-109l10 344l12 174l-51 -174l-111 -344h-108l9 202h-91z" />
<glyph d="M47 0l16 88h512l-16 -88h-512zM104 304q0 122 72 192t167 70q87 0 120 -58l15 89h-112l15 86h112l11 61h117l-11 -61h69l-15 -86h-69l-78 -448h-117l9 50q-68 -65 -156 -65q-66 0 -107.5 44.5t-41.5 125.5zM227 321q0 -48 22.5 -73.5t58.5 -25.5q56 0 112 44l30 172 q-37 40 -92 40q-52 0 -91.5 -41.5t-39.5 -115.5z" />
<glyph d="M77 320l16 95h76l50 285h127l-50 -285h8l241 285h126l-247 -285h195l-16 -95h-188l154 -320h-139l-147 320h-4l-56 -320h-127l56 320h-75z" />
<glyph d="M132 104l19 106l132 50l13 74l-132 -50l19 106l132 50l29 165h-184l16 95h493l-16 -95h-183l-20 -114l132 50l-18 -106l-133 -50l-13 -75l132 50l-19 -106l-132 -50l-36 -204h-126l27 154z" />
<glyph d="M91 0l74 420h-74l16 95h74l33 185h174q90 0 149 -47.5t61 -137.5h66l-16 -95h-63q-27 -88 -104.5 -135.5t-173.5 -47.5h-48l-42 -237h-126zM276 335h48q95 0 130 85h-163zM308 515h159q-3 43 -28.5 65.5t-67.5 22.5h-47z" />
<glyph d="M76 139q0 99 91 161h-83l17 95h272q66 29 101.5 62t35.5 83q0 82 -96 82q-118 0 -146 -113h-131q25 100 100 153t194 53q98 0 153 -41.5t55 -112.5q0 -102 -95 -166h95l-17 -95h-286q-64 -28 -98.5 -60t-34.5 -80q0 -40 25 -61t72 -21q123 0 151 113h132 q-25 -99 -102.5 -152.5t-197.5 -53.5q-97 0 -152 41.5t-55 112.5z" />
<glyph d="M87 256q0 177 81 301t207 151l20 112h115l-19 -109q85 -15 129 -77.5t35 -171.5h-139q10 154 -95 154q-79 0 -142 -99.5t-63 -261.5q0 -82 29.5 -126.5t81.5 -44.5q105 0 149 154h139q-30 -109 -96 -171.5t-156 -77.5l-19 -109h-115l20 112q-80 18 -121 87.5t-41 176.5z " />
<glyph d="M62 0l123 700h162l21 120h115l-22 -122q173 -19 173 -148q0 -61 -39.5 -113t-99.5 -69q53 -11 82.5 -44t29.5 -86q0 -108 -77 -169.5t-192 -67.5l-21 -121h-115l21 120h-161zM205 93h124q71 0 110 35.5t39 96.5q0 83 -111 83h-125zM258 399h102q63 0 103 33.5t40 94.5 q0 80 -105 80h-102z" />
<glyph d="M40 135l95 80q-20 43 -20 99q0 119 71 203l-59 72l75 66l62 -76q66 37 144 37q73 0 122 -35l93 78l64 -74l-95 -81q20 -43 20 -98q0 -121 -72 -204l60 -72l-76 -65l-61 74q-67 -35 -144 -35q-74 0 -122 34l-92 -78zM239 310q0 -60 24 -93t69 -33q66 0 110.5 62t44.5 164 q0 60 -23.5 93t-68.5 33q-66 0 -111 -62.5t-45 -163.5z" />
<glyph d="M45 0l81 186h-61l17 100h87l58 135h-70l17 100h97l77 179h112l-77 -179h106l77 179h112l-77 -179h61l-17 -100h-88l-58 -135h72l-18 -100h-97l-81 -186h-112l81 186h-106l-81 -186h-112zM281 286h106l58 135h-106z" />
<glyph horiz-adv-x="519" d="M71 163h120q-4 -48 22 -72.5t71 -24.5q46 0 79.5 22.5t33.5 64.5q0 33 -28.5 49.5t-81.5 27.5q-37 7 -62 15t-53 23.5t-42.5 41t-14.5 61.5q0 74 54 123t139 60l14 82h108l-15 -84q70 -13 103.5 -55t26.5 -111h-120q4 44 -19.5 66.5t-68.5 22.5q-44 0 -75 -21t-31 -59 q0 -23 17 -38t36.5 -21.5t55.5 -13.5t62 -15.5t54 -24t43 -41.5t15 -61q0 -75 -57 -126.5t-141 -64.5l-14 -82h-108l15 83q-74 12 -111 56t-27 117z" />
<glyph horiz-adv-x="471" d="M81 155q0 98 48.5 168.5t133.5 88.5l15 85h108l-15 -84q55 -12 83 -50t23 -96h-109q1 42 -13 59t-50 17q-52 0 -82.5 -49t-30.5 -137q0 -97 65 -97q34 0 54 16t32 57h109q-17 -56 -57 -93t-98 -49l-15 -84h-108l15 84q-108 30 -108 164z" />
<glyph horiz-adv-x="490" d="M29 0l15 85h61l24 136h-61l15 85h61l14 79q14 78 74.5 125t143.5 47t127.5 -41.5t35.5 -120.5h-120q6 80 -58 80q-68 0 -83 -79l-16 -90h158l-15 -85h-157l-24 -136h236l-15 -85h-416z" />
<glyph horiz-adv-x="515" d="M81 67l16 85h134l13 73h-135l15 85h100l-102 233h125l84 -208l150 208h112l-177 -233h97l-15 -85h-135l-13 -73h135l-15 -85h-135l-11 -67h-119l12 67h-136z" />
<glyph horiz-adv-x="562" d="M-29 -24h120q-4 -69 49 -69q64 0 79 79l28 160h-116l15 85h116l27 154q14 78 75 125t142 47q78 0 119 -40t33 -111h-119q3 69 -50 69q-65 0 -79 -79l-29 -165h118l-15 -85h-118l-26 -149q-14 -78 -74.5 -125t-138.5 -47q-80 0 -122 38.5t-34 112.5z" />
<glyph horiz-adv-x="576" d="M51 150l14 81h55q1 35 8 73h-50l14 80h61q35 81 101 127t155 46q90 0 141.5 -51t43.5 -148h-122q2 61 -17 88t-61 27q-75 0 -118 -89h126l-13 -80h-140q-7 -38 -8 -73h134l-13 -81h-117q15 -81 79 -81q83 0 117 115h122q-26 -97 -95.5 -148t-159.5 -51q-79 0 -126 43.5 t-59 121.5h-72z" />
<glyph horiz-adv-x="687" d="M85 0l96 543h196q88 0 130.5 -36.5t42.5 -116.5q0 -79 -58 -233h-94q51 142 51 206q0 48 -22 71t-72 23h-91l-80 -457h-99zM232 0l68 385h98l-52 -299h74q85 0 123 68t44 208q7 52 9 181h94q1 -13 1 -92q0 -239 -67.5 -345t-211.5 -106h-180z" />
<glyph horiz-adv-x="562" d="M1 -93l98 202q-17 46 -17 104q0 125 63 216t166 118l43 89h112l-39 -81q30 -6 44 -11l44 92h112l-72 -150q38 -50 32 -128h-122q3 59 -22 87t-69 28q-80 0 -123.5 -77t-43.5 -184q0 -66 24.5 -104.5t71.5 -38.5q45 0 79.5 29t51.5 86h122q-24 -89 -91.5 -140.5 t-152.5 -57.5l-38 -79h-112l44 92q-19 7 -39 20l-54 -112h-112z" />
<glyph horiz-adv-x="784" d="M75 0l72 404h109l-9 -52q76 65 148 65q83 0 99 -67q20 16 49 33l87 110h111l-61 -78q99 -14 76 -140l-48 -275h-110l46 256q12 64 -33 73l-138 -174l-27 -155h-96l-67 -85h-111l193 243l17 98q7 39 -5 56.5t-45 17.5q-50 0 -96 -42l-51 -288h-110z" />
<glyph horiz-adv-x="605" d="M44 150l14 81h72l13 73h-72l14 80h72l28 159h112l143 -375l20 123l45 252h107l-28 -159h71l-14 -80h-71l-13 -73h71l-14 -81h-71l-27 -150h-113l-143 374l-19 -122l-45 -252h-107l27 150h-72z" />
<glyph horiz-adv-x="483" d="M89 327l14 80h236q-13 56 -88 56h-139l15 80h71h339l-14 -80h-88q19 -23 25 -56h53l-14 -80h-44q-16 -65 -69 -101.5t-128 -46.5l167 -179h-144l-158 175l14 80h77q92 0 119 72h-244z" />
<glyph horiz-adv-x="784" d="M41 150l14 81h105l-7 73h-85l14 80h62l-16 159h125l15 -264l2 -128l53 128l118 264h107l27 -264l11 -129l47 129l102 264h113l-69 -159h58l-14 -80h-78l-31 -73h96l-14 -81h-117l-65 -150h-107l-29 263l-11 129l-54 -129l-116 -263h-113l-15 150h-128z" />
<glyph horiz-adv-x="470" d="M45 0l15 80h404l-14 -80h-405zM91 244q0 88 56.5 141.5t127.5 53.5q66 0 95 -46l13 72h-89l12 70h89l8 42h100l-7 -42h48l-12 -70h-49l-60 -341h-101l7 40q-53 -51 -123 -51q-50 0 -82.5 34.5t-32.5 96.5zM199 254q0 -64 54 -64q47 0 87 34l19 106q-29 32 -72 32 q-36 0 -62 -27.5t-26 -80.5z" />
<glyph horiz-adv-x="517" d="M56 245l14 80h68l39 218h118l-35 -199l179 199h121l-201 -218h175l-14 -80h-168l144 -245h-135l-123 223l-39 -223h-118l43 245h-68z" />
<glyph horiz-adv-x="452" d="M84 62l16 92l104 36l10 56l-105 -37l16 91l105 37l21 121h-143l15 85h406l-15 -85h-144l-14 -77l105 37l-16 -92l-105 -36l-10 -56l106 37l-16 -91l-106 -37l-25 -143h-118l17 99z" />
<glyph horiz-adv-x="524" d="M65 320l15 85h68l24 138h171q74 0 123.5 -35.5t55.5 -102.5h63l-15 -85h-58q-23 -68 -88 -105t-145 -37h-52l-32 -178h-119l57 320h-68zM241 261h52q74 0 99 59h-141zM266 405h135q-11 55 -73 55h-52z" />
<glyph horiz-adv-x="549" d="M86 230l14 80h225q54 21 82 44t28 59q0 30 -19.5 46t-53.5 16q-83 0 -105 -79h-120q20 77 82 119t158 42q78 0 125 -33t47 -89q0 -78 -64 -125h70l-15 -80h-234q-51 -20 -77.5 -42.5t-26.5 -57.5q0 -31 19.5 -47.5t53.5 -16.5q88 0 109 80h120q-19 -76 -83.5 -118.5 t-160.5 -42.5q-79 0 -126 33t-47 90q0 75 61 122h-62z" />
<glyph horiz-adv-x="562" d="M82 213q0 132 69 225t180 114l15 84h108l-15 -84q72 -13 113 -62.5t35 -131.5h-122q3 59 -22 87t-69 28q-80 0 -123.5 -77t-43.5 -184q0 -66 24.5 -104.5t71.5 -38.5q45 0 79.5 29t51.5 86h122q-21 -81 -80 -130.5t-135 -63.5l-15 -83h-108l15 84q-73 16 -112 74.5 t-39 147.5z" />
<glyph horiz-adv-x="546" d="M76 0l96 543h132l16 93h108l-17 -95q147 -12 147 -120q0 -47 -30.5 -84.5t-78.5 -51.5q41 -8 65 -35.5t24 -69.5q0 -84 -62 -129.5t-159 -50.5l-17 -93h-108l16 93h-132zM210 81h100q109 0 109 91q0 62 -82 62h-100zM251 314h82q104 0 104 89q0 59 -78 59h-82z" />
<glyph horiz-adv-x="560" d="M61 111l77 63q-15 32 -15 73q0 79 48 140l-51 60l83 69l54 -62q49 23 107 23q56 0 97 -25l78 64l59 -69l-77 -64q14 -33 14 -72q0 -79 -48 -141l51 -59l-83 -70l-54 63q-49 -23 -107 -23q-54 0 -96 24l-78 -64zM234 248q0 -45 20 -69.5t54 -24.5q52 0 84.5 41.5 t32.5 114.5q0 45 -20.5 69.5t-53.5 24.5q-52 0 -84.5 -41.5t-32.5 -114.5z" />
<glyph d="M66 142l14 81h90l45 102h-76l13 80h98l61 138h105l-61 -138h103l61 138h105l-61 -138h67l-13 -80h-89l-45 -102h75l-14 -81h-97l-63 -142h-105l63 142h-103l-63 -142h-105l63 142h-68zM275 223h103l45 102h-103z" />
<glyph horiz-adv-x="625" d="M87 259q0 196 96.5 326t247.5 130q104 0 159.5 -73t55.5 -201q0 -196 -96.5 -326t-247.5 -130q-104 0 -159.5 73t-55.5 201zM206 259q0 -31 5 -63l262 405q-23 19 -58 19q-90 0 -149.5 -100t-59.5 -261zM260 99q25 -19 59 -19q89 0 148.5 99.5t59.5 260.5q0 31 -5 63z " />
<glyph horiz-adv-x="569" d="M78 213q0 159 82.5 265.5t217.5 106.5q97 0 146 -61.5t49 -165.5q0 -159 -82.5 -266t-218.5 -107q-96 0 -145 61.5t-49 166.5zM201 202q0 -135 87 -135q73 0 117.5 82.5t44.5 219.5q0 135 -87 135q-73 0 -117.5 -82.5t-44.5 -219.5z" />
<glyph horiz-adv-x="581" d="M93 213q0 159 82.5 265.5t217.5 106.5q97 0 146.5 -61.5t49.5 -165.5q0 -159 -83 -266t-219 -107q-96 0 -145 61.5t-49 166.5zM207 210q0 -25 3 -46l215 328q-20 12 -47 12q-82 0 -126.5 -80t-44.5 -214zM256 79q20 -12 47 -12q82 0 127 80.5t45 213.5q0 27 -3 46z" />
<glyph horiz-adv-x="395" d="M84 368l19 112l179 90h123l-101 -570h-123l81 456z" />
<glyph horiz-adv-x="539" d="M48 0l17 96q210 125 285 188.5t75 137.5q0 75 -77 75q-45 0 -80 -31t-50 -94h-122q21 103 92 158t176 55q89 0 137 -39t48 -111q0 -89 -65.5 -159t-238.5 -180h259l-17 -96h-439z" />
<glyph horiz-adv-x="571" d="M42 58h127q-11 -119 109 -119q64 0 103.5 38t39.5 109q0 96 -129 96h-75l15 88h75q75 0 115 40t40 102q0 85 -89 85q-112 0 -144 -118h-123q25 97 102.5 151.5t182.5 54.5q90 0 143 -42.5t53 -119.5q0 -62 -42 -116t-107 -74q55 -12 82 -50.5t27 -88.5q0 -105 -84.5 -174 t-200.5 -69q-117 0 -174.5 54t-45.5 153z" />
<glyph horiz-adv-x="569" d="M30 0l17 96l280 474h128l-283 -474h166l31 175h113l-31 -175h98l-17 -96h-98l-23 -134h-114l24 134h-291z" />
<glyph horiz-adv-x="552" d="M45 51h127q-5 -58 22.5 -85t73.5 -27q63 0 103 52.5t40 146.5q0 109 -93 109q-69 0 -124 -63h-108l69 386h416l-17 -96h-308l-36 -203q30 31 74.5 49.5t87.5 18.5q76 0 120.5 -47.5t44.5 -138.5q0 -137 -84 -219.5t-201 -82.5q-107 0 -162.5 52.5t-44.5 147.5z" />
<glyph horiz-adv-x="575" d="M80 243q0 235 96 375.5t255 140.5q95 0 148.5 -50.5t44.5 -146.5h-122q3 56 -23.5 83.5t-63.5 27.5q-74 0 -129 -81t-73 -223q36 36 92 60.5t106 24.5q78 0 123 -47t45 -134q0 -129 -87.5 -208.5t-204.5 -79.5q-102 0 -154.5 67t-52.5 191zM205 239q0 -82 25.5 -124 t72.5 -42q66 0 106 48.5t40 132.5q0 108 -92 108q-36 0 -79.5 -19t-71.5 -46q-1 -19 -1 -58z" />
<glyph horiz-adv-x="477" d="M58 -134l351 608h-308l17 96h425l-17 -96l-346 -608h-122z" />
<glyph horiz-adv-x="601" d="M68 169q0 72 47.5 135.5t126.5 87.5q-43 17 -68 53.5t-25 84.5q0 102 81 165.5t199 63.5q93 0 150.5 -46.5t57.5 -126.5q0 -69 -42 -120t-110 -74q51 -17 79 -61.5t28 -98.5q0 -113 -86.5 -180t-213.5 -67q-101 0 -162.5 48.5t-61.5 135.5zM193 179q0 -50 30.5 -78 t83.5 -28q71 0 116 41t45 112q0 48 -29.5 80t-84.5 32q-74 0 -117.5 -47.5t-43.5 -111.5zM273 531q0 -44 25 -71t73 -27q65 0 103 41.5t38 102.5q0 46 -27 70t-72 24q-60 0 -100 -36.5t-40 -103.5z" />
<glyph horiz-adv-x="592" d="M50 43h123q-3 -57 26.5 -81.5t66.5 -24.5q75 0 127 69t69 203q-35 -35 -91.5 -58.5t-106.5 -23.5q-79 0 -123.5 45t-44.5 131q0 129 86.5 205.5t203.5 76.5q101 0 154.5 -65.5t53.5 -187.5q0 -229 -94 -355t-250 -126q-96 0 -152 48.5t-48 143.5zM225 325q0 -48 23 -77 t70 -29q36 0 79 19t71 46q1 16 1 50q0 163 -99 163q-67 0 -106 -44.5t-39 -127.5z" />
<glyph d="M95 255q0 197 90 328.5t241 131.5q101 0 151.5 -72t50.5 -198q0 -197 -90 -328.5t-241 -131.5q-100 0 -151 72t-51 198zM225 247q0 -79 23.5 -121t66.5 -42q80 0 131.5 102t51.5 267q0 163 -89 163q-80 0 -132 -102t-52 -267z" />
<glyph d="M95 255q0 197 90 328.5t241 131.5q101 0 151.5 -72t50.5 -198q0 -197 -90 -328.5t-241 -131.5q-100 0 -151 72t-51 198zM211 247q0 -16 2 -40l255 393q-25 20 -59 20q-89 0 -143.5 -106.5t-54.5 -266.5zM256 99q23 -19 59 -19q89 0 143.5 106.5t54.5 266.5q0 15 -2 41z " />
<glyph d="M81 0l17 95h167l86 491l-182 -89l20 113l182 90h126l-106 -605h163l-17 -95h-289h-167z" />
<glyph d="M86 0l17 99q211 171 245 200q120 106 145 180q9 27 9 55q0 87 -82 87q-45 0 -82.5 -33t-53.5 -103h-131q25 111 101 170.5t182 59.5q90 0 142.5 -43.5t52.5 -123.5q0 -43 -15.5 -84t-40.5 -78.5t-74.5 -85.5t-100.5 -91.5t-135 -109.5h299l-18 -99h-460z" />
<glyph d="M87 192h131q-5 -57 24 -85t79 -28q60 0 100 38.5t40 95.5q0 97 -130 97h-71l17 95h71q72 0 112.5 39.5t40.5 95.5q0 38 -22.5 59.5t-61.5 21.5q-45 0 -82.5 -29.5t-52.5 -83.5h-132q24 97 102 152t183 55q89 0 142 -43t53 -120q0 -62 -41 -114.5t-106 -73.5 q55 -11 81.5 -49t26.5 -87q0 -105 -84.5 -174t-201.5 -69q-116 0 -173 54t-45 153z" />
<glyph d="M78 126l16 95l281 479h126l-283 -479h166l30 169h117l-30 -169h91l-17 -95h-91l-22 -126h-117l22 126h-289z" />
<glyph d="M95 181h131q-4 -53 22.5 -77.5t69.5 -24.5q63 0 101 52.5t38 139.5q0 104 -85 104q-77 0 -127 -62h-109l68 387h416l-16 -95h-307l-37 -210q29 34 75.5 54t90.5 20q75 0 118 -46.5t43 -135.5q0 -139 -84 -220.5t-201 -81.5q-108 0 -163 50.5t-44 145.5z" />
<glyph d="M100 235q0 210 97.5 345t246.5 135q92 0 143 -46.5t45 -130.5h-132q1 84 -73 84q-64 0 -114 -70t-71 -183q36 37 89 61t102 24q78 0 122.5 -47t44.5 -134q0 -129 -87.5 -208.5t-203.5 -79.5q-97 0 -153 67t-56 183zM230 234q0 -155 95 -155q64 0 104 50t40 126 q0 105 -91 105q-40 0 -79.5 -18.5t-66.5 -48.5q-2 -38 -2 -59z" />
<glyph d="M140 0l371 605h-328l15 95h445l-16 -95l-365 -605h-122z" />
<glyph d="M74 155q0 72 44.5 129.5t124.5 77.5q-43 17 -67.5 51.5t-24.5 80.5q0 102 77.5 161.5t197.5 59.5q94 0 150.5 -43t56.5 -122q0 -67 -40.5 -116t-107.5 -72q52 -14 79.5 -53.5t27.5 -91.5q0 -113 -82.5 -172.5t-212.5 -59.5q-102 0 -162.5 43t-60.5 127zM202 172 q0 -46 30 -69.5t82 -23.5q68 0 110 34.5t42 97.5q0 43 -28.5 69.5t-83.5 26.5q-73 0 -112.5 -38.5t-39.5 -96.5zM276 494q0 -41 24 -65.5t71 -24.5q65 0 100 37t35 94q0 41 -26.5 63.5t-70.5 22.5q-58 0 -95.5 -33.5t-37.5 -93.5z" />
<glyph d="M94 177h131q-5 -99 80 -99q66 0 117.5 75t70.5 195q-36 -38 -88.5 -62.5t-102.5 -24.5q-79 0 -123.5 45.5t-44.5 130.5q0 126 86 202t203 76q101 0 155.5 -66t54.5 -184q0 -136 -42.5 -245t-122 -172t-181.5 -63q-94 0 -148 49.5t-45 142.5zM263 456q0 -101 93 -101 q39 0 78.5 18t66.5 47q1 15 1 46q0 155 -95 155q-64 0 -104 -46t-40 -119z" />
<glyph d="M102 217q0 159 82.5 263.5t218.5 104.5q97 0 146 -62t49 -170q0 -158 -82.5 -263t-218.5 -105q-96 0 -145.5 62.5t-49.5 169.5zM226 202q0 -135 86 -135q71 0 117 83.5t46 218.5t-87 135q-71 0 -116.5 -83.5t-45.5 -218.5z" />
<glyph d="M102 217q0 159 82.5 263.5t218.5 104.5q97 0 146 -62t49 -170q0 -158 -82.5 -263t-218.5 -105q-96 0 -145.5 62.5t-49.5 169.5zM216 210q0 -26 3 -47l216 329q-19 12 -47 12q-82 0 -127 -80.5t-45 -213.5zM266 79q20 -12 46 -12q82 0 127.5 80.5t45.5 213.5q0 25 -3 46z " />
<glyph d="M83 0l15 87h173l65 368l-189 -90l20 115l190 90h122l-86 -483h164l-15 -87h-286h-173z" />
<glyph d="M95 0l17 96q209 125 284 188.5t75 137.5q0 75 -77 75q-44 0 -79 -31.5t-50 -93.5h-123q21 103 92 158t176 55q89 0 137.5 -39t48.5 -111q0 -89 -65.5 -158.5t-239.5 -180.5h259l-17 -96h-438z" />
<glyph d="M57 58h127q-11 -119 109 -119q64 0 103.5 38t39.5 109q0 96 -129 96h-75l15 88h75q75 0 115 40t40 102q0 85 -89 85q-112 0 -144 -118h-123q25 97 102.5 151.5t182.5 54.5q90 0 143 -42.5t53 -119.5q0 -62 -42 -116t-107 -74q55 -12 82 -50.5t27 -88.5q0 -106 -84 -174.5 t-201 -68.5t-174.5 54t-45.5 153z" />
<glyph d="M55 0l17 96l281 474h122l-283 -474h167l31 175h113l-31 -175h98l-17 -96h-98l-23 -134h-114l24 134h-287z" />
<glyph d="M66 51h127q-5 -58 22.5 -85t74.5 -27q63 0 102.5 53t39.5 146q0 109 -93 109q-68 0 -123 -63h-108l68 386h416l-17 -96h-308l-36 -203q30 31 74.5 49.5t87.5 18.5q76 0 120.5 -47.5t44.5 -138.5q0 -138 -83.5 -220t-200.5 -82q-107 0 -162.5 52.5t-45.5 147.5z" />
<glyph d="M96 243q0 235 96 375.5t255 140.5q94 0 147.5 -50.5t45.5 -146.5h-122q3 56 -23.5 83.5t-63.5 27.5q-74 0 -129 -81t-73 -223q35 36 91 60.5t107 24.5q78 0 122.5 -47t44.5 -134q0 -129 -87.5 -208.5t-203.5 -79.5q-102 0 -154.5 67t-52.5 191zM221 239q0 -166 98 -166 q66 0 106 48.5t40 132.5q0 108 -92 108q-37 0 -80 -18.5t-70 -45.5q-2 -38 -2 -59z" />
<glyph d="M134 -134l361 608h-329l17 96h446l-17 -96l-357 -608h-121z" />
<glyph d="M73 169q0 72 47.5 135.5t127.5 87.5q-43 17 -68.5 53.5t-25.5 84.5q0 102 81 165.5t199 63.5q93 0 150.5 -46.5t57.5 -126.5q0 -69 -42 -120t-110 -74q52 -17 80 -61.5t28 -98.5q0 -113 -86.5 -180t-214.5 -67q-101 0 -162.5 48.5t-61.5 135.5zM198 179q0 -50 31 -78 t84 -28q70 0 115.5 41t45.5 112q0 48 -29.5 80t-85.5 32q-73 0 -117 -47.5t-44 -111.5zM278 531q0 -44 25.5 -71t72.5 -27q65 0 103 41.5t38 102.5q0 46 -27 70t-72 24q-60 0 -100 -36.5t-40 -103.5z" />
<glyph d="M58 43h123q-3 -57 26.5 -81.5t66.5 -24.5q75 0 127 69t69 203q-35 -35 -91.5 -58.5t-105.5 -23.5q-79 0 -124 45t-45 131q0 129 86.5 205.5t203.5 76.5q101 0 154.5 -65.5t53.5 -187.5q0 -229 -94 -355t-250 -126q-96 0 -152 48.5t-48 143.5zM233 325q0 -48 23 -77 t70 -29q36 0 79 19t71 46q1 16 1 50q0 163 -99 163q-67 0 -106 -44.5t-39 -127.5z" />
<glyph horiz-adv-x="542" d="M81 210q0 150 81 248.5t206 98.5q89 0 137.5 -60.5t48.5 -164.5q0 -149 -81 -248t-206 -99q-89 0 -137.5 61t-48.5 164zM203 208q0 -66 21.5 -101.5t58.5 -35.5q64 0 106.5 73t42.5 190q0 66 -21.5 101.5t-58.5 35.5q-64 0 -106.5 -73t-42.5 -190z" />
<glyph horiz-adv-x="543" d="M81 210q0 150 80.5 248.5t206.5 98.5q90 0 138 -60t48 -164q0 -151 -80.5 -249.5t-206.5 -98.5q-89 0 -137.5 61t-48.5 164zM193 211q0 -27 3 -48l199 301q-18 12 -42 12q-66 0 -113 -72t-47 -193zM240 79q17 -13 43 -13q66 0 112.5 72t46.5 193q0 27 -3 49z" />
<glyph horiz-adv-x="362" d="M97 372l17 101l145 70h120l-96 -543h-120l78 440z" />
<glyph horiz-adv-x="467" d="M52 0l15 86q180 137 221 174q90 87 93 151q0 29 -16.5 45t-45.5 16q-32 0 -58 -24.5t-38 -71.5h-119q20 85 84 133t147 48q76 0 119.5 -35t43.5 -98q0 -77 -61.5 -150.5t-216.5 -187.5h224l-15 -86h-377z" />
<glyph horiz-adv-x="494" d="M60 148h119q-2 -38 19.5 -58.5t61.5 -20.5q48 0 77 27t29 71q0 31 -25 50.5t-78 19.5h-56l14 81h57q57 0 87.5 28t30.5 68q0 27 -17 42.5t-48 15.5q-35 0 -62.5 -20.5t-39.5 -57.5h-120q19 74 87 118.5t152 44.5q81 0 125.5 -32.5t44.5 -93.5q0 -51 -33.5 -92t-89.5 -57 q47 -8 69 -38t22 -69q0 -83 -67.5 -136.5t-171.5 -53.5q-93 0 -144.5 43.5t-42.5 119.5z" />
<glyph horiz-adv-x="474" d="M45 95l16 86l221 362h120l-223 -362h117l21 121h114l-21 -121h68l-15 -86h-68l-17 -95h-114l17 95h-236z" />
<glyph horiz-adv-x="470" d="M63 140h119q-1 -36 18 -53.5t51 -17.5q45 0 73.5 36t28.5 97q0 79 -67 79q-51 0 -90 -42h-102l54 304h353l-16 -90h-251l-25 -139q23 22 58.5 35.5t69.5 13.5q64 0 101 -38t37 -108q0 -108 -67 -170t-170 -62q-87 0 -135 41t-40 114z" />
<glyph horiz-adv-x="503" d="M78 185q0 163 79 267.5t206 104.5q72 0 117 -38t41 -102h-120q-1 53 -58 53q-45 0 -80.5 -47.5t-52.5 -125.5q67 55 144 55q66 0 104.5 -37t38.5 -106q0 -99 -73.5 -161.5t-170.5 -62.5q-86 0 -130.5 53t-44.5 147zM197 175q0 -106 72 -106q49 0 78.5 35.5t29.5 88.5 q0 82 -74 82q-56 0 -103 -40q-3 -30 -3 -60z" />
<glyph horiz-adv-x="403" d="M83 0l274 457h-242l15 86h354l-15 -86l-271 -457h-115z" />
<glyph horiz-adv-x="509" d="M67 122q0 55 36 99t97 60q-34 12 -53.5 40t-19.5 65q0 78 66.5 124.5t164.5 46.5q79 0 128.5 -34.5t49.5 -96.5q0 -51 -32.5 -89.5t-84.5 -55.5q41 -12 63 -43.5t22 -71.5q0 -86 -70 -133.5t-177 -47.5q-85 0 -137.5 35.5t-52.5 101.5zM189 133q0 -65 83 -65q49 0 80 23 t31 71q0 33 -21.5 52t-60.5 19q-52 0 -82 -28t-30 -72zM246 384q0 -30 18.5 -47.5t52.5 -17.5q44 0 70.5 26t26.5 68q0 30 -20 45.5t-51 15.5q-41 0 -69 -22.5t-28 -67.5z" />
<glyph horiz-adv-x="506" d="M71 138h120q0 -33 17.5 -49.5t44.5 -16.5q49 0 86 52t53 136q-67 -57 -146 -57q-67 0 -105 34.5t-38 101.5q0 99 72.5 158.5t170.5 59.5q86 0 130 -53t44 -147q0 -163 -79 -267.5t-206 -104.5q-74 0 -122 41t-42 112zM222 355q0 -75 75 -75q58 0 103 40q2 30 2 47 q0 105 -72 105q-49 0 -78.5 -33t-29.5 -84z" />
<glyph horiz-adv-x="433" d="M135 606q0 115 67 189t167 74q74 0 116 -47t42 -128q0 -115 -67 -189t-168 -74q-73 0 -115 47.5t-42 127.5zM244 603q0 -46 16.5 -70t45.5 -24q46 0 79 51.5t33 136.5q0 94 -62 94q-47 0 -79.5 -51.5t-32.5 -136.5z" />
<glyph horiz-adv-x="262" d="M141 716l16 91l115 53h105l-74 -420h-105l58 330z" />
<glyph horiz-adv-x="376" d="M115 440l13 79q27 19 64 45t56.5 40.5t44.5 33t38 31t25.5 27.5t17.5 28.5t5 27.5q0 42 -47 42q-54 0 -71 -63h-107q15 67 66 102.5t125 35.5q65 0 102 -28.5t37 -80.5q0 -26 -9.5 -49t-20.5 -39.5t-45.5 -45.5t-57.5 -46t-83 -61h178l-13 -79h-318z" />
<glyph horiz-adv-x="396" d="M123 555h107q-2 -25 12.5 -37t47.5 -12q36 0 56 16.5t20 47.5q0 46 -76 46h-51l13 77h51q84 0 84 63q0 38 -48 38q-53 0 -71 -49h-107q16 59 67 91.5t124 32.5q64 0 102.5 -27t38.5 -75q0 -36 -25.5 -66t-70.5 -42q74 -13 74 -83q0 -64 -58 -104.5t-137 -40.5 q-80 0 -120 32t-33 92z" />
<glyph horiz-adv-x="374" d="M105 505l13 80l177 275h103l-179 -275h88l16 89h98l-16 -89h61l-13 -80h-62l-11 -65h-98l11 65h-188z" />
<glyph horiz-adv-x="371" d="M122 548h107q0 -42 49 -42q37 0 56.5 24t19.5 68q0 53 -50 53q-40 0 -69 -27h-88l42 236h289l-14 -80h-202l-15 -88q41 33 99 33q52 0 83.5 -31t31.5 -87q0 -81 -59 -128.5t-137 -47.5q-75 0 -112 30t-31 87z" />
<glyph horiz-adv-x="387" d="M127 588q0 125 66 203t164 78q67 0 104 -29t33 -79h-107q-6 33 -44 33q-37 0 -62.5 -33t-36.5 -91q46 43 108 43q60 0 92 -29t32 -83q0 -77 -59 -123.5t-137 -46.5q-73 0 -113 41.5t-40 115.5zM236 584q0 -78 57 -78q39 0 58 23.5t19 57.5q0 23 -14 37.5t-42 14.5 q-43 0 -77 -26q-1 -9 -1 -29z" />
<glyph horiz-adv-x="322" d="M126 440l217 340h-190l14 80h291l-14 -80l-214 -340h-104z" />
<glyph horiz-adv-x="398" d="M116 535q0 42 29 76.5t80 46.5q-29 9 -45 30.5t-16 49.5q0 61 53 96t135 35q67 0 107.5 -26.5t40.5 -74.5q0 -40 -26 -69t-69 -41q34 -9 52.5 -33.5t18.5 -55.5q0 -68 -56 -103t-145 -35q-73 0 -116 26.5t-43 77.5zM225 552q0 -46 63 -46q37 0 60 16.5t23 49.5 q0 45 -63 45q-83 0 -83 -65zM268 732q0 -42 53 -42q70 0 70 61q0 43 -52 43q-31 0 -51 -15.5t-20 -46.5z" />
<glyph horiz-adv-x="387" d="M121 546h107q4 -40 45 -40q37 0 63 33t38 91q-46 -43 -108 -43q-60 0 -93 29t-33 83q0 77 59.5 123.5t137.5 46.5q72 0 112 -41.5t40 -115.5q0 -125 -65.5 -203t-163.5 -78q-68 0 -105.5 30.5t-33.5 84.5zM248 713q0 -23 13 -37.5t41 -14.5q42 0 79 27q1 9 1 28 q0 78 -59 78q-39 0 -57 -23.5t-18 -57.5z" />
<glyph horiz-adv-x="365" d="M135 619l14 81h116l19 110h82l-19 -110h116l-14 -81h-117l-19 -110h-82l19 110h-115z" />
<glyph horiz-adv-x="365" d="M135 619l14 81h314l-14 -81h-314z" />
<glyph horiz-adv-x="365" d="M123 550l14 81h314l-14 -81h-314zM147 688l14 81h314l-14 -81h-314z" />
<glyph horiz-adv-x="162" d="M84 333l46 183h98l-59 -183h-85z" />
<glyph horiz-adv-x="176" d="M111 483q0 31 22 52t53 21q24 0 38.5 -15t14.5 -37q0 -31 -21.5 -52t-52.5 -21q-24 0 -39 14.5t-15 37.5z" />
<glyph horiz-adv-x="250" d="M134 597q0 108 55 193.5t133 144.5h97q-76 -60 -125 -153.5t-49 -186.5q0 -65 19.5 -128t53.5 -102h-97q-37 37 -62 98t-25 134z" />
<glyph horiz-adv-x="250" d="M60 365q77 60 125.5 154t48.5 187q0 65 -19.5 127.5t-53.5 101.5h98q36 -37 61 -98t25 -134q0 -108 -55 -194t-132 -144h-98z" />
<glyph horiz-adv-x="433" d="M36 46q0 115 67 189t167 74q74 0 116 -47t42 -128q0 -115 -67 -189t-168 -74q-73 0 -115 47.5t-42 127.5zM145 43q0 -46 16.5 -70t45.5 -24q46 0 79 51.5t33 136.5q0 94 -62 94q-47 0 -79.5 -51.5t-32.5 -136.5z" />
<glyph horiz-adv-x="262" d="M42 156l16 91l115 53h105l-74 -420h-105l58 330z" />
<glyph horiz-adv-x="376" d="M16 -120l13 79q27 19 64 45t56.5 40.5t44.5 33t38 31t25.5 27.5t17.5 28.5t5 27.5q0 42 -47 42q-54 0 -71 -63h-107q15 67 66 102.5t125 35.5q65 0 102 -28.5t37 -80.5q0 -26 -9.5 -49t-20.5 -39.5t-45.5 -45.5t-57.5 -46t-83 -61h178l-13 -79h-318z" />
<glyph horiz-adv-x="396" d="M25 -5h107q-2 -25 12 -37t47 -12q76 0 76 64q0 46 -76 46h-51l14 77h51q39 0 61.5 16t22.5 47q0 38 -49 38q-54 0 -70 -49h-108q16 59 67 91.5t124 32.5q65 0 103.5 -27t38.5 -75q0 -36 -25.5 -66t-70.5 -42q73 -13 73 -83q0 -64 -58 -104.5t-136 -40.5q-81 0 -120.5 32 t-32.5 92z" />
<glyph horiz-adv-x="374" d="M6 -55l13 80l177 275h103l-179 -275h88l16 89h98l-16 -89h61l-13 -80h-62l-11 -65h-98l11 65h-188z" />
<glyph horiz-adv-x="371" d="M23 -12h107q0 -42 49 -42q37 0 56.5 24t19.5 68q0 53 -50 53q-40 0 -69 -27h-88l42 236h289l-14 -80h-202l-15 -88q40 33 99 33q52 0 83.5 -31t31.5 -87q0 -81 -59 -128.5t-137 -47.5q-75 0 -112 30t-31 87z" />
<glyph horiz-adv-x="387" d="M28 28q0 125 66 203t164 78q67 0 104 -29t33 -79h-107q-6 33 -44 33q-37 0 -62.5 -33t-36.5 -91q46 43 108 43q60 0 92 -29t32 -83q0 -77 -59 -123.5t-137 -46.5q-73 0 -113 41.5t-40 115.5zM137 24q0 -78 57 -78q39 0 58 23.5t19 57.5q0 23 -14 37.5t-42 14.5 q-43 0 -77 -26q-1 -9 -1 -29z" />
<glyph horiz-adv-x="322" d="M27 -120l217 340h-190l14 80h291l-14 -80l-214 -340h-104z" />
<glyph horiz-adv-x="398" d="M17 -25q0 42 29 76.5t80 46.5q-29 9 -45 30.5t-16 49.5q0 61 53 96t135 35q67 0 107.5 -26.5t40.5 -74.5q0 -40 -26 -69t-69 -41q34 -9 52.5 -33.5t18.5 -55.5q0 -68 -56 -103t-145 -35q-73 0 -116 26.5t-43 77.5zM126 -8q0 -46 63 -46q37 0 60 16.5t23 49.5q0 45 -63 45 q-83 0 -83 -65zM169 172q0 -42 53 -42q70 0 70 61q0 43 -52 43q-31 0 -51 -15.5t-20 -46.5z" />
<glyph horiz-adv-x="387" d="M22 -14h107q4 -40 45 -40q37 0 63 33t38 91q-46 -43 -108 -43q-60 0 -93 29t-33 83q0 77 59.5 123.5t137.5 46.5q72 0 112 -41.5t40 -115.5q0 -125 -65.5 -203t-163.5 -78q-68 0 -105.5 30.5t-33.5 84.5zM149 153q0 -23 13 -37.5t41 -14.5q42 0 79 27q1 9 1 28 q0 78 -59 78q-39 0 -57 -23.5t-18 -57.5z" />
<glyph horiz-adv-x="365" d="M36 59l14 81h116l19 110h82l-19 -110h116l-14 -81h-117l-19 -110h-82l19 110h-115z" />
<glyph horiz-adv-x="365" d="M24 -10l14 81h314l-14 -81h-314zM48 128l14 81h314l-14 -81h-314z" />
<glyph horiz-adv-x="365" d="M24 -10l14 81h314l-14 -81h-314zM48 128l14 81h314l-14 -81h-314z" />
<glyph horiz-adv-x="162" d="M-15 -227l46 183h98l-59 -183h-85z" />
<glyph horiz-adv-x="183" d="M12 -77q0 31 22 52t53 21q24 0 38.5 -15t14.5 -37q0 -31 -21.5 -52t-52.5 -21q-24 0 -39 14.5t-15 37.5z" />
<glyph horiz-adv-x="250" d="M35 37q0 108 55 193.5t133 144.5h97q-76 -60 -125 -153.5t-49 -186.5q0 -65 19.5 -128t53.5 -102h-97q-37 37 -62 98t-25 134z" />
<glyph horiz-adv-x="250" d="M-38 -195q76 61 125 154.5t49 186.5q0 65 -19.5 127.5t-53.5 101.5h98q36 -37 61 -98t25 -134q0 -108 -55 -194t-132 -144h-98z" />
<glyph horiz-adv-x="433" d="M107 446q0 115 67 189t167 74q74 0 116 -47t42 -128q0 -115 -67 -189t-168 -74q-73 0 -115 47.5t-42 127.5zM216 443q0 -46 16.5 -70t45.5 -24q46 0 79 51.5t33 136.5q0 94 -62 94q-47 0 -79.5 -51.5t-32.5 -136.5z" />
<glyph horiz-adv-x="262" d="M112 556l16 91l115 53h105l-74 -420h-105l58 330z" />
<glyph horiz-adv-x="376" d="M86 280l13 79q27 19 64 45t56.5 40.5t44.5 33t38 31t25.5 27.5t17.5 28.5t5 27.5q0 42 -47 42q-54 0 -71 -63h-107q15 67 66 102.5t125 35.5q65 0 102 -28.5t37 -80.5q0 -26 -9.5 -49t-20.5 -39.5t-45.5 -45.5t-57.5 -46t-83 -61h178l-13 -79h-318z" />
<glyph horiz-adv-x="396" d="M95 395h107q-2 -25 12.5 -37t47.5 -12q36 0 56 16.5t20 47.5q0 46 -76 46h-51l13 77h51q84 0 84 63q0 38 -48 38q-53 0 -71 -49h-107q16 59 67 91.5t124 32.5q64 0 102.5 -27t38.5 -75q0 -36 -25.5 -66t-70.5 -42q74 -13 74 -83q0 -64 -58 -104.5t-137 -40.5 q-80 0 -120 32t-33 92z" />
<glyph horiz-adv-x="374" d="M76 345l13 80l177 275h103l-179 -275h88l16 89h98l-16 -89h61l-13 -80h-62l-11 -65h-98l11 65h-188z" />
<glyph horiz-adv-x="371" d="M94 388h107q0 -42 49 -42q37 0 56.5 24t19.5 68q0 53 -50 53q-40 0 -69 -27h-88l42 236h289l-14 -80h-202l-15 -88q41 33 99 33q52 0 83.5 -31t31.5 -87q0 -81 -59 -128.5t-137 -47.5q-75 0 -112 30t-31 87z" />
<glyph horiz-adv-x="387" d="M99 428q0 125 66 203t164 78q67 0 104 -29t33 -79h-107q-6 33 -44 33q-37 0 -62.5 -33t-36.5 -91q46 43 108 43q60 0 92 -29t32 -83q0 -77 -59 -123.5t-137 -46.5q-73 0 -113 41.5t-40 115.5zM208 424q0 -78 57 -78q39 0 58 23.5t19 57.5q0 23 -14 37.5t-42 14.5 q-43 0 -77 -26q-1 -9 -1 -29z" />
<glyph horiz-adv-x="322" d="M97 280l217 340h-190l14 80h291l-14 -80l-214 -340h-104z" />
<glyph horiz-adv-x="398" d="M88 375q0 42 29 76.5t80 46.5q-29 9 -45 30.5t-16 49.5q0 61 53 96t135 35q67 0 107.5 -26.5t40.5 -74.5q0 -40 -26 -69t-69 -41q34 -9 52.5 -33.5t18.5 -55.5q0 -68 -56 -103t-145 -35q-73 0 -116 26.5t-43 77.5zM197 392q0 -46 63 -46q37 0 60 16.5t23 49.5 q0 45 -63 45q-83 0 -83 -65zM240 572q0 -42 53 -42q70 0 70 61q0 43 -52 43q-31 0 -51 -15.5t-20 -46.5z" />
<glyph horiz-adv-x="387" d="M93 386h107q4 -40 45 -40q37 0 63 33t38 91q-46 -43 -108 -43q-60 0 -93 29t-33 83q0 77 59.5 123.5t137.5 46.5q72 0 112 -41.5t40 -115.5q0 -125 -65.5 -203t-163.5 -78q-68 0 -105.5 30.5t-33.5 84.5zM220 553q0 -23 13 -37.5t41 -14.5q42 0 79 27q1 9 1 28 q0 78 -59 78q-39 0 -57 -23.5t-18 -57.5z" />
<glyph horiz-adv-x="433" d="M57 166q0 115 67 189t167 74q74 0 116 -47t42 -128q0 -115 -67 -189t-168 -74q-73 0 -115 47.5t-42 127.5zM166 163q0 -46 16.5 -70t45.5 -24q46 0 79 51.5t33 136.5q0 94 -62 94q-47 0 -79.5 -51.5t-32.5 -136.5z" />
<glyph horiz-adv-x="262" d="M63 276l16 91l115 53h105l-74 -420h-105l58 330z" />
<glyph horiz-adv-x="376" d="M37 0l13 79q27 19 64 45t56.5 40.5t44.5 33t38 31t25.5 27.5t17.5 28.5t5 27.5q0 42 -47 42q-54 0 -71 -63h-107q15 67 66 102.5t125 35.5q65 0 102 -28.5t37 -80.5q0 -26 -9.5 -49t-20.5 -39.5t-45.5 -45.5t-57.5 -46t-83 -61h178l-13 -79h-318z" />
<glyph horiz-adv-x="396" d="M45 115h107q-2 -25 12.5 -37t47.5 -12q36 0 56 16.5t20 47.5q0 46 -76 46h-51l13 77h51q84 0 84 63q0 38 -48 38q-53 0 -71 -49h-107q16 59 67 91.5t124 32.5q64 0 102.5 -27t38.5 -75q0 -36 -25.5 -66t-70.5 -42q74 -13 74 -83q0 -64 -58 -104.5t-137 -40.5 q-80 0 -120 32t-33 92z" />
<glyph horiz-adv-x="374" d="M27 65l13 80l177 275h103l-179 -275h88l16 89h98l-16 -89h61l-13 -80h-62l-11 -65h-98l11 65h-188z" />
<glyph horiz-adv-x="371" d="M44 108h107q0 -42 49 -42q37 0 56.5 24t19.5 68q0 53 -50 53q-40 0 -69 -27h-88l42 236h289l-14 -80h-202l-15 -88q41 33 99 33q52 0 83.5 -31t31.5 -87q0 -81 -59 -128.5t-137 -47.5q-75 0 -112 30t-31 87z" />
<glyph horiz-adv-x="387" d="M49 148q0 125 66 203t164 78q67 0 104 -29t33 -79h-107q-6 33 -44 33q-37 0 -62.5 -33t-36.5 -91q46 43 108 43q60 0 92 -29t32 -83q0 -77 -59 -123.5t-137 -46.5q-73 0 -113 41.5t-40 115.5zM158 144q0 -78 57 -78q39 0 58 23.5t19 57.5q0 23 -14 37.5t-42 14.5 q-43 0 -77 -26q-1 -9 -1 -29z" />
<glyph horiz-adv-x="322" d="M48 0l217 340h-190l14 80h291l-14 -80l-214 -340h-104z" />
<glyph horiz-adv-x="398" d="M38 95q0 42 29 76.5t80 46.5q-29 9 -45 30.5t-16 49.5q0 61 53 96t135 35q67 0 107.5 -26.5t40.5 -74.5q0 -40 -26 -69t-69 -41q34 -9 52.5 -33.5t18.5 -55.5q0 -68 -56 -103t-145 -35q-73 0 -116 26.5t-43 77.5zM147 112q0 -46 63 -46q37 0 60 16.5t23 49.5q0 45 -63 45 q-83 0 -83 -65zM190 292q0 -42 53 -42q70 0 70 61q0 43 -52 43q-31 0 -51 -15.5t-20 -46.5z" />
<glyph horiz-adv-x="387" d="M43 106h107q4 -40 45 -40q37 0 63 33t38 91q-46 -43 -108 -43q-60 0 -93 29t-33 83q0 77 59.5 123.5t137.5 46.5q72 0 112 -41.5t40 -115.5q0 -125 -65.5 -203t-163.5 -78q-68 0 -105.5 30.5t-33.5 84.5zM170 273q0 -23 13 -37.5t41 -14.5q42 0 79 27q1 9 1 28 q0 78 -59 78q-39 0 -57 -23.5t-18 -57.5z" />
<glyph horiz-adv-x="769" d="M66 108l312 263l-215 264l80 65l213 -263l311 263l65 -76l-313 -264l216 -266l-81 -63l-213 262l-311 -262z" />
<glyph horiz-adv-x="997" d="M86 318l16 95h920l-16 -95h-920z" />
<glyph horiz-adv-x="497" d="M86 318l16 95h420l-16 -95h-420z" />
<glyph horiz-adv-x="298" d="M55 319l16 95h245l-17 -95h-244z" />
<glyph horiz-adv-x="340" d="M96 308l19 111l274 191l-24 -138l-158 -110l119 -108l-24 -137z" />
<glyph horiz-adv-x="340" d="M62 117l24 139l158 109l-119 109l24 136l206 -191l-19 -111z" />
<glyph horiz-adv-x="577" d="M96 308l19 111l274 191l-24 -137l-158 -109l119 -109l-24 -138zM333 308l19 111l274 191l-24 -137l-158 -109l119 -109l-24 -138z" />
<glyph horiz-adv-x="577" d="M63 117l23 137l158 110l-119 108l24 138l206 -191l-19 -111zM300 117l23 137l158 110l-119 108l24 138l206 -191l-19 -111z" />
<glyph horiz-adv-x="515" d="M54 135q0 47 18 85.5t45 61t58.5 45.5t57.5 41.5t42 47t13 62.5h122q2 -42 -9.5 -74t-31 -52.5t-44 -37t-49.5 -31.5t-45.5 -32t-33.5 -42t-13 -58q0 -34 22 -53t61 -19q43 0 75 27t46 81h131q-22 -96 -93.5 -149t-176.5 -53q-91 0 -143 39t-52 111zM296 624q0 39 27 65 t66 26q29 0 47 -18t18 -47q0 -39 -27 -65t-66 -26q-30 0 -47.5 18t-17.5 47z" />
<glyph horiz-adv-x="313" d="M80 0l105 478h95l-63 -478h-137zM182 624q0 39 27 65t66 26q29 0 47.5 -18t18.5 -47q0 -39 -27.5 -65t-66.5 -26q-29 0 -47 18t-18 47z" />
<glyph horiz-adv-x="954" d="M60 263q0 231 158 381.5t409 150.5q161 0 269.5 -95.5t108.5 -250.5q0 -94 -29 -170t-75.5 -121t-98.5 -69t-102 -24q-43 0 -74 18t-39 56q-81 -74 -167 -74q-65 0 -105.5 55.5t-40.5 152.5q0 155 81 250t188 95q70 0 110 -62l-13 -74q-32 43 -84 43q-62 0 -107.5 -65.5 t-45.5 -173.5q0 -61 22.5 -94.5t55.5 -33.5q59 0 109 45v-2l71 399h125l-70 -393q-9 -58 29 -58q58 0 105 86t47 203q0 125 -75 200.5t-214 75.5q-120 0 -219 -52t-159.5 -152.5t-60.5 -230.5q0 -172 93 -256.5t248 -84.5q58 0 132 13t117 29l-14 -80q-46 -17 -121.5 -30 t-142.5 -13q-82 0 -156.5 25.5t-134 74t-95 128t-35.5 178.5z" />
<glyph horiz-adv-x="840" d="M92 241l15 85h741l-15 -85h-741z" />
<glyph horiz-adv-x="437" d="M92 241l15 85h338l-15 -85h-338z" />
<glyph horiz-adv-x="304" d="M92 241l15 85h205l-15 -85h-205z" />
<glyph horiz-adv-x="431" d="M97 398q18 74 78 116.5t144 42.5q75 0 119 -32t44 -89q0 -47 -20 -80.5t-48.5 -52.5t-56 -35.5t-45.5 -38.5t-15 -52h-112q-3 37 9 64t32.5 42t44 29.5t44.5 26t35 33t14 49.5q0 51 -60 51q-69 0 -88 -74h-119zM149 42q0 33 24 56t58 23q27 0 42.5 -16t15.5 -41 q0 -33 -23.5 -56t-58.5 -23q-26 0 -42 16t-16 41z" />
<glyph horiz-adv-x="422" d="M24 106q0 47 20 80.5t48.5 52.5t56 35.5t45.5 38.5t15 52h113q3 -43 -14.5 -73t-44.5 -46.5t-54.5 -31t-47 -37.5t-19.5 -56q0 -51 60 -51q69 0 88 74h119q-17 -74 -77 -116.5t-144 -42.5q-76 0 -120 32t-44 89zM217 478q0 33 24 56t58 23q27 0 42.5 -16t15.5 -41 q0 -34 -23.5 -56.5t-58.5 -22.5q-27 0 -42.5 16t-15.5 41z" />
<glyph horiz-adv-x="284" d="M76 42q0 33 24 56t58 23q27 0 42.5 -16t15.5 -41q0 -33 -24 -56t-58 -23q-27 0 -42.5 16t-15.5 41zM123 177l48 366h124l-82 -366h-90z" />
<glyph horiz-adv-x="262" d="M55 0l82 366h91l-48 -366h-125zM134 479q0 33 24 56t58 23q27 0 42.5 -15.5t15.5 -41.5q0 -34 -23.5 -56.5t-58.5 -22.5q-26 0 -42 16t-16 41z" />
<glyph horiz-adv-x="362" d="M124 411q0 61 45.5 103.5t109.5 42.5q50 0 80.5 -30t30.5 -78q0 -61 -46 -103.5t-110 -42.5q-49 0 -79.5 30t-30.5 78zM212.5 414q1.5 -17 16.5 -26q19 -7 36.5 1t25.5 27q11 13 9.5 30t-16.5 26q-18 7 -36 -1t-26 -27q-11 -13 -9.5 -30z" />
<glyph horiz-adv-x="209" d="M122 331l24 212h109l-50 -212h-83z" />
<glyph horiz-adv-x="357" d="M122 331l24 212h109l-50 -212h-83zM270 331l24 212h109l-50 -212h-83z" />
<glyph horiz-adv-x="255" d="M105 439l121 264h127l-146 -264h-102z" />
<glyph horiz-adv-x="436" d="M105 439l121 264h127l-146 -264h-102zM286 439l121 264h128l-146 -264h-103z" />
<glyph horiz-adv-x="255" d="M105 439l146 264h102l-121 -264h-127z" />
<glyph horiz-adv-x="436" d="M105 439l146 264h102l-121 -264h-127zM286 439l146 264h103l-122 -264h-127z" />
<glyph horiz-adv-x="473" d="M88 238l15 87h147l24 141h88l-24 -141h147l-16 -87h-147l-24 -141h-88l24 141h-146z" />
<glyph horiz-adv-x="466" d="M88 238l15 87h375l-15 -87h-375z" />
<glyph horiz-adv-x="463" d="M70 146l15 87h375l-15 -87h-375zM103 331l15 87h375l-15 -87h-375z" />
<glyph horiz-adv-x="333" d="M100 199q0 141 69 253t166 187h109q-96 -79 -157 -200.5t-61 -243.5q0 -83 23 -163t65 -129h-109q-45 47 -75 125t-30 171z" />
<glyph horiz-adv-x="332" d="M-22 -97q95 79 156.5 200.5t61.5 243.5q0 83 -23 163t-65 129h110q43 -47 73 -125t30 -170q0 -141 -68.5 -252.5t-164.5 -188.5h-110z" />
<glyph horiz-adv-x="322" d="M102 -97l130 736h190l-13 -75h-72l-104 -586h72l-13 -75h-190z" />
<glyph horiz-adv-x="322" d="M2 -97l12 75h72l103 586h-71l14 75h190l-130 -736h-190z" />
<glyph horiz-adv-x="334" d="M93 233l13 77q81 0 91 61l23 129q12 68 63 103.5t130 35.5h22l-13 -75h-15q-30 0 -46.5 -18t-20.5 -44l-22 -123q-7 -40 -33 -70t-59 -38q30 -8 45 -38.5t8 -70.5l-21 -122q-5 -25 5 -43.5t40 -18.5h15l-12 -75h-22q-79 0 -118 35.5t-27 103.5l23 130q5 31 -11.5 46 t-57.5 15z" />
<glyph horiz-adv-x="339" d="M3 -97l12 75h15q54 0 67 62l21 122q7 40 34 70.5t60 38.5q-31 8 -46.5 38t-8.5 70l22 123q10 62 -46 62h-15l13 75h21q79 0 118 -35.5t27 -103.5l-23 -129q-5 -32 11.5 -46.5t58.5 -14.5l-14 -77q-81 0 -90 -61l-24 -130q-12 -68 -63 -103.5t-129 -35.5h-21z" />
<glyph horiz-adv-x="407" d="M17 -31l358 605h124l-358 -605h-124z" />
<glyph horiz-adv-x="421" d="M130 574h111l146 -605h-111z" />
<glyph horiz-adv-x="586" d="M59 122q0 55 33.5 100t90.5 73q-37 50 -37 92q0 69 61 119.5t148 50.5q79 0 127 -41t41 -115h-120q5 73 -62 73q-33 0 -55 -19t-22 -54q0 -40 37 -81l121 -139q25 49 35 109h113q-17 -96 -87 -179l96 -111h-142l-34 39q-82 -54 -171 -54q-78 0 -125.5 36.5t-47.5 100.5z M172 144q0 -36 25.5 -55.5t61.5 -19.5q49 0 93 29l-124 143q-56 -38 -56 -97z" />
<glyph horiz-adv-x="887" d="M105 369l437 371l59 -71l-294 -251h613l-17 -99h-619l208 -251l-81 -70z" />
<glyph horiz-adv-x="887" d="M96 319l18 99h618l-207 252l81 69l306 -371l-437 -371l-59 72l293 250h-613z" />
<glyph horiz-adv-x="822" d="M110 401l437 371l305 -371l-82 -69l-207 251l-108 -617h-99l107 614l-294 -250z" />
<glyph horiz-adv-x="822" d="M100 337l82 69l206 -251l109 617h99l-108 -614l294 250l60 -71l-437 -371z" />
<glyph horiz-adv-x="725" d="M104 136l93 525h524l-17 -100h-357l359 -436l-81 -70l-359 437l-63 -356h-99z" />
<glyph horiz-adv-x="725" d="M62 126l511 435h-354l18 100h524l-92 -525h-99l62 354l-512 -435z" />
<glyph horiz-adv-x="725" d="M130 55l18 100l356 -1l-359 437l81 69l359 -437l63 357h99l-93 -525h-524z" />
<glyph horiz-adv-x="725" d="M89 55l93 525h99l-63 -355l512 436l58 -73l-511 -434l355 1l-18 -100h-525z" />
<glyph horiz-adv-x="1676" d="M105 369l437 371l59 -71l-294 -251h1403l-17 -99h-1409l208 -251l-81 -70z" />
<glyph horiz-adv-x="1676" d="M96 319l18 99h1408l-207 252l81 69l305 -371l-436 -371l-59 72l293 250h-1403z" />
<glyph horiz-adv-x="210" d="M151 574l41 229h110l-65 -229h-86z" />
<glyph horiz-adv-x="394" d="M183 751l152 143h166l-207 -143h-111z" />
<glyph horiz-adv-x="428" d="M207 894h85q-4 -27 13 -44t56 -17t61 17t26 44h88q-13 -74 -66.5 -113.5t-124.5 -39.5q-70 0 -110 39.5t-28 113.5z" />
<glyph horiz-adv-x="519" d="M207 894h114l83 -64l105 64h118l-174 -143h-121z" />
<glyph horiz-adv-x="519" d="M183 751l174 143h121l124 -143h-114l-83 64l-104 -64h-118z" />
<glyph horiz-adv-x="467" d="M195 820q0 33 26 57t61 24q28 0 45 -17t17 -43q0 -35 -25.5 -58.5t-60.5 -23.5q-28 0 -45.5 17t-17.5 44zM416 819q0 34 25.5 58t60.5 24q28 0 45.5 -17t17.5 -44q0 -34 -26 -57.5t-61 -23.5q-28 0 -45 16.5t-17 43.5z" />
<glyph horiz-adv-x="252" d="M195 819q0 35 26.5 59t63.5 24q29 0 47 -17t18 -45q0 -35 -27 -59.5t-63 -24.5q-29 0 -47 17.5t-18 45.5z" />
<glyph horiz-adv-x="394" d="M207 894h157l113 -143h-103z" />
<glyph horiz-adv-x="557" d="M183 751l131 143h151l-182 -143h-100zM382 751l131 143h152l-182 -143h-101z" />
<glyph horiz-adv-x="432" d="M188 782l15 86h333l-15 -86h-333z" />
<glyph horiz-adv-x="344" d="M193 807q0 51 41.5 83.5t99.5 32.5q47 0 76.5 -24t29.5 -63q0 -51 -41 -83t-100 -32q-47 0 -76.5 23.5t-29.5 62.5zM286 798q10 -10 22.5 -9.5t22.5 9.5q32 15 16 47q-20 22 -45 1q-31 -16 -16 -48z" />
<glyph horiz-adv-x="488" d="M190 794q28 49 64.5 76t71.5 27q32 0 81.5 -22t62.5 -22q32 0 59 41l61 -32q-27 -50 -63 -76.5t-72 -26.5q-31 0 -80.5 22t-63.5 22q-32 0 -60 -41z" />
<glyph horiz-adv-x="349" d="M153 582l121 111h147l-165 -111h-103z" />
<glyph horiz-adv-x="379" d="M172 693h82q-3 -18 9 -29t42 -11q55 0 62 40h84q-10 -58 -55 -88t-105 -30t-94.5 30t-24.5 88z" />
<glyph horiz-adv-x="447" d="M172 693h102l62 -40l77 40h106l-145 -111h-96z" />
<glyph horiz-adv-x="447" d="M153 582l145 111h96l105 -111h-102l-63 40l-76 -40h-105z" />
</font>
</defs>
</svg>
