<?xml version="1.0" standalone="no"?>
<!DOCTYPE svg PUBLIC "-//W3C//DTD SVG 1.1//EN" "http://www.w3.org/Graphics/SVG/1.1/DTD/svg11.dtd" >
<svg xmlns="http://www.w3.org/2000/svg">
<metadata></metadata>
<defs>
<font id="vegan-sans-mediumitalic" horiz-adv-x="600" >
<font-face units-per-em="1000" ascent="800" descent="-200" />
<missing-glyph horiz-adv-x="300" />
<glyph unicode="fb" horiz-adv-x="937" d="M89 445l12 74h87l8 44q17 96 95 146t189 50q102 0 178 -29l-46 -264q80 68 172 68q70 0 112.5 -54t42.5 -154q0 -158 -84.5 -249.5t-193.5 -91.5q-82 0 -123 61l-8 -46h-107l120 677q-36 9 -76 9q-62 0 -107.5 -30t-56.5 -92l-8 -45h114l-12 -74h-115l-78 -445h-107 l78 445h-86zM541 63l9 50q39 -47 105 -47q69 0 120.5 65.5t51.5 183.5q0 69 -26.5 103.5t-68.5 34.5q-72 0 -131 -51l5 31z" />
<glyph unicode="ff" horiz-adv-x="693" d="M89 445l12 74h87l14 81q14 79 64.5 119t128.5 40q55 0 83 -17l-11 -68q-40 9 -64 9q-79 0 -94 -82l-14 -82h222l14 81q14 79 64.5 119t128.5 40q55 0 83 -17l-11 -68q-40 9 -64 9q-79 0 -94 -82l-14 -82h144l-12 -74h-145l-78 -445h-107l78 445h-222l-78 -445h-107 l78 445h-86z" />
<glyph unicode="fh" horiz-adv-x="948" d="M89 445l12 74h87l8 44q17 96 95 146t189 50q102 0 178 -29l-49 -279q97 83 196 83q68 0 105 -41.5t22 -129.5l-64 -363h-107l60 343q19 105 -77 105q-35 0 -76 -17.5t-70 -42.5l-68 -388h-107l120 677q-36 9 -76 9q-62 0 -107.5 -30t-56.5 -92l-8 -45h114l-12 -74h-115 l-78 -445h-107l78 445h-86z" />
<glyph unicode="fi" horiz-adv-x="611" d="M89 445l12 74h87l14 81q14 79 64.5 119t128.5 40q52 0 80 -17l-11 -68q-40 9 -61 9q-79 0 -94 -82l-14 -82h326l-91 -519h-107l78 445h-219l-78 -445h-107l78 445h-86zM525 652q0 32 24 55.5t56 23.5q26 0 41.5 -17t15.5 -42q0 -32 -24.5 -55t-56.5 -23q-26 0 -41 16.5 t-15 41.5z" />
<glyph unicode="fj" horiz-adv-x="611" d="M89 445l12 74h87l14 81q14 79 64.5 119t128.5 40q52 0 80 -17l-11 -68q-40 9 -61 9q-79 0 -94 -82l-14 -82h326l-128 -727h-107l115 653h-219l-78 -445h-107l78 445h-86zM525 652q0 32 24 55.5t56 23.5q26 0 41.5 -17t15.5 -42q0 -32 -24.5 -55t-56.5 -23q-26 0 -41 16.5 t-15 41.5z" />
<glyph unicode="fk" horiz-adv-x="870" d="M89 445l12 74h87l8 44q17 96 95 146t189 50q102 0 178 -29l-78 -447l234 236h119l-249 -240l178 -279h-123l-162 267l-47 -267h-107l120 678q-36 9 -75 9q-62 0 -108 -30.5t-57 -92.5l-8 -45h114l-12 -74h-115l-78 -445h-107l78 445h-86z" />
<glyph unicode="fl" horiz-adv-x="610" d="M89 445l12 74h87l8 44q17 96 95 146t189 50q102 0 178 -29l-128 -730h-107l120 677q-36 9 -76 9q-62 0 -107.5 -30t-56.5 -92l-8 -45h114l-12 -74h-115l-78 -445h-107l78 445h-86z" />
<glyph unicode="ft" horiz-adv-x="712" d="M89 445l12 74h87l14 81q14 79 64.5 119t128.5 40q55 0 83 -17l-11 -68q-40 9 -64 9q-79 0 -94 -82l-14 -82h219l25 141h107l-25 -141h141l-12 -74h-142l-52 -298q-15 -86 53 -86q28 0 82 15l-12 -68q-49 -23 -117 -23q-63 0 -96 36t-21 108l56 316h-219l-78 -445h-107 l78 445h-86z" />
<glyph unicode="ffb" horiz-adv-x="1266" d="M89 445l12 74h87l14 81q14 79 64.5 119t128.5 40q55 0 83 -17l-11 -68q-40 9 -64 9q-79 0 -94 -82l-14 -82h222l8 44q17 96 95 146t189 50q102 0 178 -29l-46 -264q80 68 172 68q70 0 112.5 -54t42.5 -154q0 -158 -84.5 -249.5t-193.5 -91.5q-82 0 -123 61l-8 -46h-107 l120 677q-36 9 -76 9q-62 0 -107.5 -30t-56.5 -92l-8 -45h114l-12 -74h-115l-78 -445h-107l78 445h-222l-78 -445h-107l78 445h-86zM870 63l9 50q39 -47 105 -47q69 0 120.5 65.5t51.5 183.5q0 69 -26.5 103.5t-68.5 34.5q-71 0 -131 -51l5 31z" />
<glyph unicode="ffh" horiz-adv-x="1280" d="M89 445l12 74h87l14 81q14 79 64.5 119t128.5 40q55 0 83 -17l-11 -68q-40 9 -64 9q-79 0 -94 -82l-14 -82h225l8 44q17 96 95 146t189 50q102 0 178 -29l-49 -279q97 83 196 83q68 0 105 -41.5t22 -129.5l-64 -363h-107l60 343q19 105 -77 105q-35 0 -76 -17.5 t-70 -42.5l-68 -388h-107l120 677q-36 9 -76 9q-62 0 -107.5 -30t-56.5 -92l-8 -45h114l-12 -74h-115l-78 -445h-107l78 445h-225l-78 -445h-107l78 445h-86z" />
<glyph unicode="ffi" horiz-adv-x="940" d="M89 445l12 74h87l14 81q14 79 64.5 119t128.5 40q55 0 83 -17l-11 -68q-40 9 -64 9q-79 0 -94 -82l-14 -82h222l14 81q14 79 64.5 119t128.5 40q52 0 80 -17l-11 -68q-40 9 -61 9q-79 0 -94 -82l-14 -82h326l-91 -519h-107l78 445h-219l-78 -445h-107l78 445h-222 l-78 -445h-107l78 445h-86zM854 652q0 32 24 55.5t56 23.5q26 0 41.5 -17t15.5 -42q0 -32 -24.5 -55t-56.5 -23q-26 0 -41 16.5t-15 41.5z" />
<glyph unicode="ffj" horiz-adv-x="940" d="M89 445l12 74h87l14 81q14 79 64.5 119t128.5 40q55 0 83 -17l-11 -68q-40 9 -64 9q-79 0 -94 -82l-14 -82h222l14 81q14 79 64.5 119t128.5 40q52 0 80 -17l-11 -68q-40 9 -61 9q-79 0 -94 -82l-14 -82h326l-128 -727h-107l115 653h-219l-78 -445h-107l78 445h-222 l-78 -445h-107l78 445h-86zM854 652q0 32 24 55.5t56 23.5q26 0 41.5 -17t15.5 -42q0 -32 -24.5 -55t-56.5 -23q-26 0 -41 16.5t-15 41.5z" />
<glyph unicode="ffk" horiz-adv-x="1199" d="M89 445l12 74h87l14 81q14 79 64.5 119t128.5 40q55 0 83 -17l-11 -68q-40 9 -64 9q-79 0 -94 -82l-14 -82h222l8 44q17 96 95 146t189 50q102 0 178 -29l-78 -447l234 236h119l-249 -240l178 -279h-123l-162 267l-47 -267h-107l120 677q-36 9 -76 9q-62 0 -107.5 -30 t-56.5 -92l-8 -45h114l-12 -74h-115l-78 -445h-107l78 445h-222l-78 -445h-107l78 445h-86z" />
<glyph unicode="ffl" horiz-adv-x="960" d="M89 445l12 74h87l14 81q14 79 64.5 119t128.5 40q55 0 83 -17l-11 -68q-40 9 -64 9q-79 0 -94 -82l-14 -82h222l8 44q17 96 95 146t189 50q102 0 178 -29l-128 -730h-107l119 675q-38 8 -74 8q-63 0 -108.5 -28.5t-56.5 -90.5l-8 -45h114l-12 -74h-115l-78 -445h-107 l78 445h-222l-78 -445h-107l78 445h-86z" />
<glyph unicode="fft" horiz-adv-x="1041" d="M89 445l12 74h87l14 81q14 79 64.5 119t128.5 40q55 0 83 -17l-11 -68q-40 9 -64 9q-79 0 -94 -82l-14 -82h222l14 81q14 79 64.5 119t128.5 40q55 0 83 -17l-11 -68q-40 9 -64 9q-79 0 -94 -82l-14 -82h219l25 141h107l-25 -141h141l-12 -74h-142l-52 -298 q-15 -86 53 -86q28 0 82 15l-12 -68q-49 -23 -117 -23q-63 0 -96 36t-21 108l56 316h-219l-78 -445h-107l78 445h-222l-78 -445h-107l78 445h-86z" />
<glyph unicode="tt" horiz-adv-x="732" d="M89 445l12 74h87l25 141h107l-25 -141h239l25 141h107l-25 -141h141l-12 -74h-142l-52 -298q-15 -86 53 -86q28 0 82 15l-12 -68q-49 -23 -117 -23q-63 0 -96 36t-21 108l56 316h-239l-52 -298q-15 -86 53 -86q28 0 82 15l-12 -68q-49 -23 -117 -23q-63 0 -96 36t-21 108 l56 316h-86z" />
<glyph unicode="&#xd;" horiz-adv-x="0" />
<glyph unicode=" "  horiz-adv-x="300" />
<glyph unicode="&#x09;" horiz-adv-x="300" />
<glyph unicode="&#xa0;" horiz-adv-x="300" />
<glyph unicode="!" horiz-adv-x="315" d="M87 46q0 35 25.5 59t60.5 24q27 0 43.5 -17t16.5 -44q0 -35 -25 -59t-61 -24q-27 0 -43.5 17t-16.5 44zM146 216l65 484h124l-105 -484h-84z" />
<glyph unicode="&#x22;" horiz-adv-x="370" d="M142 435l31 265h108l-62 -265h-77zM304 435l31 265h108l-62 -265h-77z" />
<glyph unicode="#" horiz-adv-x="710" d="M67 189l16 88h113l64 149h-100l15 88h123l81 186h106l-81 -186h159l81 186h106l-81 -186h92l-15 -88h-115l-64 -149h102l-16 -88h-124l-82 -189h-106l82 189h-159l-82 -189h-106l82 189h-91zM302 277h159l64 149h-159z" />
<glyph unicode="$" horiz-adv-x="602" d="M79 209h119q-10 -102 64 -130l42 240q-76 20 -122 58t-46 109q0 93 67 154t171 73l19 107h103l-19 -110q85 -14 127.5 -67.5t32.5 -142.5h-119q8 93 -57 121l-40 -225q36 -9 64 -20.5t55 -30.5t42 -48.5t15 -68.5q0 -94 -72.5 -160.5t-175.5 -79.5l-19 -108h-103l19 109 q-88 14 -133.5 70t-33.5 150zM252 507q0 -61 71 -85l36 205q-49 -9 -78 -39t-29 -81zM364 73q52 11 84.5 44.5t32.5 87.5q0 63 -78 89z" />
<glyph unicode="%" horiz-adv-x="1006" d="M131 446q0 115 66.5 189t165.5 74q72 0 113.5 -47t41.5 -128q0 -114 -66.5 -188.5t-165.5 -74.5q-72 0 -113.5 47t-41.5 128zM221 0l570 700h116l-570 -700h-116zM230 443q0 -50 18 -75.5t50 -25.5q50 0 85.5 52.5t35.5 142.5q0 50 -18 75t-50 25q-51 0 -86 -52t-35 -142 zM611 166q0 115 66.5 189t165.5 74q72 0 113.5 -47t41.5 -128q0 -114 -66.5 -188.5t-165.5 -74.5q-72 0 -113.5 47t-41.5 128zM710 163q0 -50 18 -75.5t50 -25.5q50 0 85.5 52.5t35.5 142.5q0 50 -18 75t-50 25q-51 0 -86 -52t-35 -142z" />
<glyph unicode="&#x26;" horiz-adv-x="702" d="M71 158q0 69 42 127.5t114 97.5q-44 62 -44 119q0 87 72 150t174 63q98 0 150.5 -49.5t42.5 -142.5h-118q4 59 -22 83.5t-68 24.5q-49 0 -83.5 -30.5t-34.5 -84.5t46 -108l171 -200q38 67 56 163h111q-24 -130 -106 -234l117 -137h-139l-53 62q-98 -77 -211 -77 q-96 0 -156.5 46t-60.5 127zM183 180q0 -51 35 -80.5t88 -29.5q78 0 140 54l-172 200q-91 -55 -91 -144z" />
<glyph unicode="'" horiz-adv-x="208" d="M142 435l31 265h108l-62 -265h-77z" />
<glyph unicode="(" horiz-adv-x="366" d="M108 253q0 96 26.5 186t71 161.5t92.5 126t103 98.5h102q-120 -102 -197.5 -260t-77.5 -316q0 -107 28.5 -209.5t79.5 -164.5h-102q-54 60 -90 160t-36 218z" />
<glyph unicode=")" horiz-adv-x="367" d="M-26 -125q120 102 197.5 260t77.5 316q0 107 -28.5 209.5t-79.5 164.5h101q54 -60 91 -160t37 -218q0 -96 -26.5 -186t-71.5 -161.5t-93.5 -126t-103.5 -98.5h-101z" />
<glyph unicode="*" horiz-adv-x="488" d="M119 469l156 52l-137 53l72 96l104 -104l-1 154h112l-55 -154l140 104l39 -96l-156 -53l138 -52l-73 -95l-105 103l1 -156h-111l56 156l-141 -103z" />
<glyph unicode="+" horiz-adv-x="561" d="M100 323l15 86h190l33 189h86l-33 -189h190l-15 -86h-190l-34 -191h-86l34 191h-190z" />
<glyph unicode="," horiz-adv-x="223" d="M17 -160l68 274h110l-87 -274h-91z" />
<glyph unicode="-" horiz-adv-x="292" d="M50 234l16 85h243l-16 -85h-243z" />
<glyph unicode="." horiz-adv-x="240" d="M57 46q0 35 25.5 59t60.5 24q27 0 43.5 -17t16.5 -44q0 -35 -25 -59t-61 -24q-27 0 -43.5 17t-16.5 44z" />
<glyph unicode="/" horiz-adv-x="477" d="M15 -40l452 780h117l-452 -780h-117z" />
<glyph unicode="0" horiz-adv-x="624" d="M92 259q0 196 95 326t246 130q102 0 157 -73t55 -201q0 -196 -95 -326t-246 -130q-103 0 -157.5 73t-54.5 201zM209 258q0 -92 29.5 -139.5t80.5 -47.5q91 0 149.5 104t58.5 267q0 92 -29 139.5t-80 47.5q-91 0 -150 -104.5t-59 -266.5z" />
<glyph unicode="1" horiz-adv-x="397" d="M118 510l18 100l180 90h113l-123 -700h-113l105 598z" />
<glyph unicode="2" horiz-adv-x="550" d="M57 0l16 89q22 18 63 51q70 56 102.5 83t81 69.5t70.5 67.5t46.5 58t33.5 61.5t9 58.5q0 46 -23.5 69t-64.5 23q-48 0 -88.5 -35t-57.5 -108h-119q25 109 101 168.5t179 59.5q88 0 139 -43t51 -122q0 -54 -21.5 -103.5t-74.5 -108t-113.5 -111.5t-166.5 -138h308l-16 -89 h-455z" />
<glyph unicode="3" horiz-adv-x="572" d="M71 189h118q-5 -60 26.5 -89.5t84.5 -29.5q64 0 107.5 41.5t43.5 103.5q0 47 -33.5 74.5t-103.5 27.5h-71l15 85h71q75 0 118 41t43 100q0 42 -24.5 64.5t-66.5 22.5q-48 0 -88.5 -30.5t-57.5 -89.5h-119q24 95 101 150t179 55q88 0 140.5 -42.5t52.5 -118.5 q0 -62 -42 -115.5t-110 -73.5q58 -10 85.5 -48.5t27.5 -88.5q0 -105 -84 -174t-199 -69q-114 0 -170 53.5t-44 150.5z" />
<glyph unicode="4" horiz-adv-x="558" d="M50 132l15 85l288 483h116l-288 -483h180l31 173h107l-31 -173h94l-15 -85h-94l-23 -132h-107l23 132h-296z" />
<glyph unicode="5" horiz-adv-x="548" d="M71 175h118q-4 -54 25 -79.5t75 -25.5q67 0 108.5 54.5t41.5 148.5q0 109 -91 109q-84 0 -137 -66h-98l68 384h409l-15 -86h-311l-39 -221q32 35 77.5 54.5t89.5 19.5q75 0 119.5 -46.5t44.5 -136.5q0 -138 -83 -218.5t-199 -80.5q-105 0 -159 49.5t-44 140.5z" />
<glyph unicode="6" horiz-adv-x="587" d="M87 232q0 210 97 346.5t247 136.5q90 0 140 -45.5t44 -125.5h-119q0 87 -81 87q-71 0 -124.5 -73t-74.5 -192q37 38 91 63t105 25q80 0 125.5 -46.5t45.5 -135.5q0 -128 -87 -207.5t-203 -79.5q-96 0 -151 66t-55 181zM205 234q0 -164 103 -164q69 0 113 52t44 136 q0 111 -98 111q-44 0 -87 -20.5t-73 -53.5q-2 -40 -2 -61z" />
<glyph unicode="7" horiz-adv-x="478" d="M98 0l356 614h-316l15 86h420l-14 -86l-352 -614h-109z" />
<glyph unicode="8" horiz-adv-x="594" d="M73 154q0 74 46 131.5t125 76.5q-43 17 -68 51.5t-25 81.5q0 101 76.5 160.5t195.5 59.5q94 0 149 -43t55 -121q0 -69 -40.5 -117t-108.5 -72q52 -13 80 -53t28 -93q0 -113 -82 -172t-210 -59q-101 0 -161 42.5t-60 126.5zM189 168q0 -49 32 -73.5t89 -24.5q72 0 117 36 t45 105q0 46 -30 74t-90 28q-79 0 -121 -41t-42 -104zM265 496q0 -44 25.5 -70t77.5 -26q71 0 107.5 40t36.5 99q0 44 -28.5 67.5t-76.5 23.5q-62 0 -102 -35t-40 -99z" />
<glyph unicode="9" horiz-adv-x="589" d="M81 173h118q-5 -104 87 -104q74 0 129 78.5t73 202.5q-37 -38 -90.5 -62.5t-104.5 -24.5q-80 0 -126 45t-46 131q0 125 86 200.5t202 75.5q100 0 153 -65t53 -182q0 -136 -40.5 -245t-120 -173.5t-183.5 -64.5q-93 0 -146 49t-44 139zM238 454q0 -106 100 -106 q44 0 86.5 20t71.5 53q1 15 1 45q0 164 -103 164q-69 0 -112.5 -48.5t-43.5 -127.5z" />
<glyph unicode=":" horiz-adv-x="240" d="M57 46q0 35 25.5 59t60.5 24q27 0 43.5 -17t16.5 -44q0 -35 -25 -59t-61 -24q-27 0 -43.5 17t-16.5 44zM128 448q0 35 25 59t61 24q27 0 43.5 -17t16.5 -43q0 -35 -25.5 -59.5t-60.5 -24.5q-27 0 -43.5 17t-16.5 44z" />
<glyph unicode=";" horiz-adv-x="240" d="M22 -146l66 260h110l-85 -260h-91zM128 448q0 35 25 59t61 24q27 0 43.5 -17t16.5 -43q0 -35 -25.5 -59.5t-60.5 -24.5q-27 0 -43.5 17t-16.5 44z" />
<glyph unicode="&#x3c;" horiz-adv-x="553" d="M94 321l16 92l501 197l-16 -93l-384 -151l330 -151l-16 -91z" />
<glyph unicode="=" horiz-adv-x="561" d="M82 220l15 86h466l-15 -86h-466zM118 426l15 86h466l-15 -86h-466z" />
<glyph unicode="&#x3e;" horiz-adv-x="553" d="M64 124l15 93l384 152l-330 150l16 91l431 -197l-16 -92z" />
<glyph unicode="?" horiz-adv-x="512" d="M116 515q22 94 93 147t173 53q89 0 139.5 -38.5t50.5 -108.5q0 -57 -25.5 -100t-61 -69.5t-70.5 -50.5t-58 -57t-20 -75h-110q-2 42 9.5 74.5t31.5 53.5t45 38.5t50 33.5t46 33.5t34 44t13 60.5q0 37 -24 56.5t-66 19.5q-46 0 -81 -28.5t-51 -86.5h-118zM182 46 q0 35 25.5 59t60.5 24q28 0 44.5 -17t16.5 -44q0 -35 -25.5 -59t-61.5 -24q-26 0 -43 17t-17 44z" />
<glyph unicode="@" horiz-adv-x="963" d="M60 183q0 231 156.5 381.5t407.5 150.5q159 0 268 -95.5t109 -250.5q0 -94 -29 -170.5t-75 -121t-96.5 -68.5t-99.5 -24q-42 0 -71.5 18t-35.5 56q-83 -74 -170 -74q-63 0 -105 54.5t-42 153.5q0 159 82 250.5t189 91.5q71 0 112 -60l8 44h110l-70 -399q-5 -29 3.5 -44.5 t26.5 -15.5q63 0 112.5 88.5t49.5 209.5q0 126 -77 205t-218 79q-187 0 -315 -123.5t-128 -319.5q0 -173 93.5 -261t249.5 -88q59 0 132.5 13t116.5 29l-12 -72q-46 -17 -121.5 -30t-142.5 -13q-82 0 -156 25.5t-133 74t-94 128t-35 178.5zM392 204q0 -66 25 -100.5 t60 -34.5q63 0 121 51l50 284q-35 47 -94 47q-65 0 -113.5 -65t-48.5 -182z" />
<glyph unicode="A" horiz-adv-x="632" d="M4 0l369 700h115l134 -700h-116l-31 183h-265l-92 -183h-114zM252 267h208l-30 176l-20 149l-70 -149z" />
<glyph unicode="B" horiz-adv-x="626" d="M81 0l123 700h224q43 0 80 -7.5t69 -24t50 -47t18 -71.5q0 -63 -41 -115t-101 -69q52 -9 84 -41.5t32 -88.5q0 -111 -84 -173.5t-208 -62.5h-246zM209 84h133q79 0 119.5 38t40.5 103q0 86 -120 86h-134zM263 395h112q68 0 110 36t42 101q0 84 -113 84h-111z" />
<glyph unicode="C" horiz-adv-x="662" d="M92 265q0 198 106.5 324t268.5 126q110 -1 174 -63q57 -56 56 -158v-26h-122v17q0 69 -30 104q-34 40 -93 40q-101 0 -170 -99t-69 -263q0 -97 37 -146.5t104 -49.5q60 0 107.5 40t71.5 121h122q-35 -122 -121 -184.5t-196 -62.5q-122 0 -184 74.5t-62 205.5z" />
<glyph unicode="D" horiz-adv-x="703" d="M81 0l123 700h217q139 0 220 -75.5t81 -209.5q0 -188 -119.5 -301.5t-304.5 -113.5h-217zM209 86h104q127 0 207.5 82t80.5 242q0 104 -52 154t-142 50h-105z" />
<glyph unicode="E" horiz-adv-x="550" d="M81 0l123 700h415l-14 -86h-303l-36 -203h283l-15 -85h-283l-42 -240h303l-16 -86h-415z" />
<glyph unicode="F" horiz-adv-x="524" d="M81 0l123 700h405l-14 -86h-293l-40 -223h273l-15 -86h-273l-53 -305h-113z" />
<glyph unicode="G" horiz-adv-x="672" d="M92 259q0 202 106 329t271 127q107 0 169 -59q57 -55 57 -153q0 -9 -1 -19h-122v12q0 63 -29 96q-32 37 -89 37q-104 0 -172 -98.5t-68 -256.5q0 -100 39 -152t102 -52q90 0 169 68l24 132h-155l14 83h265l-62 -353h-110l12 66q-38 -35 -95 -58t-109 -23 q-105 0 -160.5 73t-55.5 201z" />
<glyph unicode="H" horiz-adv-x="730" d="M81 0l123 700h113l-51 -289h333l50 289h113l-123 -700h-113l58 326h-333l-57 -326h-113z" />
<glyph unicode="I" horiz-adv-x="285" d="M81 0l123 700h113l-123 -700h-113z" />
<glyph unicode="J" horiz-adv-x="571" d="M62 229h117q-4 -31 -4 -55q0 -46 15 -69q22 -36 78 -36q54 0 91.5 31t48.5 92l90 508h112l-85 -488q-20 -115 -94.5 -171t-177.5 -56q-48 0 -85.5 12.5t-66 40t-39.5 76.5q-5 24 -5 54q0 28 5 61z" />
<glyph unicode="K" horiz-adv-x="622" d="M81 0l123 700h113l-57 -327l296 327h123l-309 -331l224 -369h-132l-205 357l-63 -357h-113z" />
<glyph unicode="L" horiz-adv-x="516" d="M81 0l123 700h113l-108 -614h271l-16 -86h-383z" />
<glyph unicode="M" horiz-adv-x="859" d="M81 0l123 700h124l123 -548l327 548h113l-123 -700h-107l63 363l26 129l-264 -452h-106l-109 473l-22 -142l-66 -371h-102z" />
<glyph unicode="N" horiz-adv-x="717" d="M81 0l123 700h114l236 -539l22 142l70 397h103l-123 -700h-114l-236 538l-23 -142l-69 -396h-103z" />
<glyph unicode="O" horiz-adv-x="731" d="M93 276q0 192 110.5 315.5t282.5 123.5q126 0 195.5 -78.5t69.5 -212.5q0 -192 -110 -315.5t-284 -123.5q-125 0 -194.5 78.5t-69.5 212.5zM213 276q0 -99 43 -152t117 -53q115 0 186.5 99.5t71.5 253.5q0 99 -43 152t-117 53q-115 0 -186.5 -99.5t-71.5 -253.5z" />
<glyph unicode="P" horiz-adv-x="594" d="M81 0l123 700h223q91 0 153.5 -49t62.5 -141q0 -85 -45.5 -147.5t-111 -90t-139.5 -27.5h-110l-43 -245h-113zM252 329h110q70 0 117 45.5t47 126.5q0 56 -30.5 85.5t-82.5 29.5h-110z" />
<glyph unicode="Q" horiz-adv-x="731" d="M93 276q0 192 110.5 315.5t282.5 123.5q126 0 195.5 -78.5t69.5 -212.5q0 -147 -66.5 -256.5t-179.5 -154.5l127 -164h-137l-103 137q-12 -1 -35 -1q-125 0 -194.5 78.5t-69.5 212.5zM213 276q0 -99 43 -152t117 -53q115 0 186.5 99.5t71.5 253.5q0 99 -43 152t-117 53 q-115 0 -186.5 -99.5t-71.5 -253.5z" />
<glyph unicode="R" horiz-adv-x="614" d="M81 0l123 700h218q94 0 156 -45t62 -135q0 -98 -55.5 -158.5t-143.5 -82.5l146 -279h-127l-127 268h-92l-47 -268h-113zM256 351h105q72 0 117 39.5t45 120.5q0 53 -31 79t-84 26h-105z" />
<glyph unicode="S" horiz-adv-x="602" d="M79 209h119l-2 -24q0 -56 30 -83q34 -33 94 -33q67 0 114 35.5t47 100.5q0 22 -9.5 38.5t-20 26.5t-35.5 19t-38.5 12.5t-45.5 10.5q-41 9 -70.5 20t-61 30.5t-48 50.5t-16.5 73q0 103 81 166t201 63q111 0 171 -56q50 -47 50 -126q0 -16 -2 -33h-119q1 11 1 21 q0 53 -27 79q-32 32 -90 31q-67 0 -108.5 -31t-41.5 -93q0 -21 9 -37.5t19.5 -26t34.5 -18.5t37.5 -12.5t45.5 -10.5t56 -14.5t53 -21.5t47 -31.5t30.5 -45t12.5 -61.5q0 -104 -88 -173.5t-204 -69.5q-114 -1 -177 57q-52 47 -52 129q0 18 3 38z" />
<glyph unicode="T" horiz-adv-x="541" d="M129 614l15 86h489l-14 -86h-189l-108 -614h-113l109 614h-189z" />
<glyph unicode="U" horiz-adv-x="709" d="M115 230l82 470h113l-79 -450q-6 -31 -5 -57q0 -47 19 -77q30 -44 116 -45q167 0 195 159l83 470h102l-79 -450q-22 -127 -106.5 -196t-210.5 -69q-127 -1 -189 63q-46 47 -46 126q0 26 5 56z" />
<glyph unicode="V" horiz-adv-x="626" d="M123 700h117l75 -431l20 -149l70 149l216 431h114l-366 -700h-115z" />
<glyph unicode="W" horiz-adv-x="917" d="M123 700h115l32 -415l7 -149l61 149l181 415h120l39 -415l9 -152l59 152l168 415h112l-305 -700h-118l-41 401l-10 151l-63 -151l-178 -401h-118z" />
<glyph unicode="X" horiz-adv-x="588" d="M8 0l281 358l-154 342h120l105 -250l188 250h119l-262 -335l163 -365h-119l-116 273l-206 -273h-119z" />
<glyph unicode="Y" horiz-adv-x="587" d="M137 700h116l107 -345l214 345h111l-289 -439l-46 -261h-112l46 261z" />
<glyph unicode="Z" horiz-adv-x="536" d="M37 0l15 86l422 528h-321l14 86h451l-14 -86l-422 -528h328l-15 -86h-458z" />
<glyph unicode="[" horiz-adv-x="355" d="M99 -125l167 950h212l-13 -73h-99l-142 -804h100l-13 -73h-212z" />
<glyph unicode="\" horiz-adv-x="461" d="M147 740h105l178 -780h-105z" />
<glyph unicode="]" horiz-adv-x="361" d="M-4 -125l12 73h100l142 804h-100l13 73h212l-167 -950h-212z" />
<glyph unicode="^" horiz-adv-x="528" d="M90 300l243 400h91l103 -400h-94l-73 292l-175 -292h-95z" />
<glyph unicode="_" horiz-adv-x="501" d="M21 -101l14 86h420l-14 -86h-420z" />
<glyph unicode="`" horiz-adv-x="339" d="M180 736h130l81 -154h-88z" />
<glyph unicode="a" horiz-adv-x="585" d="M80 193q0 158 84 249.5t193 91.5q82 0 123 -61l8 46h107l-91 -519h-107l15 85l-6 -31q-80 -69 -172 -69q-70 0 -112 54t-42 154zM192 204q0 -69 26 -103.5t68 -34.5q70 0 131 51l60 339l-9 -50q-39 47 -105 47q-68 0 -119.5 -65.5t-51.5 -183.5z" />
<glyph unicode="b" horiz-adv-x="585" d="M71 0l131 744h107l-49 -278q82 68 172 68q70 0 112.5 -54t42.5 -154q0 -158 -84.5 -249.5t-193.5 -91.5q-82 0 -123 61l-8 -46h-107zM192 79l6 34q39 -47 105 -47q68 0 120 65.5t52 183.5q0 69 -26.5 103.5t-68.5 34.5q-71 0 -131 -51l2 13z" />
<glyph unicode="c" horiz-adv-x="533" d="M80 195q0 148 78.5 243.5t209.5 95.5q90 0 142 -51q46 -45 46 -116q0 -10 -1 -20h-111v9q0 105 -90 105q-71 0 -117.5 -74t-46.5 -192q0 -137 95 -137q91 0 127 111h110q-24 -84 -92.5 -134t-158.5 -50q-97 0 -144 55.5t-47 154.5z" />
<glyph unicode="d" horiz-adv-x="585" d="M80 193q0 158 84 249.5t193 91.5q82 0 123 -61l-12 -67q-39 47 -105 47q-68 0 -119.5 -65.5t-51.5 -183.5q0 -69 26 -103.5t68 -34.5q71 0 132 51l110 627h107l-131 -744h-107l16 89l-7 -35q-80 -69 -172 -69q-70 0 -112 54t-42 154z" />
<glyph unicode="e" horiz-adv-x="542" d="M80 194q0 148 81 244t203 96q114 0 160 -75q26 -43 26 -109q0 -47 -14 -106h-347q-2 -32 -2 -50q0 -136 94 -136q86 0 119 89h111q-22 -71 -90 -116.5t-154 -45.5q-95 0 -141 55.5t-46 153.5zM200 313h236q4 25 4 46q0 40 -15 65q-23 38 -75 38q-51 0 -91 -38t-59 -111z " />
<glyph unicode="f" horiz-adv-x="364" d="M89 445l12 74h87l14 81q14 79 64.5 119t128.5 40q55 0 83 -17l-11 -68q-40 9 -64 9q-79 0 -94 -82l-14 -82h144l-12 -74h-145l-78 -445h-107l78 445h-86z" />
<glyph unicode="g" horiz-adv-x="585" d="M44 -51h109q-1 -9 -1 -18q0 -81 97 -81q53 0 93 33t53 107l12 68q-83 -69 -172 -69q-70 0 -112.5 53.5t-42.5 152.5q0 81 24.5 147.5t64.5 107t88.5 62.5t99.5 22q82 0 123 -61l8 46h107l-91 -516q-20 -113 -92.5 -169.5t-175.5 -56.5q-99 0 -150 45q-44 37 -44 101 q0 13 2 26zM192 207q0 -69 26.5 -102.5t68.5 -33.5q71 0 131 50l57 326l-7 -41q-39 47 -105 47q-69 0 -120 -64t-51 -182z" />
<glyph unicode="h" horiz-adv-x="596" d="M71 0l131 744h107l-52 -293q97 83 196 83q68 0 105 -42q26 -30 26 -82q0 -22 -4 -47l-64 -363h-107l60 343q3 17 3 32q0 73 -80 73q-35 0 -75.5 -17.5t-70.5 -42.5l-68 -388h-107z" />
<glyph unicode="i" horiz-adv-x="259" d="M71 0l92 519h107l-92 -519h-107zM173 652q0 32 24 55.5t56 23.5q26 0 41.5 -17t15.5 -42q0 -32 -24.5 -55t-56.5 -23q-25 0 -40.5 16.5t-15.5 41.5z" />
<glyph unicode="j" horiz-adv-x="259" d="M34 -208l129 727h107l-129 -727h-107zM173 652q0 32 24 55.5t56 23.5q26 0 41.5 -17t15.5 -42q0 -32 -24.5 -55t-56.5 -23q-25 0 -40.5 16.5t-15.5 41.5z" />
<glyph unicode="k" horiz-adv-x="519" d="M71 0l131 744h107l-81 -461l234 236h119l-248 -240l177 -279h-123l-162 267l-47 -267h-107z" />
<glyph unicode="l" horiz-adv-x="259" d="M71 0l131 744h107l-131 -744h-107z" />
<glyph unicode="m" horiz-adv-x="922" d="M71 0l92 519h107l-12 -67q97 82 192 82q106 0 125 -88q102 88 207 88q68 0 104 -41q25 -29 25 -81q0 -22 -5 -49l-64 -363h-107l60 343q4 19 4 35q0 28 -12 44q-18 26 -66 26q-72 0 -144 -61l-3 -24l-64 -363h-107l60 343q4 19 4 35q0 28 -12 44q-18 26 -66 26 q-69 0 -142 -59l-69 -389h-107z" />
<glyph unicode="n" horiz-adv-x="596" d="M71 0l92 519h107l-12 -67q97 82 195 82q68 0 105 -42q26 -30 26 -82q0 -22 -4 -47l-64 -363h-107l60 343q3 17 3 32q0 73 -80 73q-35 0 -75 -17.5t-70 -41.5l-69 -389h-107z" />
<glyph unicode="o" horiz-adv-x="580" d="M80 203q0 144 83 237.5t217 93.5q97 0 149.5 -59t52.5 -160q0 -143 -82.5 -236.5t-217.5 -93.5q-97 0 -149.5 59t-52.5 159zM191 200q0 -69 28 -105.5t77 -36.5q77 0 126 68.5t49 192.5q0 69 -27.5 105.5t-77.5 36.5q-77 0 -126 -68.5t-49 -192.5z" />
<glyph unicode="p" horiz-adv-x="585" d="M34 -208l129 727h107l-10 -54q81 69 172 69q70 0 112.5 -54t42.5 -154q0 -158 -84.5 -249.5t-193.5 -91.5q-82 0 -123 61l-45 -254h-107zM194 88l4 25q39 -47 105 -47q68 0 120 65.5t52 183.5q0 69 -26.5 103.5t-68.5 34.5q-71 0 -131 -51z" />
<glyph unicode="q" horiz-adv-x="585" d="M80 193q0 158 84 249.5t193 91.5q82 0 123 -61l8 46h107l-128 -727h-107l48 271l-2 -9q-80 -69 -172 -69q-70 0 -112 54t-42 154zM192 204q0 -69 26 -103.5t68 -34.5q69 0 131 50l57 324l-6 -34q-39 47 -105 47q-68 0 -119.5 -65.5t-51.5 -183.5z" />
<glyph unicode="r" horiz-adv-x="411" d="M71 0l92 519h107l-16 -91q82 106 165 106q37 0 58 -24l-15 -90q-37 16 -69 16q-42 0 -84 -25t-69 -61l-62 -350h-107z" />
<glyph unicode="s" horiz-adv-x="511" d="M68 150h108v-7q0 -41 22 -63q24 -24 76 -23q49 0 82 24t33 67q0 15 -7 27t-16 19t-27.5 13t-29.5 9t-34 7q-28 6 -46.5 10.5t-43.5 15t-40 24t-26 35t-11 48.5q0 83 66 130.5t167 47.5q90 0 137 -40q41 -35 41 -93q0 -9 -1 -18h-108q1 41 -20.5 60t-65.5 19 q-48 0 -79.5 -21t-31.5 -61q0 -24 16 -39t33.5 -20.5t51.5 -12.5q2 0 3 -0.5t3 -1t4 -0.5q29 -6 46.5 -10.5t44 -15t41 -23t26 -34t11.5 -48.5q0 -83 -67.5 -136.5t-167.5 -53.5q-98 0 -148 44q-43 38 -43 100q0 10 1 21z" />
<glyph unicode="t" horiz-adv-x="386" d="M89 445l12 74h87l25 141h107l-25 -141h141l-12 -74h-142l-52 -298q-3 -16 -3 -28q0 -58 56 -58q28 0 82 15l-12 -68q-49 -23 -117 -23q-63 0 -96 36q-24 26 -24 72q0 17 3 36l56 316h-86z" />
<glyph unicode="u" horiz-adv-x="592" d="M98 155l65 364h107l-61 -344q-3 -17 -3 -32q0 -72 78 -72q70 0 143 59l69 389h107l-92 -519h-107l12 67q-97 -82 -193 -82q-68 0 -104 41q-25 29 -25 81q0 22 4 48z" />
<glyph unicode="v" horiz-adv-x="508" d="M96 519h113l43 -259l19 -146l70 146l131 259h106l-278 -519h-102z" />
<glyph unicode="w" horiz-adv-x="790" d="M96 519h108l31 -257l11 -146l65 146l118 257h98l32 -257l16 -146l63 146l118 257h105l-258 -519h-100l-31 240l-16 146l-65 -146l-113 -240h-103z" />
<glyph unicode="x" horiz-adv-x="514" d="M8 0l231 268l-130 251h113l83 -173l144 173h113l-210 -244l144 -275h-114l-96 198l-165 -198h-113z" />
<glyph unicode="y" horiz-adv-x="505" d="M81 -208l119 212l-104 515h113l43 -243l19 -146l71 146l127 243h106l-395 -727h-99z" />
<glyph unicode="z" horiz-adv-x="453" d="M37 0l13 74l319 371h-243l13 74h362l-13 -74l-320 -371h254l-13 -74h-372z" />
<glyph unicode="{" horiz-adv-x="385" d="M106 310l14 79q100 0 115 86l33 186q15 79 71 121.5t142 42.5h28l-13 -73h-27q-37 0 -59 -24t-28 -57l-32 -185q-9 -50 -41 -87.5t-73 -48.5q37 -11 56 -49t10 -88l-33 -184q-5 -33 8 -57t50 -24h28l-13 -73h-28q-87 0 -128.5 42.5t-27.5 121.5l33 185q15 86 -85 86z" />
<glyph unicode="|" horiz-adv-x="286" d="M61 -160l173 980h103l-173 -980h-103z" />
<glyph unicode="}" horiz-adv-x="388" d="M-3 -125l13 73h27q37 0 58.5 24t27.5 57l32 184q9 50 41.5 88t73.5 49q-38 11 -57 48.5t-10 87.5l33 185q5 33 -8 57t-50 24h-28l13 73h28q88 0 129 -42t27 -122l-33 -186q-15 -86 85 -86l-14 -79q-100 0 -115 -86l-33 -185q-14 -80 -69 -122t-143 -42h-28z" />
<glyph unicode="~" horiz-adv-x="569" d="M79 326q78 125 180 125q41 0 75 -20.5t61 -40.5t52 -20q44 0 95 74l67 -38q-77 -126 -179 -126q-41 0 -75 20.5t-61.5 41t-52.5 20.5q-42 0 -94 -75z" />
<glyph unicode="&#xa1;" horiz-adv-x="300" d="M49 -208l106 484h84l-66 -484h-124zM152 424q0 35 25.5 59t60.5 24q27 0 43.5 -17t16.5 -44q0 -35 -25 -59t-61 -24q-27 0 -43.5 17t-16.5 44z" />
<glyph unicode="&#xa2;" horiz-adv-x="533" d="M80 195q0 132 63 223.5t171 110.5l20 111h102l-19 -110q69 -14 106.5 -62.5t31.5 -120.5h-111q3 81 -41 104l-68 -383q51 22 77 101h110q-20 -72 -73.5 -119.5t-127.5 -60.5l-19 -109h-102l19 110q-139 27 -139 205zM190 195q0 -93 44 -123l66 376q-50 -25 -80 -92.5 t-30 -160.5z" />
<glyph unicode="&#xa3;" horiz-adv-x="572" d="M23 0l15 86h84l37 207h-84l15 86h84l22 126q17 98 86 154t165 56q98 0 151 -51.5t41 -149.5h-119q5 58 -20.5 84.5t-66.5 26.5q-45 0 -78.5 -25t-43.5 -82l-24 -139h210l-15 -86h-211l-36 -207h310l-15 -86h-507z" />
<glyph unicode="&#xa4;" horiz-adv-x="664" d="M54 130l101 85q-22 44 -22 102q0 114 73 197l-64 79l67 59l67 -82q69 43 157 43q80 0 133 -42l99 84l58 -65l-102 -86q23 -44 23 -101q0 -116 -75 -197l65 -79l-67 -59l-66 80q-73 -41 -157 -41q-82 0 -134 41l-98 -83zM247 315q0 -64 29.5 -100t79.5 -36q72 0 123 61 t51 165q0 64 -30 99.5t-80 35.5q-71 0 -122 -61t-51 -164z" />
<glyph unicode="&#xa5;" horiz-adv-x="587" d="M81 90l15 86h173l20 117h-172l15 86h153l-145 321h116l113 -274l205 274h111l-249 -321h154l-16 -86h-172l-21 -117h172l-14 -86h-173l-16 -90h-112l16 90h-173z" />
<glyph unicode="&#xa6;" horiz-adv-x="286" d="M61 -160l80 455h103l-80 -455h-103zM163 420l71 400h103l-71 -400h-103z" />
<glyph unicode="&#xa7;" horiz-adv-x="614" d="M65 109h119q-6 -68 26 -99t92 -31q67 0 108.5 28.5t41.5 82.5q0 20 -9 35t-20.5 23t-35.5 14.5t-39.5 9t-47.5 6.5q-36 4 -59.5 8t-54 13.5t-48.5 23.5t-30.5 37.5t-12.5 55.5q0 96 108 166q-43 33 -43 99q0 101 80.5 162.5t200.5 61.5q114 0 174 -55.5t48 -159.5h-119 q6 68 -26.5 99.5t-92.5 31.5q-67 0 -108.5 -28.5t-41.5 -82.5q0 -20 9 -35t20.5 -23t35.5 -14.5t39.5 -9t47.5 -6.5q37 -5 59.5 -8.5t53.5 -13.5t48.5 -23.5t30.5 -37.5t13 -55q0 -96 -109 -166q45 -35 45 -99q0 -101 -81 -162.5t-201 -61.5q-113 0 -173 55.5t-48 158.5z M206 350q0 -22 10 -37t32 -23.5t42.5 -12t54.5 -7.5q83 -11 119 -22q23 18 40 47t17 54q0 22 -10 37t-32.5 23.5t-42 12.5t-53.5 8q-80 8 -120 21q-23 -16 -40 -45.5t-17 -55.5z" />
<glyph unicode="&#xa8;" horiz-adv-x="431" d="M166 653q0 31 24 53.5t56 22.5q25 0 40.5 -16.5t15.5 -40.5q0 -31 -23.5 -54t-55.5 -23q-25 0 -41 16.5t-16 41.5zM362 652q0 31 24 54t56 23q25 0 40.5 -16.5t15.5 -41.5q0 -31 -24 -53.5t-56 -22.5q-25 0 -40.5 16.5t-15.5 40.5z" />
<glyph unicode="&#xa9;" horiz-adv-x="830" d="M50 350q0 152 105 258.5t260 106.5t260 -106.5t105 -258.5t-105 -258.5t-260 -106.5t-260 106.5t-105 258.5zM125 350q0 -124 84 -210.5t206 -86.5t206 86.5t84 210.5t-84 210.5t-206 86.5t-206 -86.5t-84 -210.5zM230 350q0 97 50.5 155.5t131.5 58.5q70 0 115 -36 t54 -109h-87q-6 43 -25.5 63t-56.5 20q-44 0 -70.5 -39.5t-26.5 -112.5q0 -74 25 -113.5t72 -39.5q37 0 56.5 20t25.5 63h87q-9 -72 -54 -108.5t-115 -36.5q-87 0 -134.5 57.5t-47.5 157.5z" />
<glyph unicode="&#xaa;" horiz-adv-x="343" d="M117 552q0 89 49 141t116 52q44 0 71 -34l4 25h81l-51 -296h-82l5 29q-48 -38 -94 -38q-44 0 -71.5 31.5t-27.5 89.5zM201 559q0 -65 50 -65q34 0 69 30l23 130q-23 28 -57 28q-38 0 -61.5 -30.5t-23.5 -92.5z" />
<glyph unicode="&#xab;" horiz-adv-x="568" d="M89 223l17 97l275 194l-22 -124l-170 -120l128 -119l-22 -122zM317 223l17 97l275 194l-22 -124l-170 -120l128 -119l-22 -122z" />
<glyph unicode="&#xac;" horiz-adv-x="561" d="M100 323l15 86h466l-49 -277h-85l34 191h-381z" />
<glyph unicode="&#xad;" horiz-adv-x="292" d="M50 234l16 85h243l-16 -85h-243z" />
<glyph unicode="&#xae;" horiz-adv-x="578" d="M50 477q0 100 68.5 169t170.5 69t170.5 -69t68.5 -169t-68.5 -169t-170.5 -69t-170.5 69t-68.5 169zM111 477q0 -76 51 -129.5t127 -53.5q75 0 126.5 53.5t51.5 129.5t-51.5 129.5t-126.5 53.5q-76 0 -127 -53.5t-51 -129.5zM199 353v255h87q40 0 70 -19.5t30 -58.5 q0 -56 -59 -74l69 -103h-64l-62 97h-14v-97h-57zM256 495h30q43 0 43 35q0 34 -43 34h-30v-69z" />
<glyph unicode="&#xaf;" horiz-adv-x="402" d="M158 612l14 78h302l-14 -78h-302z" />
<glyph unicode="&#xb0;" horiz-adv-x="428" d="M144 525q0 79 58 134.5t138 55.5q62 0 100 -38.5t38 -99.5q0 -79 -58 -134.5t-138 -55.5q-62 0 -100 38.5t-38 99.5zM222 536q0 -34 20 -55t53 -21q44 0 74 31t30 75q0 34 -19.5 55t-52.5 21q-44 0 -74.5 -31t-30.5 -75z" />
<glyph unicode="&#xb1;" horiz-adv-x="565" d="M47 0l15 86h466l-15 -86h-466zM108 344l14 86h191l33 189h85l-33 -189h190l-14 -86h-191l-34 -191h-85l34 191h-190z" />
<glyph unicode="&#xb4;" horiz-adv-x="339" d="M152 582l127 154h140l-173 -154h-94z" />
<glyph unicode="&#xb5;" horiz-adv-x="592" d="M34 -208l129 727h107l-61 -344q-19 -104 75 -104q35 0 74.5 17.5t68.5 42.5l69 388h107l-92 -519h-107l12 68q-82 -72 -168 -79q-41 -2 -70 9l-37 -206h-107z" />
<glyph unicode="&#xb6;" horiz-adv-x="669" d="M127 470q0 76 41.5 130t100.5 77t127 23h298l-123 -700h-92l109 616h-74l-109 -616h-93l54 305h-39q-85 0 -142.5 42t-57.5 123z" />
<glyph unicode="&#xb7;" horiz-adv-x="224" d="M97 354q0 34 25.5 58.5t60.5 24.5q27 0 43.5 -17t16.5 -44q0 -34 -25 -58.5t-60 -24.5q-28 0 -44.5 17t-16.5 44z" />
<glyph unicode="&#xb8;" horiz-adv-x="298" d="M9 -234l10 56q26 -13 62 -13q22 0 40.5 11.5t18.5 32.5q0 16 -14 24.5t-32 8.5q-20 0 -41 -6l-15 36l78 84h69l-60 -65q41 3 69.5 -15t28.5 -55q0 -52 -44 -82.5t-101 -30.5q-42 0 -69 14z" />
<glyph unicode="&#xba;" horiz-adv-x="344" d="M117 560q0 80 53 132.5t134 52.5q61 0 95.5 -35t34.5 -94q0 -80 -52.5 -132.5t-132.5 -52.5q-61 0 -96.5 35.5t-35.5 93.5zM201 559q0 -70 57 -70q44 0 68.5 35t24.5 93q0 70 -57 70q-43 0 -68 -34t-25 -94z" />
<glyph unicode="&#xbb;" horiz-adv-x="568" d="M55 29l22 124l170 120l-128 119l21 122l206 -194l-17 -97zM283 29l22 124l170 120l-128 119l21 122l206 -194l-17 -97z" />
<glyph unicode="&#xbc;" horiz-adv-x="856" d="M130 0l570 700h116l-570 -700h-116zM148 564l15 83l113 53h95l-74 -420h-95l60 337zM475 68l12 73l181 279h95l-183 -279h97l16 93h89l-16 -93h64l-13 -73h-64l-12 -68h-89l12 68h-189z" />
<glyph unicode="&#xbd;" horiz-adv-x="886" d="M130 0l570 700h116l-570 -700h-116zM148 564l15 83l113 53h95l-74 -420h-95l60 337zM524 0l12 71q27 20 64.5 47t57.5 41.5t45.5 34t38.5 32.5t26 28.5t18 30t5 29.5q0 46 -52 46q-58 0 -77 -68h-97q15 66 64.5 101.5t121.5 35.5q63 0 99.5 -28t36.5 -80q0 -22 -4 -40 t-20 -39t-27 -34.5t-45.5 -41t-54 -42t-72.5 -53.5h183l-12 -71h-311z" />
<glyph unicode="&#xbe;" horiz-adv-x="935" d="M120 394h97q-2 -28 13.5 -41t51.5 -13q83 0 83 70q0 51 -79 51h-52l12 70h52q42 0 65.5 17t23.5 50q0 42 -55 42q-58 0 -77 -54h-98q16 58 66 90.5t121 32.5q64 0 101.5 -27t37.5 -75q0 -37 -26 -66.5t-72 -41.5q76 -12 76 -84q0 -63 -57.5 -103.5t-133.5 -40.5 q-79 0 -118 32t-32 91zM209 0l570 700h116l-570 -700h-116zM555 68l12 73l181 279h95l-183 -279h97l16 93h89l-16 -93h64l-13 -73h-64l-12 -68h-89l12 68h-189z" />
<glyph unicode="&#xbf;" horiz-adv-x="506" d="M14 -76q0 57 25.5 100t61.5 69.5t71 50.5t58 57t20 75h110q2 -42 -9.5 -74.5t-31.5 -53.5t-45 -38.5t-50 -33.5t-46 -33.5t-34 -44t-13 -60.5q0 -37 24 -56.5t66 -19.5q46 0 81 28.5t51 86.5h118q-22 -94 -93 -147t-173 -53q-89 0 -140 38.5t-51 108.5zM258 424 q0 35 25.5 59t60.5 24q27 0 43.5 -17t16.5 -44q0 -35 -25 -59t-61 -24q-27 0 -43.5 17t-16.5 44z" />
<glyph unicode="&#xc0;" horiz-adv-x="632" d="M4 0l369 700h115l134 -700h-116l-31 183h-265l-92 -183h-114zM252 267h208l-30 176l-20 149l-70 -149zM290 893h142l113 -141h-94z" />
<glyph unicode="&#xc1;" horiz-adv-x="632" d="M4 0l369 700h115l134 -700h-116l-31 183h-265l-92 -183h-114zM252 267h208l-30 176l-20 149l-70 -149zM332 752l152 141h151l-201 -141h-102z" />
<glyph unicode="&#xc2;" horiz-adv-x="632" d="M4 0l369 700h115l134 -700h-116l-31 183h-265l-92 -183h-114zM237 752l173 141h105l124 -141h-102l-86 66l-108 -66h-106zM252 267h208l-30 176l-20 149l-70 -149z" />
<glyph unicode="&#xc3;" horiz-adv-x="632" d="M4 0l369 700h115l134 -700h-116l-31 183h-265l-92 -183h-114zM252 267h208l-30 176l-20 149l-70 -149zM258 794q28 49 63 74t69 25q30 0 78.5 -22.5t61.5 -22.5q33 0 59 41l55 -28q-27 -48 -61.5 -73.5t-68.5 -25.5q-30 0 -78.5 22.5t-62.5 22.5q-32 0 -61 -41z" />
<glyph unicode="&#xc4;" horiz-adv-x="632" d="M4 0l369 700h115l134 -700h-116l-31 183h-265l-92 -183h-114zM252 267h208l-30 176l-20 149l-70 -149zM274 819q0 31 24 53t56 22q25 0 41 -16t16 -40q0 -31 -24 -53t-56 -22q-25 0 -41 15.5t-16 40.5zM492 819q0 31 23.5 53t55.5 22q25 0 41.5 -16t16.5 -41 q0 -30 -24.5 -52t-55.5 -22q-25 0 -41 15.5t-16 40.5z" />
<glyph unicode="&#xc5;" horiz-adv-x="632" d="M4 0l369 700h115l134 -700h-116l-31 183h-265l-92 -183h-114zM252 267h208l-30 176l-20 149l-70 -149zM331 806q0 50 40 82t96 32q45 0 73.5 -23t28.5 -61q0 -50 -40 -82t-96 -32q-45 0 -73.5 23t-28.5 61zM413 802q14 -26 44 -13q39 10 30 51q-13 26 -44 14 q-18 -5 -26 -19t-4 -33z" />
<glyph unicode="&#xc6;" horiz-adv-x="947" d="M4 0l593 700h419l-15 -86h-302l-36 -202h283l-16 -87h-283l-42 -239h303l-15 -86h-416l32 183h-227l-150 -183h-128zM350 267h174l49 275l-105 -131z" />
<glyph unicode="&#xc7;" horiz-adv-x="662" d="M92 265q0 198 106.5 324t268.5 126q110 0 174 -62.5t56 -184.5h-122q4 81 -30 121t-93 40q-101 0 -170 -99t-69 -263q0 -97 37 -146.5t104 -49.5q60 0 107.5 40t71.5 121h122q-33 -118 -115 -180.5t-188 -66.5l-46 -50q41 3 69.5 -15t28.5 -55q0 -52 -44 -82.5 t-101 -30.5q-42 0 -69 14l10 56q26 -13 62 -13q22 0 40.5 11.5t18.5 32.5q0 16 -14 24.5t-32 8.5q-20 0 -41 -6l-15 36l68 73q-97 15 -146 87.5t-49 188.5z" />
<glyph unicode="&#xc8;" horiz-adv-x="550" d="M81 0l123 700h415l-14 -86h-303l-36 -203h283l-15 -85h-283l-42 -240h303l-16 -86h-415zM257 893h142l113 -141h-94z" />
<glyph unicode="&#xc9;" horiz-adv-x="550" d="M81 0l123 700h415l-14 -86h-303l-36 -203h283l-15 -85h-283l-42 -240h303l-16 -86h-415zM303 752l152 141h151l-201 -141h-102z" />
<glyph unicode="&#xca;" horiz-adv-x="550" d="M81 0l123 700h415l-14 -86h-303l-36 -203h283l-15 -85h-283l-42 -240h303l-16 -86h-415zM219 752l173 141h105l124 -141h-102l-86 66l-108 -66h-106z" />
<glyph unicode="&#xcb;" horiz-adv-x="550" d="M81 0l123 700h415l-14 -86h-303l-36 -203h283l-15 -85h-283l-42 -240h303l-16 -86h-415zM255 819q0 31 24 53t56 22q25 0 41 -16t16 -40q0 -31 -24 -53t-56 -22q-25 0 -41 15.5t-16 40.5zM473 819q0 31 23.5 53t55.5 22q25 0 41.5 -16t16.5 -41q0 -30 -24.5 -52 t-55.5 -22q-25 0 -41 15.5t-16 40.5z" />
<glyph unicode="&#xcc;" horiz-adv-x="285" d="M81 0l123 700h113l-123 -700h-113zM114 893h142l113 -141h-94z" />
<glyph unicode="&#xcd;" horiz-adv-x="285" d="M81 0l123 700h113l-123 -700h-113zM176 752l152 141h151l-201 -141h-102z" />
<glyph unicode="&#xce;" horiz-adv-x="285" d="M71 752l173 141h105l124 -141h-102l-86 66l-108 -66h-106zM81 0l123 700h113l-123 -700h-113z" />
<glyph unicode="&#xcf;" horiz-adv-x="285" d="M81 0l123 700h113l-123 -700h-113zM135 819q0 31 24 53t56 22q25 0 41 -16t16 -40q0 -31 -24 -53t-56 -22q-25 0 -41 15.5t-16 40.5zM297 819q0 31 24 53t56 22q25 0 41 -16t16 -41q0 -30 -24 -52t-55 -22q-26 0 -42 15.5t-16 40.5z" />
<glyph unicode="&#xd0;" horiz-adv-x="703" d="M30 305l16 86h104l54 309h217q139 0 220 -75.5t81 -209.5q0 -188 -119.5 -301.5t-304.5 -113.5h-217l54 305h-105zM209 86h104q127 0 207.5 82t80.5 242q0 104 -52 154t-142 50h-105l-39 -223h146l-15 -86h-146z" />
<glyph unicode="&#xd1;" horiz-adv-x="717" d="M81 0l123 700h114l236 -539l22 142l70 397h103l-123 -700h-114l-236 538l-23 -142l-69 -396h-103zM306 794q28 49 63 74t69 25q30 0 78.5 -22.5t61.5 -22.5q33 0 59 41l55 -28q-27 -48 -61.5 -73.5t-68.5 -25.5q-30 0 -78.5 22.5t-62.5 22.5q-32 0 -61 -41z" />
<glyph unicode="&#xd2;" horiz-adv-x="731" d="M93 276q0 192 110.5 315.5t282.5 123.5q126 0 195.5 -78.5t69.5 -212.5q0 -192 -110 -315.5t-284 -123.5q-125 0 -194.5 78.5t-69.5 212.5zM213 276q0 -99 43 -152t117 -53q115 0 186.5 99.5t71.5 253.5q0 99 -43 152t-117 53q-115 0 -186.5 -99.5t-71.5 -253.5zM345 893 h142l113 -141h-94z" />
<glyph unicode="&#xd3;" horiz-adv-x="731" d="M93 276q0 192 110.5 315.5t282.5 123.5q126 0 195.5 -78.5t69.5 -212.5q0 -192 -110 -315.5t-284 -123.5q-125 0 -194.5 78.5t-69.5 212.5zM213 276q0 -99 43 -152t117 -53q115 0 186.5 99.5t71.5 253.5q0 99 -43 152t-117 53q-115 0 -186.5 -99.5t-71.5 -253.5zM387 752 l152 141h151l-201 -141h-102z" />
<glyph unicode="&#xd4;" horiz-adv-x="731" d="M93 276q0 192 110.5 315.5t282.5 123.5q126 0 195.5 -78.5t69.5 -212.5q0 -192 -110 -315.5t-284 -123.5q-125 0 -194.5 78.5t-69.5 212.5zM213 276q0 -99 43 -152t117 -53q115 0 186.5 99.5t71.5 253.5q0 99 -43 152t-117 53q-115 0 -186.5 -99.5t-71.5 -253.5zM292 752 l173 141h105l124 -141h-102l-86 66l-108 -66h-106z" />
<glyph unicode="&#xd5;" horiz-adv-x="731" d="M93 276q0 192 110.5 315.5t282.5 123.5q126 0 195.5 -78.5t69.5 -212.5q0 -192 -110 -315.5t-284 -123.5q-125 0 -194.5 78.5t-69.5 212.5zM213 276q0 -99 43 -152t117 -53q115 0 186.5 99.5t71.5 253.5q0 99 -43 152t-117 53q-115 0 -186.5 -99.5t-71.5 -253.5zM313 794 q28 49 63 74t69 25q30 0 78.5 -22.5t61.5 -22.5q33 0 59 41l55 -28q-27 -48 -61.5 -73.5t-68.5 -25.5q-30 0 -78.5 22.5t-62.5 22.5q-32 0 -61 -41z" />
<glyph unicode="&#xd6;" horiz-adv-x="731" d="M93 276q0 192 110.5 315.5t282.5 123.5q126 0 195.5 -78.5t69.5 -212.5q0 -192 -110 -315.5t-284 -123.5q-125 0 -194.5 78.5t-69.5 212.5zM213 276q0 -99 43 -152t117 -53q115 0 186.5 99.5t71.5 253.5q0 99 -43 152t-117 53q-115 0 -186.5 -99.5t-71.5 -253.5zM329 819 q0 31 24 53t56 22q25 0 41 -16t16 -40q0 -31 -24 -53t-56 -22q-25 0 -41 15.5t-16 40.5zM547 819q0 31 23.5 53t55.5 22q25 0 41.5 -16t16.5 -41q0 -30 -24.5 -52t-55.5 -22q-25 0 -41 15.5t-16 40.5z" />
<glyph unicode="&#xd7;" horiz-adv-x="513" d="M94 215l181 154l-123 152l68 58l123 -152l182 154l54 -65l-183 -155l124 -153l-68 -57l-124 153l-181 -154z" />
<glyph unicode="&#xd8;" horiz-adv-x="731" d="M47 -90l112 157q-66 78 -66 209q0 192 110.5 315.5t282.5 123.5q66 0 120 -23l70 98h120l-112 -157q67 -76 67 -209q0 -192 -110 -315.5t-284 -123.5q-68 0 -119 24l-71 -99h-120zM213 276q0 -64 18 -108l317 442q-32 19 -77 19q-115 0 -186.5 -99.5t-71.5 -253.5z M296 90q32 -19 77 -19q115 0 186.5 99.5t71.5 253.5q0 63 -19 109z" />
<glyph unicode="&#xd9;" horiz-adv-x="709" d="M115 230l82 470h113l-79 -450q-16 -90 14 -134.5t116 -44.5q167 0 195 159l83 470h102l-79 -450q-22 -127 -106.5 -196t-210.5 -69q-127 0 -189 63.5t-41 181.5zM335 893h142l113 -141h-94z" />
<glyph unicode="&#xda;" horiz-adv-x="709" d="M115 230l82 470h113l-79 -450q-16 -90 14 -134.5t116 -44.5q167 0 195 159l83 470h102l-79 -450q-22 -127 -106.5 -196t-210.5 -69q-127 0 -189 63.5t-41 181.5zM366 752l152 141h151l-201 -141h-102z" />
<glyph unicode="&#xdb;" horiz-adv-x="709" d="M115 230l82 470h113l-79 -450q-16 -90 14 -134.5t116 -44.5q167 0 195 159l83 470h102l-79 -450q-22 -127 -106.5 -196t-210.5 -69q-127 0 -189 63.5t-41 181.5zM278 752l173 141h105l124 -141h-102l-86 66l-108 -66h-106z" />
<glyph unicode="&#xdc;" horiz-adv-x="709" d="M115 230l82 470h113l-79 -450q-16 -90 14 -134.5t116 -44.5q167 0 195 159l83 470h102l-79 -450q-22 -127 -106.5 -196t-210.5 -69q-127 0 -189 63.5t-41 181.5zM314 819q0 31 24 53t56 22q25 0 41 -16t16 -40q0 -31 -24 -53t-56 -22q-25 0 -41 15.5t-16 40.5zM532 819 q0 31 23.5 53t55.5 22q25 0 41.5 -16t16.5 -41q0 -30 -24.5 -52t-55.5 -22q-25 0 -41 15.5t-16 40.5z" />
<glyph unicode="&#xdd;" horiz-adv-x="587" d="M137 700h116l107 -345l214 345h111l-289 -439l-46 -261h-112l46 261zM312 752l152 141h151l-201 -141h-102z" />
<glyph unicode="&#xde;" horiz-adv-x="589" d="M81 0l123 700h113l-20 -113h110q93 0 154.5 -49t61.5 -141q0 -86 -45 -148t-110.5 -89.5t-140.5 -27.5h-110l-23 -132h-113zM231 217h111q71 0 118 45t47 126q0 56 -31.5 85.5t-83.5 29.5h-110z" />
<glyph unicode="&#xdf;" horiz-adv-x="637" d="M71 0l87 496q22 125 106 194t192 69q78 0 129.5 -31t51.5 -95q0 -36 -15.5 -66.5t-38 -51t-45 -38.5t-38 -37t-15.5 -39t15.5 -37.5t38 -33t45 -33.5t38 -47.5t15.5 -65.5q0 -89 -66 -144t-153 -55q-88 0 -125.5 43.5t-28.5 121.5h108q-2 -46 12 -68.5t54 -22.5 q36 0 64.5 25.5t28.5 72.5q0 29 -16 51.5t-39 38.5t-46 32.5t-39 41t-16 55.5q0 38 23.5 71t51.5 54t51.5 51t23.5 61q0 73 -85 73q-60 0 -108.5 -46.5t-66.5 -142.5l-87 -497h-107z" />
<glyph unicode="&#xe0;" horiz-adv-x="585" d="M80 193q0 158 84 249.5t193 91.5q82 0 123 -61l8 46h107l-91 -519h-107l15 85l-6 -31q-80 -69 -172 -69q-70 0 -112 54t-42 154zM192 204q0 -69 26 -103.5t68 -34.5q70 0 131 51l60 339l-9 -50q-39 47 -105 47q-68 0 -119.5 -65.5t-51.5 -183.5zM253 736h130l81 -154h-88 z" />
<glyph unicode="&#xe1;" horiz-adv-x="585" d="M80 193q0 158 84 249.5t193 91.5q82 0 123 -61l8 46h107l-91 -519h-107l15 85l-6 -31q-80 -69 -172 -69q-70 0 -112 54t-42 154zM192 204q0 -69 26 -103.5t68 -34.5q70 0 131 51l60 339l-9 -50q-39 47 -105 47q-68 0 -119.5 -65.5t-51.5 -183.5zM285 582l127 154h140 l-173 -154h-94z" />
<glyph unicode="&#xe2;" horiz-adv-x="585" d="M80 193q0 158 84 249.5t193 91.5q82 0 123 -61l8 46h107l-91 -519h-107l15 85l-6 -31q-80 -69 -172 -69q-70 0 -112 54t-42 154zM192 204q0 -69 26 -103.5t68 -34.5q70 0 131 51l60 339l-9 -50q-39 47 -105 47q-68 0 -119.5 -65.5t-51.5 -183.5zM223 582l143 154h113 l86 -154h-89l-65 83l-95 -83h-93z" />
<glyph unicode="&#xe3;" horiz-adv-x="585" d="M80 193q0 158 84 249.5t193 91.5q82 0 123 -61l8 46h107l-91 -519h-107l15 85l-6 -31q-80 -69 -172 -69q-70 0 -112 54t-42 154zM192 204q0 -69 26 -103.5t68 -34.5q70 0 131 51l60 339l-9 -50q-39 47 -105 47q-68 0 -119.5 -65.5t-51.5 -183.5zM225 621q26 47 62 72.5 t68 25.5q30 0 70.5 -22.5t53.5 -22.5q29 0 57 42l55 -29q-26 -48 -62 -73t-68 -25q-30 0 -70.5 22t-54.5 22q-29 0 -57 -41z" />
<glyph unicode="&#xe4;" horiz-adv-x="585" d="M80 193q0 158 84 249.5t193 91.5q82 0 123 -61l8 46h107l-91 -519h-107l15 85l-6 -31q-80 -69 -172 -69q-70 0 -112 54t-42 154zM192 204q0 -69 26 -103.5t68 -34.5q70 0 131 51l60 339l-9 -50q-39 47 -105 47q-68 0 -119.5 -65.5t-51.5 -183.5zM245 653q0 31 24 53.5 t56 22.5q25 0 40.5 -16.5t15.5 -40.5q0 -31 -23.5 -54t-55.5 -23q-25 0 -41 16.5t-16 41.5zM441 652q0 31 24 54t56 23q25 0 40.5 -16.5t15.5 -41.5q0 -31 -24 -53.5t-56 -22.5q-25 0 -40.5 16.5t-15.5 40.5z" />
<glyph unicode="&#xe5;" horiz-adv-x="585" d="M80 193q0 158 84 249.5t193 91.5q82 0 123 -61l8 46h107l-91 -519h-107l15 85l-6 -31q-80 -69 -172 -69q-70 0 -112 54t-42 154zM192 204q0 -69 26 -103.5t68 -34.5q70 0 131 51l60 339l-9 -50q-39 47 -105 47q-68 0 -119.5 -65.5t-51.5 -183.5zM289 644q0 50 39.5 81 t95.5 31q46 0 74 -22.5t28 -60.5q0 -50 -39.5 -81t-96.5 -31q-45 0 -73 22.5t-28 60.5zM371 641q13 -27 43 -15q18 4 26.5 17.5t3.5 32.5q-12 28 -43 15q-18 -4 -26.5 -17.5t-3.5 -32.5z" />
<glyph unicode="&#xe6;" horiz-adv-x="874" d="M60 100q0 78 69.5 134.5t212.5 56.5q23 0 79 -4l11 59q20 115 -75 115q-103 0 -128 -115h-109q16 89 86 138.5t164 49.5q115 0 152 -72q75 72 174 72q114 0 159.5 -75t12.5 -215h-346q-2 -32 -2 -50q0 -136 93 -136q86 0 119 89h111q-21 -71 -89.5 -116.5t-154.5 -45.5 q-132 0 -172 100q-111 -100 -233 -100q-62 0 -98 31.5t-36 83.5zM172 126q0 -60 77 -60q76 0 162 78q-4 35 0 78q-35 4 -73 4q-87 0 -126.5 -28t-39.5 -72zM533 313h235q12 73 -11 111t-75 38t-91.5 -38t-57.5 -111z" />
<glyph unicode="&#xe7;" horiz-adv-x="533" d="M80 195q0 148 78.5 243.5t209.5 95.5q90 0 142 -51t45 -136h-111q4 114 -90 114q-71 0 -117.5 -74t-46.5 -192q0 -137 95 -137q91 0 127 111h110q-22 -80 -85 -129t-147 -54l-47 -51q41 3 69.5 -15t28.5 -55q0 -52 -44 -82.5t-101 -30.5q-42 0 -69 14l10 56 q26 -13 62 -13q22 0 40.5 11.5t18.5 32.5q0 16 -14 24.5t-32 8.5q-20 0 -41 -6l-15 36l68 73q-144 26 -144 206z" />
<glyph unicode="&#xe8;" horiz-adv-x="542" d="M80 194q0 148 81 244t203 96q114 0 159.5 -75t12.5 -215h-347q-2 -32 -2 -50q0 -136 94 -136q86 0 119 89h111q-22 -71 -90 -116.5t-154 -45.5q-95 0 -141 55.5t-46 153.5zM200 313h236q12 73 -11 111t-75 38q-51 0 -91 -38t-59 -111zM250 736h130l81 -154h-88z" />
<glyph unicode="&#xe9;" horiz-adv-x="542" d="M80 194q0 148 81 244t203 96q114 0 159.5 -75t12.5 -215h-347q-2 -32 -2 -50q0 -136 94 -136q86 0 119 89h111q-22 -71 -90 -116.5t-154 -45.5q-95 0 -141 55.5t-46 153.5zM200 313h236q12 73 -11 111t-75 38q-51 0 -91 -38t-59 -111zM280 582l127 154h140l-173 -154h-94 z" />
<glyph unicode="&#xea;" horiz-adv-x="542" d="M80 194q0 148 81 244t203 96q114 0 159.5 -75t12.5 -215h-347q-2 -32 -2 -50q0 -136 94 -136q86 0 119 89h111q-22 -71 -90 -116.5t-154 -45.5q-95 0 -141 55.5t-46 153.5zM200 313h236q12 73 -11 111t-75 38q-51 0 -91 -38t-59 -111zM200 582l143 154h113l86 -154h-89 l-65 83l-95 -83h-93z" />
<glyph unicode="&#xeb;" horiz-adv-x="542" d="M80 194q0 148 81 244t203 96q114 0 159.5 -75t12.5 -215h-347q-2 -32 -2 -50q0 -136 94 -136q86 0 119 89h111q-22 -71 -90 -116.5t-154 -45.5q-95 0 -141 55.5t-46 153.5zM200 313h236q12 73 -11 111t-75 38q-51 0 -91 -38t-59 -111zM220 653q0 31 24 53.5t56 22.5 q25 0 40.5 -16.5t15.5 -40.5q0 -31 -23.5 -54t-55.5 -23q-25 0 -41 16.5t-16 41.5zM416 652q0 31 24 54t56 23q25 0 40.5 -16.5t15.5 -41.5q0 -31 -24 -53.5t-56 -22.5q-25 0 -40.5 16.5t-15.5 40.5z" />
<glyph unicode="&#xec;" horiz-adv-x="259" d="M71 0l92 519h107l-92 -519h-107zM103 736h130l81 -154h-88z" />
<glyph unicode="&#xed;" horiz-adv-x="259" d="M71 0l92 519h107l-92 -519h-107zM141 582l127 154h140l-173 -154h-94z" />
<glyph unicode="&#xee;" horiz-adv-x="259" d="M56 582l143 154h113l86 -154h-89l-65 83l-95 -83h-93zM71 0l92 519h107l-92 -519h-107z" />
<glyph unicode="&#xef;" horiz-adv-x="259" d="M71 0l92 519h107l-92 -519h-107zM92 653q0 31 24 53.5t56 22.5q25 0 41 -16.5t16 -40.5q0 -31 -24 -54t-56 -23q-25 0 -41 16.5t-16 41.5zM254 652q0 31 24 54t56 23q25 0 40.5 -16.5t15.5 -41.5q0 -31 -23.5 -53.5t-55.5 -22.5q-25 0 -41 16.5t-16 40.5z" />
<glyph unicode="&#xf0;" horiz-adv-x="578" d="M79 196q0 133 79 224.5t195 91.5q55 0 97 -32q-22 65 -63 123l-138 -46l-33 64l122 41q-42 43 -94 82h136q35 -26 57 -49l124 42l34 -64l-109 -36q97 -136 97 -294q0 -153 -82 -255.5t-216 -102.5q-97 0 -151.5 56.5t-54.5 154.5zM190 199q0 -61 26 -99.5t83 -38.5 q80 0 126.5 74t46.5 201q0 30 -3 58q-40 46 -105 46q-74 0 -124 -65.5t-50 -175.5z" />
<glyph unicode="&#xf1;" horiz-adv-x="596" d="M71 0l92 519h107l-12 -67q97 82 195 82q68 0 105 -41.5t22 -129.5l-64 -363h-107l60 343q19 105 -77 105q-35 0 -75 -17.5t-70 -41.5l-69 -389h-107zM216 621q26 47 62 72.5t68 25.5q30 0 70.5 -22.5t53.5 -22.5q29 0 57 42l55 -29q-26 -48 -62 -73t-68 -25 q-30 0 -70.5 22t-54.5 22q-29 0 -57 -41z" />
<glyph unicode="&#xf2;" horiz-adv-x="580" d="M80 203q0 144 83 237.5t217 93.5q97 0 149.5 -59t52.5 -160q0 -143 -82.5 -236.5t-217.5 -93.5q-97 0 -149.5 59t-52.5 159zM191 200q0 -69 28 -105.5t77 -36.5q77 0 126 68.5t49 192.5q0 69 -27.5 105.5t-77.5 36.5q-77 0 -126 -68.5t-49 -192.5zM270 736h130l81 -154 h-88z" />
<glyph unicode="&#xf3;" horiz-adv-x="580" d="M80 203q0 144 83 237.5t217 93.5q97 0 149.5 -59t52.5 -160q0 -143 -82.5 -236.5t-217.5 -93.5q-97 0 -149.5 59t-52.5 159zM191 200q0 -69 28 -105.5t77 -36.5q77 0 126 68.5t49 192.5q0 69 -27.5 105.5t-77.5 36.5q-77 0 -126 -68.5t-49 -192.5zM294 582l127 154h140 l-173 -154h-94z" />
<glyph unicode="&#xf4;" horiz-adv-x="580" d="M80 203q0 144 83 237.5t217 93.5q97 0 149.5 -59t52.5 -160q0 -143 -82.5 -236.5t-217.5 -93.5q-97 0 -149.5 59t-52.5 159zM191 200q0 -69 28 -105.5t77 -36.5q77 0 126 68.5t49 192.5q0 69 -27.5 105.5t-77.5 36.5q-77 0 -126 -68.5t-49 -192.5zM216 582l143 154h113 l86 -154h-89l-65 83l-95 -83h-93z" />
<glyph unicode="&#xf5;" horiz-adv-x="580" d="M80 203q0 144 83 237.5t217 93.5q97 0 149.5 -59t52.5 -160q0 -143 -82.5 -236.5t-217.5 -93.5q-97 0 -149.5 59t-52.5 159zM191 200q0 -69 28 -105.5t77 -36.5q77 0 126 68.5t49 192.5q0 69 -27.5 105.5t-77.5 36.5q-77 0 -126 -68.5t-49 -192.5zM218 621q26 47 62 72.5 t68 25.5q30 0 70.5 -22.5t53.5 -22.5q29 0 57 42l55 -29q-26 -48 -62 -73t-68 -25q-30 0 -70.5 22t-54.5 22q-29 0 -57 -41z" />
<glyph unicode="&#xf6;" horiz-adv-x="580" d="M80 203q0 144 83 237.5t217 93.5q97 0 149.5 -59t52.5 -160q0 -143 -82.5 -236.5t-217.5 -93.5q-97 0 -149.5 59t-52.5 159zM191 200q0 -69 28 -105.5t77 -36.5q77 0 126 68.5t49 192.5q0 69 -27.5 105.5t-77.5 36.5q-77 0 -126 -68.5t-49 -192.5zM236 653q0 31 24 53.5 t56 22.5q25 0 40.5 -16.5t15.5 -40.5q0 -31 -23.5 -54t-55.5 -23q-25 0 -41 16.5t-16 41.5zM432 652q0 31 24 54t56 23q25 0 40.5 -16.5t15.5 -41.5q0 -31 -24 -53.5t-56 -22.5q-25 0 -40.5 16.5t-15.5 40.5z" />
<glyph unicode="&#xf7;" horiz-adv-x="561" d="M100 323l15 86h466l-15 -86h-466zM240 170q0 30 24 51.5t55 21.5q24 0 39.5 -15.5t15.5 -39.5q0 -30 -23.5 -52t-53.5 -22q-25 0 -41 16t-16 40zM307 544q0 30 23 51.5t55 21.5q24 0 39.5 -16t15.5 -39q0 -30 -23.5 -52t-54.5 -22q-24 0 -39.5 16t-15.5 40z" />
<glyph unicode="&#xf8;" horiz-adv-x="580" d="M23 -80l101 135q-44 56 -44 148q0 144 83 237.5t217 93.5q49 0 89 -17l61 82h108l-100 -134q44 -58 44 -150q0 -143 -82.5 -236.5t-217.5 -93.5q-50 0 -90 17l-61 -82h-108zM191 200q0 -19 4 -49l222 297q-20 13 -51 13q-77 0 -126 -68.5t-49 -192.5zM244 71 q24 -13 52 -13q77 0 126 68.5t49 192.5q0 25 -5 50z" />
<glyph unicode="&#xf9;" horiz-adv-x="592" d="M98 155l65 364h107l-61 -344q-19 -104 75 -104q70 0 143 59l69 389h107l-92 -519h-107l12 67q-97 -82 -193 -82q-68 0 -104 41t-21 129zM269 736h130l81 -154h-88z" />
<glyph unicode="&#xfa;" horiz-adv-x="592" d="M98 155l65 364h107l-61 -344q-19 -104 75 -104q70 0 143 59l69 389h107l-92 -519h-107l12 67q-97 -82 -193 -82q-68 0 -104 41t-21 129zM307 582l127 154h140l-173 -154h-94z" />
<glyph unicode="&#xfb;" horiz-adv-x="592" d="M98 155l65 364h107l-61 -344q-19 -104 75 -104q70 0 143 59l69 389h107l-92 -519h-107l12 67q-97 -82 -193 -82q-68 0 -104 41t-21 129zM222 582l143 154h113l86 -154h-89l-65 83l-95 -83h-93z" />
<glyph unicode="&#xfc;" horiz-adv-x="592" d="M98 155l65 364h107l-61 -344q-19 -104 75 -104q70 0 143 59l69 389h107l-92 -519h-107l12 67q-97 -82 -193 -82q-68 0 -104 41t-21 129zM241 653q0 31 24 53.5t56 22.5q25 0 40.5 -16.5t15.5 -40.5q0 -31 -23.5 -54t-55.5 -23q-25 0 -41 16.5t-16 41.5zM437 652 q0 31 24 54t56 23q25 0 40.5 -16.5t15.5 -41.5q0 -31 -24 -53.5t-56 -22.5q-25 0 -40.5 16.5t-15.5 40.5z" />
<glyph unicode="&#xfd;" horiz-adv-x="505" d="M81 -208l119 212l-104 515h113l43 -243l19 -146l71 146l127 243h106l-395 -727h-99zM259 582l127 154h140l-173 -154h-94z" />
<glyph unicode="&#xfe;" horiz-adv-x="585" d="M34 -208l168 952h107l-168 -952h-107zM186 46l12 67q39 -47 105 -47q68 0 120 65.5t52 183.5q0 69 -26.5 103.5t-68.5 34.5q-71 0 -131 -51l11 63q81 69 172 69q70 0 112.5 -54t42.5 -154q0 -158 -84.5 -249.5t-193.5 -91.5q-82 0 -123 61z" />
<glyph unicode="&#xff;" horiz-adv-x="505" d="M81 -208l119 212l-104 515h113l43 -243l19 -146l71 146l127 243h106l-395 -727h-99zM204 653q0 31 24 53.5t56 22.5q25 0 40.5 -16.5t15.5 -40.5q0 -31 -23.5 -54t-55.5 -23q-25 0 -41 16.5t-16 41.5zM400 652q0 31 24 54t56 23q25 0 40.5 -16.5t15.5 -41.5 q0 -31 -24 -53.5t-56 -22.5q-25 0 -40.5 16.5t-15.5 40.5z" />
<glyph unicode="&#x100;" horiz-adv-x="632" d="M4 0l369 700h115l134 -700h-116l-31 183h-265l-92 -183h-114zM252 267h208l-30 176l-20 149l-70 -149zM281 784l14 78h325l-14 -78h-325z" />
<glyph unicode="&#x101;" horiz-adv-x="585" d="M80 193q0 158 84 249.5t193 91.5q82 0 123 -61l8 46h107l-91 -519h-107l15 85l-6 -31q-80 -69 -172 -69q-70 0 -112 54t-42 154zM192 204q0 -69 26 -103.5t68 -34.5q70 0 131 51l60 339l-9 -50q-39 47 -105 47q-68 0 -119.5 -65.5t-51.5 -183.5zM249 612l14 78h302 l-14 -78h-302z" />
<glyph unicode="&#x102;" horiz-adv-x="632" d="M4 0l369 700h115l134 -700h-116l-31 183h-265l-92 -183h-114zM252 267h208l-30 176l-20 149l-70 -149zM306 893h76q-5 -29 12.5 -47.5t57.5 -18.5q39 0 61.5 18.5t27.5 47.5h79q-13 -73 -64 -112t-120 -39t-105.5 39t-24.5 112z" />
<glyph unicode="&#x103;" horiz-adv-x="585" d="M80 193q0 158 84 249.5t193 91.5q82 0 123 -61l8 46h107l-91 -519h-107l15 85l-6 -31q-80 -69 -172 -69q-70 0 -112 54t-42 154zM192 204q0 -69 26 -103.5t68 -34.5q70 0 131 51l60 339l-9 -50q-39 47 -105 47q-68 0 -119.5 -65.5t-51.5 -183.5zM275 736h75q-6 -35 8 -58 t49 -23t56.5 22.5t27.5 58.5h78q-15 -80 -64 -121.5t-112 -41.5t-97.5 41.5t-20.5 121.5z" />
<glyph unicode="&#x104;" horiz-adv-x="632" d="M4 0l369 700h115l134 -700h-1q-144 -68 -144 -141q0 -18 12 -28.5t29 -10.5q31 0 75 21l-11 -65q-48 -24 -105 -24q-44 0 -68.5 24t-24.5 61q0 93 139 163h-17l-31 183h-265l-92 -183h-114zM252 267h208l-30 176l-20 149l-70 -149z" />
<glyph unicode="&#x105;" horiz-adv-x="585" d="M80 193q0 158 84 249.5t193 91.5q82 0 123 -61l8 46h107l-91 -519h-1q-144 -68 -144 -141q0 -18 12 -28.5t29 -10.5q31 0 75 21l-11 -65q-48 -24 -105 -24q-44 0 -68.5 24t-24.5 61q0 93 139 163h-8l15 85l-6 -31q-80 -69 -172 -69q-70 0 -112 54t-42 154zM192 204 q0 -69 26 -103.5t68 -34.5q70 0 131 51l60 339l-9 -50q-39 47 -105 47q-68 0 -119.5 -65.5t-51.5 -183.5z" />
<glyph unicode="&#x106;" horiz-adv-x="662" d="M92 265q0 198 106.5 324t268.5 126q110 0 174 -62.5t56 -184.5h-122q4 81 -30 121t-93 40q-101 0 -170 -99t-69 -263q0 -97 37 -146.5t104 -49.5q60 0 107.5 40t71.5 121h122q-35 -122 -121 -184.5t-196 -62.5q-122 0 -184 74.5t-62 205.5zM340 752l152 141h151 l-201 -141h-102z" />
<glyph unicode="&#x107;" horiz-adv-x="533" d="M80 195q0 148 78.5 243.5t209.5 95.5q90 0 142 -51t45 -136h-111q4 114 -90 114q-71 0 -117.5 -74t-46.5 -192q0 -137 95 -137q91 0 127 111h110q-24 -84 -92.5 -134t-158.5 -50q-97 0 -144 55.5t-47 154.5zM268 582l127 154h140l-173 -154h-94z" />
<glyph unicode="&#x108;" horiz-adv-x="662" d="M92 265q0 198 106.5 324t268.5 126q110 0 174 -62.5t56 -184.5h-122q4 81 -30 121t-93 40q-101 0 -170 -99t-69 -263q0 -97 37 -146.5t104 -49.5q60 0 107.5 40t71.5 121h122q-35 -122 -121 -184.5t-196 -62.5q-122 0 -184 74.5t-62 205.5zM259 752l173 141h105l124 -141 h-102l-86 66l-108 -66h-106z" />
<glyph unicode="&#x109;" horiz-adv-x="533" d="M80 195q0 148 78.5 243.5t209.5 95.5q90 0 142 -51t45 -136h-111q4 114 -90 114q-71 0 -117.5 -74t-46.5 -192q0 -137 95 -137q91 0 127 111h110q-24 -84 -92.5 -134t-158.5 -50q-97 0 -144 55.5t-47 154.5zM198 582l143 154h113l86 -154h-89l-65 83l-95 -83h-93z" />
<glyph unicode="&#x10a;" horiz-adv-x="662" d="M92 265q0 198 106.5 324t268.5 126q110 0 174 -62.5t56 -184.5h-122q4 81 -30 121t-93 40q-101 0 -170 -99t-69 -263q0 -97 37 -146.5t104 -49.5q60 0 107.5 40t71.5 121h122q-35 -122 -121 -184.5t-196 -62.5q-122 0 -184 74.5t-62 205.5zM402 819q0 31 24.5 53.5 t57.5 22.5q26 0 42.5 -16t16.5 -42q0 -31 -24.5 -53.5t-57.5 -22.5q-26 0 -42.5 16t-16.5 42z" />
<glyph unicode="&#x10b;" horiz-adv-x="533" d="M80 195q0 148 78.5 243.5t209.5 95.5q90 0 142 -51t45 -136h-111q4 114 -90 114q-71 0 -117.5 -74t-46.5 -192q0 -137 95 -137q91 0 127 111h110q-24 -84 -92.5 -134t-158.5 -50q-97 0 -144 55.5t-47 154.5zM313 652q0 32 24.5 55.5t57.5 23.5q26 0 42 -17t16 -42 q0 -32 -24.5 -55t-57.5 -23q-26 0 -42 16.5t-16 41.5z" />
<glyph unicode="&#x10c;" horiz-adv-x="662" d="M92 265q0 198 106.5 324t268.5 126q110 0 174 -62.5t56 -184.5h-122q4 81 -30 121t-93 40q-101 0 -170 -99t-69 -263q0 -97 37 -146.5t104 -49.5q60 0 107.5 40t71.5 121h122q-35 -122 -121 -184.5t-196 -62.5q-122 0 -184 74.5t-62 205.5zM283 893h102l86 -66l109 66 h106l-173 -141h-106z" />
<glyph unicode="&#x10d;" horiz-adv-x="533" d="M80 195q0 148 78.5 243.5t209.5 95.5q90 0 142 -51t45 -136h-111q4 114 -90 114q-71 0 -117.5 -74t-46.5 -192q0 -137 95 -137q91 0 127 111h110q-24 -84 -92.5 -134t-158.5 -50q-97 0 -144 55.5t-47 154.5zM226 736h89l65 -82l95 82h93l-142 -154h-113z" />
<glyph unicode="&#x10e;" horiz-adv-x="703" d="M81 0l123 700h217q139 0 220 -75.5t81 -209.5q0 -188 -119.5 -301.5t-304.5 -113.5h-217zM209 86h104q127 0 207.5 82t80.5 242q0 104 -52 154t-142 50h-105zM253 893h102l86 -66l109 66h106l-173 -141h-106z" />
<glyph unicode="&#x10f;" horiz-adv-x="585" d="M80 193q0 158 84 249.5t193 91.5q82 0 123 -61l-12 -67q-39 47 -105 47q-68 0 -119.5 -65.5t-51.5 -183.5q0 -69 26 -103.5t68 -34.5q71 0 132 51l110 627h107l-131 -744h-107l16 89l-7 -35q-80 -69 -172 -69q-70 0 -112 54t-42 154zM665 577l40 226h99l-63 -226h-76z " />
<glyph unicode="&#x110;" horiz-adv-x="703" d="M30 305l16 86h104l54 309h217q139 0 220 -75.5t81 -209.5q0 -188 -119.5 -301.5t-304.5 -113.5h-217l54 305h-105zM209 86h104q127 0 207.5 82t80.5 242q0 104 -52 154t-142 50h-105l-39 -223h146l-15 -86h-146z" />
<glyph unicode="&#x111;" horiz-adv-x="585" d="M80 193q0 158 84 249.5t193 91.5q82 0 123 -61l-12 -67q-39 47 -105 47q-68 0 -119.5 -65.5t-51.5 -183.5q0 -69 26 -103.5t68 -34.5q71 0 132 51l85 483h-117l14 78h116l12 66h107l-12 -66h79l-14 -78h-78l-106 -600h-107l16 89l-7 -35q-80 -69 -172 -69q-70 0 -112 54 t-42 154z" />
<glyph unicode="&#x112;" horiz-adv-x="550" d="M81 0l123 700h415l-14 -86h-303l-36 -203h283l-15 -85h-283l-42 -240h303l-16 -86h-415zM262 784l14 78h325l-14 -78h-325z" />
<glyph unicode="&#x113;" horiz-adv-x="542" d="M80 194q0 148 81 244t203 96q114 0 159.5 -75t12.5 -215h-347q-2 -32 -2 -50q0 -136 94 -136q86 0 119 89h111q-22 -71 -90 -116.5t-154 -45.5q-95 0 -141 55.5t-46 153.5zM200 313h236q12 73 -11 111t-75 38q-51 0 -91 -38t-59 -111zM223 612l14 78h302l-14 -78h-302z " />
<glyph unicode="&#x114;" horiz-adv-x="550" d="M81 0l123 700h415l-14 -86h-303l-36 -203h283l-15 -85h-283l-42 -240h303l-16 -86h-415zM287 893h76q-5 -29 12.5 -47.5t57.5 -18.5q39 0 61.5 18.5t27.5 47.5h79q-13 -73 -64 -112t-120 -39t-105.5 39t-24.5 112z" />
<glyph unicode="&#x115;" horiz-adv-x="542" d="M80 194q0 148 81 244t203 96q114 0 159.5 -75t12.5 -215h-347q-2 -32 -2 -50q0 -136 94 -136q86 0 119 89h111q-22 -71 -90 -116.5t-154 -45.5q-95 0 -141 55.5t-46 153.5zM200 313h236q12 73 -11 111t-75 38q-51 0 -91 -38t-59 -111zM253 736h75q-6 -35 8 -58t49 -23 t56.5 22.5t27.5 58.5h78q-15 -80 -64 -121.5t-112 -41.5t-97.5 41.5t-20.5 121.5z" />
<glyph unicode="&#x116;" horiz-adv-x="550" d="M81 0l123 700h415l-14 -86h-303l-36 -203h283l-15 -85h-283l-42 -240h303l-16 -86h-415zM362 819q0 31 24.5 53.5t57.5 22.5q26 0 42.5 -16t16.5 -42q0 -31 -24.5 -53.5t-57.5 -22.5q-26 0 -42.5 16t-16.5 42z" />
<glyph unicode="&#x117;" horiz-adv-x="542" d="M80 194q0 148 81 244t203 96q114 0 159.5 -75t12.5 -215h-347q-2 -32 -2 -50q0 -136 94 -136q86 0 119 89h111q-22 -71 -90 -116.5t-154 -45.5q-95 0 -141 55.5t-46 153.5zM200 313h236q12 73 -11 111t-75 38q-51 0 -91 -38t-59 -111zM309 652q0 32 24.5 55.5t57.5 23.5 q26 0 42 -17t16 -42q0 -32 -24.5 -55t-57.5 -23q-26 0 -42 16.5t-16 41.5z" />
<glyph unicode="&#x118;" horiz-adv-x="550" d="M81 0l123 700h415l-14 -86h-303l-36 -203h283l-15 -85h-283l-42 -240h303l-16 -86q-144 -68 -144 -141q0 -18 12 -28.5t29 -10.5q31 0 75 21l-11 -65q-48 -24 -105 -24q-44 0 -68.5 24t-24.5 61q0 93 139 163h-317z" />
<glyph unicode="&#x119;" horiz-adv-x="542" d="M80 194q0 148 81 244t203 96q114 0 159.5 -75t12.5 -215h-347q-2 -32 -2 -50q0 -136 94 -136q86 0 119 89h111q-10 -35 -35 -66h1q-8 -11 -24.5 -32.5t-24 -31t-21 -27.5t-19.5 -27t-15.5 -23.5t-13.5 -23.5t-9 -20t-7 -20t-2 -17q0 -18 12 -28.5t29 -10.5q30 0 74 21 l-10 -65q-48 -24 -105 -24q-44 0 -68.5 24t-24.5 61q0 35 18 67.5t72 89.5q-34 -9 -71 -9q-95 0 -141 55.5t-46 153.5zM200 313h236q12 73 -11 111t-75 38q-51 0 -91 -38t-59 -111z" />
<glyph unicode="&#x11a;" horiz-adv-x="550" d="M81 0l123 700h415l-14 -86h-303l-36 -203h283l-15 -85h-283l-42 -240h303l-16 -86h-415zM243 893h102l86 -66l109 66h106l-173 -141h-106z" />
<glyph unicode="&#x11b;" horiz-adv-x="542" d="M80 194q0 148 81 244t203 96q114 0 159.5 -75t12.5 -215h-347q-2 -32 -2 -50q0 -136 94 -136q86 0 119 89h111q-22 -71 -90 -116.5t-154 -45.5q-95 0 -141 55.5t-46 153.5zM200 313h236q12 73 -11 111t-75 38q-51 0 -91 -38t-59 -111zM228 736h89l65 -82l95 82h93 l-142 -154h-113z" />
<glyph unicode="&#x11c;" horiz-adv-x="672" d="M92 259q0 202 106 329t271 127q107 0 169 -59.5t56 -171.5h-122q3 72 -29 108.5t-89 36.5q-104 0 -172 -98.5t-68 -256.5q0 -100 39 -152t102 -52q90 0 169 68l24 132h-155l14 83h265l-62 -353h-110l12 66q-38 -35 -95 -58t-109 -23q-105 0 -160.5 73t-55.5 201zM260 752 l173 141h105l124 -141h-102l-86 66l-108 -66h-106z" />
<glyph unicode="&#x11d;" horiz-adv-x="580" d="M44 -51h109q-11 -99 96 -99q53 0 93 33t53 107l12 68q-83 -69 -172 -69q-70 0 -112.5 53.5t-42.5 152.5q0 81 24.5 147.5t64.5 107t88.5 62.5t99.5 22q82 0 123 -61l8 46h107l-91 -516q-20 -113 -92.5 -169.5t-175.5 -56.5q-99 0 -150.5 44.5t-41.5 127.5zM192 207 q0 -69 26.5 -102.5t68.5 -33.5q71 0 131 50l57 326l-7 -41q-39 47 -105 47q-69 0 -120 -64t-51 -182zM223 582l143 154h113l86 -154h-89l-65 83l-95 -83h-93z" />
<glyph unicode="&#x11e;" horiz-adv-x="672" d="M92 259q0 202 106 329t271 127q107 0 169 -59.5t56 -171.5h-122q3 72 -29 108.5t-89 36.5q-104 0 -172 -98.5t-68 -256.5q0 -100 39 -152t102 -52q90 0 169 68l24 132h-155l14 83h265l-62 -353h-110l12 66q-38 -35 -95 -58t-109 -23q-105 0 -160.5 73t-55.5 201zM328 893 h76q-5 -29 12.5 -47.5t57.5 -18.5q39 0 61.5 18.5t27.5 47.5h79q-13 -73 -64 -112t-120 -39t-105.5 39t-24.5 112z" />
<glyph unicode="&#x11f;" horiz-adv-x="580" d="M44 -51h109q-11 -99 96 -99q53 0 93 33t53 107l12 68q-83 -69 -172 -69q-70 0 -112.5 53.5t-42.5 152.5q0 81 24.5 147.5t64.5 107t88.5 62.5t99.5 22q82 0 123 -61l8 46h107l-91 -516q-20 -113 -92.5 -169.5t-175.5 -56.5q-99 0 -150.5 44.5t-41.5 127.5zM192 207 q0 -69 26.5 -102.5t68.5 -33.5q71 0 131 50l57 326l-7 -41q-39 47 -105 47q-69 0 -120 -64t-51 -182zM275 736h75q-6 -35 8 -58t49 -23t56.5 22.5t27.5 58.5h78q-15 -80 -64 -121.5t-112 -41.5t-97.5 41.5t-20.5 121.5z" />
<glyph unicode="&#x120;" horiz-adv-x="672" d="M92 259q0 202 106 329t271 127q107 0 169 -59.5t56 -171.5h-122q3 72 -29 108.5t-89 36.5q-104 0 -172 -98.5t-68 -256.5q0 -100 39 -152t102 -52q90 0 169 68l24 132h-155l14 83h265l-62 -353h-110l12 66q-38 -35 -95 -58t-109 -23q-105 0 -160.5 73t-55.5 201zM400 819 q0 31 24.5 53.5t57.5 22.5q26 0 42.5 -16t16.5 -42q0 -31 -24.5 -53.5t-57.5 -22.5q-26 0 -42.5 16t-16.5 42z" />
<glyph unicode="&#x121;" horiz-adv-x="580" d="M44 -51h109q-11 -99 96 -99q53 0 93 33t53 107l12 68q-83 -69 -172 -69q-70 0 -112.5 53.5t-42.5 152.5q0 81 24.5 147.5t64.5 107t88.5 62.5t99.5 22q82 0 123 -61l8 46h107l-91 -516q-20 -113 -92.5 -169.5t-175.5 -56.5q-99 0 -150.5 44.5t-41.5 127.5zM192 207 q0 -69 26.5 -102.5t68.5 -33.5q71 0 131 50l57 326l-7 -41q-39 47 -105 47q-69 0 -120 -64t-51 -182zM316 652q0 32 24.5 55.5t57.5 23.5q26 0 42 -17t16 -42q0 -32 -24.5 -55t-57.5 -23q-26 0 -42 16.5t-16 41.5z" />
<glyph unicode="&#x122;" horiz-adv-x="672" d="M92 259q0 202 106 329t271 127q107 0 169 -59.5t56 -171.5h-122q3 72 -29 108.5t-89 36.5q-104 0 -172 -98.5t-68 -256.5q0 -100 39 -152t102 -52q90 0 169 68l24 132h-155l14 83h265l-62 -353h-110l12 66q-38 -35 -95 -58t-109 -23q-105 0 -160.5 73t-55.5 201z M230 -248l53 186h103l-79 -186h-77z" />
<glyph unicode="&#x123;" horiz-adv-x="580" d="M44 -51h109q-11 -99 96 -99q53 0 93 33t53 107l12 68q-83 -69 -172 -69q-70 0 -112.5 53.5t-42.5 152.5q0 81 24.5 147.5t64.5 107t88.5 62.5t99.5 22q82 0 123 -61l8 46h107l-91 -516q-20 -113 -92.5 -169.5t-175.5 -56.5q-99 0 -150.5 44.5t-41.5 127.5zM192 207 q0 -69 26.5 -102.5t68.5 -33.5q71 0 131 50l57 326l-7 -41q-39 47 -105 47q-69 0 -120 -64t-51 -182zM314 583l79 186h77l-53 -186h-103z" />
<glyph unicode="&#x124;" horiz-adv-x="730" d="M81 0l123 700h113l-51 -289h333l50 289h113l-123 -700h-113l58 326h-333l-57 -326h-113zM291 752l173 141h105l124 -141h-102l-86 66l-108 -66h-106z" />
<glyph unicode="&#x125;" horiz-adv-x="599" d="M59 782l173 141h105l124 -141h-102l-86 66l-108 -66h-106zM71 0l131 744h107l-52 -293q97 83 196 83q68 0 105 -41.5t22 -129.5l-64 -363h-107l60 343q19 105 -77 105q-35 0 -75.5 -17.5t-70.5 -42.5l-68 -388h-107z" />
<glyph unicode="&#x126;" horiz-adv-x="730" d="M81 0l90 510h-77l15 86h77l18 104h113l-18 -104h332l18 104h113l-18 -104h77l-15 -86h-77l-90 -510h-113l55 312h-332l-55 -312h-113zM264 398h332l20 112h-332z" />
<glyph unicode="&#x127;" horiz-adv-x="599" d="M71 0l106 600h-78l14 78h77l12 66h107l-12 -66h118l-14 -78h-117l-27 -149q97 83 196 83q68 0 105 -41.5t22 -129.5l-64 -363h-107l60 343q19 105 -77 105q-35 0 -75.5 -17.5t-70.5 -42.5l-68 -388h-107z" />
<glyph unicode="&#x128;" horiz-adv-x="285" d="M81 0l123 700h113l-123 -700h-113zM92 794q28 49 63 74t69 25q30 0 78.5 -22.5t61.5 -22.5q33 0 59 41l55 -28q-27 -48 -61.5 -73.5t-68.5 -25.5q-30 0 -78.5 22.5t-62.5 22.5q-32 0 -61 -41z" />
<glyph unicode="&#x129;" horiz-adv-x="259" d="M58 621q26 47 62 72.5t68 25.5q30 0 70.5 -22.5t53.5 -22.5q29 0 57 42l55 -29q-26 -48 -62 -73t-68 -25q-30 0 -70.5 22t-54.5 22q-29 0 -57 -41zM71 0l92 519h107l-92 -519h-107z" />
<glyph unicode="&#x12a;" horiz-adv-x="285" d="M81 0l123 700h113l-123 -700h-113zM152 784l13 78h251l-13 -78h-251z" />
<glyph unicode="&#x12b;" horiz-adv-x="259" d="M71 0l92 519h107l-92 -519h-107zM118 612l14 78h228l-14 -78h-228z" />
<glyph unicode="&#x12c;" horiz-adv-x="285" d="M81 0l123 700h113l-123 -700h-113zM139 893h76q-5 -29 12.5 -47.5t57.5 -18.5q39 0 61.5 18.5t27.5 47.5h79q-13 -73 -64 -112t-120 -39t-105.5 39t-24.5 112z" />
<glyph unicode="&#x12d;" horiz-adv-x="259" d="M71 0l92 519h107l-92 -519h-107zM108 736h75q-6 -35 8 -58t49 -23t56.5 22.5t27.5 58.5h78q-15 -80 -64 -121.5t-112 -41.5t-97.5 41.5t-20.5 121.5z" />
<glyph unicode="&#x12e;" horiz-adv-x="285" d="M-43 -163q0 93 139 163h-15l123 700h113l-123 -700q-144 -68 -144 -141q0 -18 12 -28.5t29 -10.5q31 0 75 21l-11 -65q-48 -24 -105 -24q-44 0 -68.5 24t-24.5 61z" />
<glyph unicode="&#x12f;" horiz-adv-x="259" d="M-59 -163q0 93 139 163h-9l92 519h107l-92 -519q-144 -68 -144 -141q0 -18 12 -28.5t29 -10.5q31 0 75 21l-11 -65q-48 -24 -105 -24q-44 0 -68.5 24t-24.5 61zM173 652q0 32 24 55.5t56 23.5q26 0 41.5 -17t15.5 -42q0 -32 -24.5 -55t-56.5 -23q-25 0 -40.5 16.5 t-15.5 41.5z" />
<glyph unicode="&#x130;" horiz-adv-x="285" d="M81 0l123 700h113l-123 -700h-113zM214 819q0 31 24.5 53.5t57.5 22.5q26 0 42.5 -16t16.5 -42q0 -31 -24.5 -53.5t-57.5 -22.5q-26 0 -42.5 16t-16.5 42z" />
<glyph unicode="&#x131;" horiz-adv-x="259" d="M71 0l92 519h107l-92 -519h-107z" />
<glyph unicode="&#x132;" horiz-adv-x="856" d="M81 0l123 700h113l-123 -700h-113zM346 229h117q-12 -88 10.5 -124t78.5 -36q54 0 91.5 31t48.5 92l90 508h112l-85 -488q-20 -115 -94.5 -171t-177.5 -56q-48 0 -85.5 12.5t-66 40t-39 76t-0.5 115.5z" />
<glyph unicode="&#x133;" horiz-adv-x="518" d="M71 0l92 519h107l-92 -519h-107zM173 652q0 32 24 55.5t56 23.5q26 0 41.5 -17t15.5 -42q0 -32 -24.5 -55t-56.5 -23q-25 0 -40.5 16.5t-15.5 41.5zM292 -208l129 727h107l-129 -727h-107zM431 652q0 32 24 55.5t56 23.5q26 0 41.5 -17t15.5 -42q0 -32 -24.5 -55 t-56.5 -23q-25 0 -40.5 16.5t-15.5 41.5z" />
<glyph unicode="&#x134;" horiz-adv-x="571" d="M62 229h117q-12 -88 10.5 -124t78.5 -36q54 0 91.5 31t48.5 92l90 508h112l-85 -488q-20 -115 -94.5 -171t-177.5 -56q-48 0 -85.5 12.5t-66 40t-39 76t-0.5 115.5zM364 752l173 141h105l124 -141h-102l-86 66l-108 -66h-106z" />
<glyph unicode="&#x135;" horiz-adv-x="259" d="M34 -208l129 727h107l-129 -727h-107zM56 582l143 154h113l86 -154h-89l-65 83l-95 -83h-93z" />
<glyph unicode="&#x136;" horiz-adv-x="622" d="M81 0l123 700h113l-57 -327l296 327h123l-309 -331l224 -369h-132l-205 357l-63 -357h-113zM175 -248l53 186h103l-79 -186h-77z" />
<glyph unicode="&#x137;" horiz-adv-x="519" d="M71 0l131 744h107l-81 -461l234 236h119l-248 -240l177 -279h-123l-162 267l-47 -267h-107zM128 -248l53 186h103l-79 -186h-77z" />
<glyph unicode="&#x138;" horiz-adv-x="519" d="M71 0l92 519h107l-42 -236l234 236h119l-248 -240l177 -279h-123l-162 266l-47 -266h-107z" />
<glyph unicode="&#x139;" horiz-adv-x="516" d="M81 0l123 700h113l-108 -614h271l-16 -86h-383zM173 752l152 141h151l-201 -141h-102z" />
<glyph unicode="&#x13a;" horiz-adv-x="259" d="M71 0l131 744h107l-131 -744h-107zM167 782l152 141h151l-201 -141h-102z" />
<glyph unicode="&#x13b;" horiz-adv-x="516" d="M81 0l123 700h113l-108 -614h271l-16 -86h-383zM149 -248l53 186h103l-79 -186h-77z" />
<glyph unicode="&#x13c;" horiz-adv-x="259" d="M15 -248l53 186h103l-79 -186h-77zM71 0l131 744h107l-131 -744h-107z" />
<glyph unicode="&#x13d;" horiz-adv-x="516" d="M81 0l123 700h113l-108 -614h271l-16 -86h-383zM352 577l40 226h99l-63 -226h-76z" />
<glyph unicode="&#x13e;" horiz-adv-x="259" d="M71 0l131 744h107l-131 -744h-107zM340 577l40 226h99l-63 -226h-76z" />
<glyph unicode="&#x13f;" horiz-adv-x="516" d="M81 0l123 700h113l-108 -614h271l-16 -86h-383zM331 354q0 34 25.5 58.5t60.5 24.5q27 0 43.5 -17t16.5 -44q0 -34 -25 -58.5t-60 -24.5q-28 0 -44.5 17t-16.5 44z" />
<glyph unicode="&#x140;" horiz-adv-x="330" d="M71 0l131 744h107l-131 -744h-107zM280 354q0 34 25.5 58.5t60.5 24.5q27 0 43.5 -17t16.5 -44q0 -34 -25 -58.5t-60 -24.5q-28 0 -44.5 17t-16.5 44z" />
<glyph unicode="&#x141;" horiz-adv-x="516" d="M28 210l17 98l99 53l60 339h113l-48 -274l154 82l-17 -98l-154 -82l-43 -242h271l-16 -86h-383l46 262z" />
<glyph unicode="&#x142;" horiz-adv-x="259" d="M36 253l15 88l88 46l63 357h107l-52 -294l92 48l-15 -87l-92 -49l-64 -362h-107l53 300z" />
<glyph unicode="&#x143;" horiz-adv-x="717" d="M81 0l123 700h114l236 -539l22 142l70 397h103l-123 -700h-114l-236 538l-23 -142l-69 -396h-103zM380 752l152 141h151l-201 -141h-102z" />
<glyph unicode="&#x144;" horiz-adv-x="596" d="M71 0l92 519h107l-12 -67q97 82 195 82q68 0 105 -41.5t22 -129.5l-64 -363h-107l60 343q19 105 -77 105q-35 0 -75 -17.5t-70 -41.5l-69 -389h-107zM286 582l127 154h140l-173 -154h-94z" />
<glyph unicode="&#x145;" horiz-adv-x="717" d="M81 0l123 700h114l236 -539l22 142l70 397h103l-123 -700h-114l-236 538l-23 -142l-69 -396h-103zM241 -248l53 186h103l-79 -186h-77z" />
<glyph unicode="&#x146;" horiz-adv-x="596" d="M71 0l92 519h107l-12 -67q97 82 195 82q68 0 105 -41.5t22 -129.5l-64 -363h-107l60 343q19 105 -77 105q-35 0 -75 -17.5t-70 -41.5l-69 -389h-107zM178 -248l53 186h103l-79 -186h-77z" />
<glyph unicode="&#x147;" horiz-adv-x="717" d="M81 0l123 700h114l236 -539l22 142l70 397h103l-123 -700h-114l-236 538l-23 -142l-69 -396h-103zM309 893h102l86 -66l109 66h106l-173 -141h-106z" />
<glyph unicode="&#x148;" horiz-adv-x="596" d="M71 0l92 519h107l-12 -67q97 82 195 82q68 0 105 -41.5t22 -129.5l-64 -363h-107l60 343q19 105 -77 105q-35 0 -75 -17.5t-70 -41.5l-69 -389h-107zM242 736h89l65 -82l95 82h93l-142 -154h-113z" />
<glyph unicode="&#x14a;" horiz-adv-x="717" d="M81 0l123 700h114l236 -539l22 142l70 397h103l-123 -700q-14 -82 -56.5 -134t-93 -70.5t-112.5 -18.5q-48 0 -79 17l13 79q38 -12 80 -12q57 0 92.5 28t48.5 98l-243 551l-23 -142l-69 -396h-103z" />
<glyph unicode="&#x14b;" horiz-adv-x="596" d="M71 0l92 519h107l-12 -67q97 82 195 82q68 0 105 -41.5t22 -129.5l-101 -571h-107l97 551q19 105 -77 105q-35 0 -75 -17.5t-70 -41.5l-69 -389h-107z" />
<glyph unicode="&#x14c;" horiz-adv-x="731" d="M93 276q0 192 110.5 315.5t282.5 123.5q126 0 195.5 -78.5t69.5 -212.5q0 -192 -110 -315.5t-284 -123.5q-125 0 -194.5 78.5t-69.5 212.5zM213 276q0 -99 43 -152t117 -53q115 0 186.5 99.5t71.5 253.5q0 99 -43 152t-117 53q-115 0 -186.5 -99.5t-71.5 -253.5zM335 784 l14 78h325l-14 -78h-325z" />
<glyph unicode="&#x14d;" horiz-adv-x="580" d="M80 203q0 144 83 237.5t217 93.5q97 0 149.5 -59t52.5 -160q0 -143 -82.5 -236.5t-217.5 -93.5q-97 0 -149.5 59t-52.5 159zM191 200q0 -69 28 -105.5t77 -36.5q77 0 126 68.5t49 192.5q0 69 -27.5 105.5t-77.5 36.5q-77 0 -126 -68.5t-49 -192.5zM242 612l14 78h302 l-14 -78h-302z" />
<glyph unicode="&#x14e;" horiz-adv-x="731" d="M93 276q0 192 110.5 315.5t282.5 123.5q126 0 195.5 -78.5t69.5 -212.5q0 -192 -110 -315.5t-284 -123.5q-125 0 -194.5 78.5t-69.5 212.5zM213 276q0 -99 43 -152t117 -53q115 0 186.5 99.5t71.5 253.5q0 99 -43 152t-117 53q-115 0 -186.5 -99.5t-71.5 -253.5zM360 893 h76q-5 -29 12.5 -47.5t57.5 -18.5q39 0 61.5 18.5t27.5 47.5h79q-13 -73 -64 -112t-120 -39t-105.5 39t-24.5 112z" />
<glyph unicode="&#x14f;" horiz-adv-x="580" d="M80 203q0 144 83 237.5t217 93.5q97 0 149.5 -59t52.5 -160q0 -143 -82.5 -236.5t-217.5 -93.5q-97 0 -149.5 59t-52.5 159zM191 200q0 -69 28 -105.5t77 -36.5q77 0 126 68.5t49 192.5q0 69 -27.5 105.5t-77.5 36.5q-77 0 -126 -68.5t-49 -192.5zM268 736h75 q-6 -35 8 -58t49 -23t56.5 22.5t27.5 58.5h78q-15 -80 -64 -121.5t-112 -41.5t-97.5 41.5t-20.5 121.5z" />
<glyph unicode="&#x150;" horiz-adv-x="731" d="M93 276q0 192 110.5 315.5t282.5 123.5q126 0 195.5 -78.5t69.5 -212.5q0 -192 -110 -315.5t-284 -123.5q-125 0 -194.5 78.5t-69.5 212.5zM213 276q0 -99 43 -152t117 -53q115 0 186.5 99.5t71.5 253.5q0 99 -43 152t-117 53q-115 0 -186.5 -99.5t-71.5 -253.5zM307 752 l132 141h139l-178 -141h-93zM499 752l132 141h139l-178 -141h-93z" />
<glyph unicode="&#x151;" horiz-adv-x="580" d="M80 203q0 144 83 237.5t217 93.5q97 0 149.5 -59t52.5 -160q0 -143 -82.5 -236.5t-217.5 -93.5q-97 0 -149.5 59t-52.5 159zM191 200q0 -69 28 -105.5t77 -36.5q77 0 126 68.5t49 192.5q0 69 -27.5 105.5t-77.5 36.5q-77 0 -126 -68.5t-49 -192.5zM231 582l109 154h130 l-151 -154h-88zM404 582l108 154h130l-150 -154h-88z" />
<glyph unicode="&#x152;" horiz-adv-x="940" d="M94 285q0 189 118.5 302t305.5 113h492l-15 -86h-303l-36 -203h283l-15 -85h-283l-42 -240h303l-15 -86h-492q-141 0 -221 75.5t-80 209.5zM215 290q0 -102 52 -153t143 -51h76l94 528h-76q-128 0 -208.5 -82.5t-80.5 -241.5z" />
<glyph unicode="&#x153;" horiz-adv-x="922" d="M80 203q0 144 83 237.5t217 93.5q126 0 171 -99q36 47 88 73t105 26q114 0 159.5 -75t12.5 -215h-346q-2 -32 -2 -50q0 -136 93 -136q86 0 119 89h111q-21 -71 -89.5 -116.5t-154.5 -45.5q-124 0 -163 95q-74 -95 -202 -95q-97 0 -149.5 59t-52.5 159zM191 200 q0 -69 28 -105.5t77 -36.5q75 0 125 69t50 192q0 69 -27.5 105.5t-77.5 36.5q-75 0 -125 -69t-50 -192zM581 313h235q12 73 -11 111t-75 38t-91.5 -38t-57.5 -111z" />
<glyph unicode="&#x154;" horiz-adv-x="614" d="M81 0l123 700h218q94 0 156 -45t62 -135q0 -98 -55.5 -158.5t-143.5 -82.5l146 -279h-127l-127 268h-92l-47 -268h-113zM256 351h105q72 0 117 39.5t45 120.5q0 53 -31 79t-84 26h-105zM298 752l152 141h151l-201 -141h-102z" />
<glyph unicode="&#x155;" horiz-adv-x="411" d="M71 0l92 519h107l-16 -91q82 106 165 106q37 0 58 -24l-15 -90q-37 16 -69 16q-42 0 -84 -25t-69 -61l-62 -350h-107zM210 582l127 154h140l-173 -154h-94z" />
<glyph unicode="&#x156;" horiz-adv-x="614" d="M81 0l123 700h218q94 0 156 -45t62 -135q0 -98 -55.5 -158.5t-143.5 -82.5l146 -279h-127l-127 268h-92l-47 -268h-113zM185 -248l53 186h103l-79 -186h-77zM256 351h105q72 0 117 39.5t45 120.5q0 53 -31 79t-84 26h-105z" />
<glyph unicode="&#x157;" horiz-adv-x="411" d="M12 -248l53 186h103l-79 -186h-77zM71 0l92 519h107l-16 -91q82 106 165 106q37 0 58 -24l-15 -90q-37 16 -69 16q-42 0 -84 -25t-69 -61l-62 -350h-107z" />
<glyph unicode="&#x158;" horiz-adv-x="614" d="M81 0l123 700h218q94 0 156 -45t62 -135q0 -98 -55.5 -158.5t-143.5 -82.5l146 -279h-127l-127 268h-92l-47 -268h-113zM233 893h102l86 -66l109 66h106l-173 -141h-106zM256 351h105q72 0 117 39.5t45 120.5q0 53 -31 79t-84 26h-105z" />
<glyph unicode="&#x159;" horiz-adv-x="411" d="M71 0l92 519h107l-16 -91q82 106 165 106q37 0 58 -24l-15 -90q-37 16 -69 16q-42 0 -84 -25t-69 -61l-62 -350h-107zM170 736h89l65 -82l95 82h93l-142 -154h-113z" />
<glyph unicode="&#x15a;" horiz-adv-x="602" d="M79 209h119q-7 -74 27.5 -107t94.5 -33q67 0 114 35.5t47 100.5q0 22 -9.5 38.5t-20 26.5t-35.5 19t-38.5 12.5t-45.5 10.5q-41 9 -70.5 20t-61 30.5t-48 50.5t-16.5 73q0 103 81 166t201 63q111 0 171 -56t48 -159h-119q6 68 -26 99.5t-90 31.5q-67 0 -108.5 -31 t-41.5 -93q0 -21 9 -37.5t19.5 -26t34.5 -18.5t37.5 -12.5t45.5 -10.5t56 -14.5t53 -21.5t47 -31.5t30.5 -45t12.5 -61.5q0 -104 -88 -173.5t-204 -69.5q-114 0 -177 57.5t-49 166.5zM306 752l152 141h151l-201 -141h-102z" />
<glyph unicode="&#x15b;" horiz-adv-x="511" d="M68 150h108q-2 -46 21.5 -69.5t76.5 -23.5q49 0 82 24t33 67q0 15 -7 27t-16 19t-27.5 13t-29.5 9t-34 7q-28 6 -46.5 10.5t-43.5 15t-40 24t-26 35t-11 48.5q0 83 66 130.5t167 47.5q90 0 137 -40t40 -111h-108q1 41 -20.5 60t-65.5 19q-48 0 -79.5 -21t-31.5 -61 q0 -24 16 -39t33.5 -20.5t51.5 -12.5q2 0 3 -0.5t3 -1t4 -0.5q29 -6 46.5 -10.5t44 -15t41 -23t26 -34t11.5 -48.5q0 -83 -67.5 -136.5t-167.5 -53.5q-99 0 -148.5 44t-41.5 121zM244 582l127 154h140l-173 -154h-94z" />
<glyph unicode="&#x15c;" horiz-adv-x="602" d="M79 209h119q-7 -74 27.5 -107t94.5 -33q67 0 114 35.5t47 100.5q0 22 -9.5 38.5t-20 26.5t-35.5 19t-38.5 12.5t-45.5 10.5q-41 9 -70.5 20t-61 30.5t-48 50.5t-16.5 73q0 103 81 166t201 63q111 0 171 -56t48 -159h-119q6 68 -26 99.5t-90 31.5q-67 0 -108.5 -31 t-41.5 -93q0 -21 9 -37.5t19.5 -26t34.5 -18.5t37.5 -12.5t45.5 -10.5t56 -14.5t53 -21.5t47 -31.5t30.5 -45t12.5 -61.5q0 -104 -88 -173.5t-204 -69.5q-114 0 -177 57.5t-49 166.5zM231 752l173 141h105l124 -141h-102l-86 66l-108 -66h-106z" />
<glyph unicode="&#x15d;" horiz-adv-x="511" d="M68 150h108q-2 -46 21.5 -69.5t76.5 -23.5q49 0 82 24t33 67q0 15 -7 27t-16 19t-27.5 13t-29.5 9t-34 7q-28 6 -46.5 10.5t-43.5 15t-40 24t-26 35t-11 48.5q0 83 66 130.5t167 47.5q90 0 137 -40t40 -111h-108q1 41 -20.5 60t-65.5 19q-48 0 -79.5 -21t-31.5 -61 q0 -24 16 -39t33.5 -20.5t51.5 -12.5q2 0 3 -0.5t3 -1t4 -0.5q29 -6 46.5 -10.5t44 -15t41 -23t26 -34t11.5 -48.5q0 -83 -67.5 -136.5t-167.5 -53.5q-99 0 -148.5 44t-41.5 121zM180 582l143 154h113l86 -154h-89l-65 83l-95 -83h-93z" />
<glyph unicode="&#x15e;" horiz-adv-x="602" d="M79 209h119q-7 -74 27.5 -107t94.5 -33q67 0 114 35.5t47 100.5q0 22 -9.5 38.5t-20 26.5t-35.5 19t-38.5 12.5t-45.5 10.5q-41 9 -70.5 20t-61 30.5t-48 50.5t-16.5 73q0 103 81 166t201 63q111 0 171 -56t48 -159h-119q6 68 -26 99.5t-90 31.5q-67 0 -108.5 -31 t-41.5 -93q0 -21 9 -37.5t19.5 -26t34.5 -18.5t37.5 -12.5t45.5 -10.5t56 -14.5t53 -21.5t47 -31.5t30.5 -45t12.5 -61.5q0 -100 -80.5 -168t-191.5 -74l-47 -51q41 3 69.5 -15t28.5 -55q0 -52 -44 -82.5t-101 -30.5q-42 0 -69 14l10 56q26 -13 62 -13q22 0 40.5 11.5 t18.5 32.5q0 16 -14 24.5t-32 8.5q-20 0 -41 -6l-15 36l67 72q-94 11 -143 67.5t-36 153.5z" />
<glyph unicode="&#x15f;" horiz-adv-x="511" d="M68 150h108q-2 -46 21.5 -69.5t76.5 -23.5q49 0 82 24t33 67q0 15 -7 27t-16 19t-27.5 13t-29.5 9t-34 7q-28 6 -46.5 10.5t-43.5 15t-40 24t-26 35t-11 48.5q0 83 66 130.5t167 47.5q90 0 137 -40t40 -111h-108q1 41 -20.5 60t-65.5 19q-48 0 -79.5 -21t-31.5 -61 q0 -24 16 -39t33.5 -20.5t51.5 -12.5q2 0 3 -0.5t3 -1t4 -0.5q29 -6 46.5 -10.5t44 -15t41 -23t26 -34t11.5 -48.5q0 -79 -62 -132t-156 -58l-47 -50q41 3 69.5 -15t28.5 -55q0 -52 -44 -82.5t-101 -30.5q-42 0 -69 14l10 56q26 -13 62 -13q22 0 40.5 11.5t18.5 32.5 q0 16 -14 24.5t-32 8.5q-20 0 -41 -6l-15 36l67 72q-75 11 -111.5 53.5t-28.5 108.5z" />
<glyph unicode="&#x160;" horiz-adv-x="602" d="M79 209h119q-7 -74 27.5 -107t94.5 -33q67 0 114 35.5t47 100.5q0 22 -9.5 38.5t-20 26.5t-35.5 19t-38.5 12.5t-45.5 10.5q-41 9 -70.5 20t-61 30.5t-48 50.5t-16.5 73q0 103 81 166t201 63q111 0 171 -56t48 -159h-119q6 68 -26 99.5t-90 31.5q-67 0 -108.5 -31 t-41.5 -93q0 -21 9 -37.5t19.5 -26t34.5 -18.5t37.5 -12.5t45.5 -10.5t56 -14.5t53 -21.5t47 -31.5t30.5 -45t12.5 -61.5q0 -104 -88 -173.5t-204 -69.5q-114 0 -177 57.5t-49 166.5zM245 893h102l86 -66l109 66h106l-173 -141h-106z" />
<glyph unicode="&#x161;" horiz-adv-x="511" d="M68 150h108q-2 -46 21.5 -69.5t76.5 -23.5q49 0 82 24t33 67q0 15 -7 27t-16 19t-27.5 13t-29.5 9t-34 7q-28 6 -46.5 10.5t-43.5 15t-40 24t-26 35t-11 48.5q0 83 66 130.5t167 47.5q90 0 137 -40t40 -111h-108q1 41 -20.5 60t-65.5 19q-48 0 -79.5 -21t-31.5 -61 q0 -24 16 -39t33.5 -20.5t51.5 -12.5q2 0 3 -0.5t3 -1t4 -0.5q29 -6 46.5 -10.5t44 -15t41 -23t26 -34t11.5 -48.5q0 -83 -67.5 -136.5t-167.5 -53.5q-99 0 -148.5 44t-41.5 121zM201 736h89l65 -82l95 82h93l-142 -154h-113z" />
<glyph unicode="&#x162;" horiz-adv-x="541" d="M129 614l15 86h489l-14 -86h-189l-108 -614h-12l-60 -65q41 3 69.5 -15t28.5 -55q0 -52 -44 -82.5t-101 -30.5q-42 0 -69 14l10 56q26 -13 62 -13q22 0 40.5 11.5t18.5 32.5q0 16 -14 24.5t-32 8.5q-20 0 -41 -6l-15 36l78 84h-32l109 614h-189z" />
<glyph unicode="&#x163;" horiz-adv-x="386" d="M72 -234l10 56q26 -13 62 -13q22 0 40.5 11.5t18.5 32.5q0 16 -14 24.5t-32 8.5q-20 0 -41 -6l-15 36l74 80q-73 30 -56 133l56 316h-86l12 74h87l25 141h107l-25 -141h141l-12 -74h-142l-52 -298q-15 -86 53 -86q28 0 82 15l-12 -68q-49 -23 -117 -23h-2l-46 -50 q41 3 69.5 -15t28.5 -55q0 -52 -44 -82.5t-101 -30.5q-42 0 -69 14z" />
<glyph unicode="&#x164;" horiz-adv-x="541" d="M129 614l15 86h489l-14 -86h-189l-108 -614h-113l109 614h-189zM223 893h102l86 -66l109 66h106l-173 -141h-106z" />
<glyph unicode="&#x165;" horiz-adv-x="386" d="M89 445l12 74h87l25 141h107l-25 -141h141l-12 -74h-142l-52 -298q-15 -86 53 -86q28 0 82 15l-12 -68q-49 -23 -117 -23q-63 0 -96 36t-21 108l56 316h-86zM358 577l40 226h99l-63 -226h-76z" />
<glyph unicode="&#x166;" horiz-adv-x="541" d="M129 614l15 86h489l-14 -86h-189l-39 -223h134l-16 -86h-133l-54 -305h-113l54 305h-128l15 86h128l40 223h-189z" />
<glyph unicode="&#x167;" horiz-adv-x="386" d="M68 260l14 78h74l19 107h-86l12 74h87l25 141h107l-25 -141h141l-12 -74h-142l-18 -107h120l-14 -78h-120l-20 -113q-15 -86 53 -86q28 0 82 15l-12 -68q-49 -23 -117 -23q-63 0 -96 36t-21 108l23 131h-74z" />
<glyph unicode="&#x168;" horiz-adv-x="709" d="M115 230l82 470h113l-79 -450q-16 -90 14 -134.5t116 -44.5q167 0 195 159l83 470h102l-79 -450q-22 -127 -106.5 -196t-210.5 -69q-127 0 -189 63.5t-41 181.5zM299 794q28 49 63 74t69 25q30 0 78.5 -22.5t61.5 -22.5q33 0 59 41l55 -28q-27 -48 -61.5 -73.5 t-68.5 -25.5q-30 0 -78.5 22.5t-62.5 22.5q-32 0 -61 -41z" />
<glyph unicode="&#x169;" horiz-adv-x="592" d="M98 155l65 364h107l-61 -344q-19 -104 75 -104q70 0 143 59l69 389h107l-92 -519h-107l12 67q-97 -82 -193 -82q-68 0 -104 41t-21 129zM224 621q26 47 62 72.5t68 25.5q30 0 70.5 -22.5t53.5 -22.5q29 0 57 42l55 -29q-26 -48 -62 -73t-68 -25q-30 0 -70.5 22t-54.5 22 q-29 0 -57 -41z" />
<glyph unicode="&#x16a;" horiz-adv-x="709" d="M115 230l82 470h113l-79 -450q-16 -90 14 -134.5t116 -44.5q167 0 195 159l83 470h102l-79 -450q-22 -127 -106.5 -196t-210.5 -69q-127 0 -189 63.5t-41 181.5zM321 784l14 78h325l-14 -78h-325z" />
<glyph unicode="&#x16b;" horiz-adv-x="592" d="M98 155l65 364h107l-61 -344q-19 -104 75 -104q70 0 143 59l69 389h107l-92 -519h-107l12 67q-97 -82 -193 -82q-68 0 -104 41t-21 129zM248 612l14 78h302l-14 -78h-302z" />
<glyph unicode="&#x16c;" horiz-adv-x="709" d="M115 230l82 470h113l-79 -450q-16 -90 14 -134.5t116 -44.5q167 0 195 159l83 470h102l-79 -450q-22 -127 -106.5 -196t-210.5 -69q-127 0 -189 63.5t-41 181.5zM346 893h76q-5 -29 12.5 -47.5t57.5 -18.5q39 0 61.5 18.5t27.5 47.5h79q-13 -73 -64 -112t-120 -39 t-105.5 39t-24.5 112z" />
<glyph unicode="&#x16d;" horiz-adv-x="592" d="M98 155l65 364h107l-61 -344q-19 -104 75 -104q70 0 143 59l69 389h107l-92 -519h-107l12 67q-97 -82 -193 -82q-68 0 -104 41t-21 129zM274 736h75q-6 -35 8 -58t49 -23t56.5 22.5t27.5 58.5h78q-15 -80 -64 -121.5t-112 -41.5t-97.5 41.5t-20.5 121.5z" />
<glyph unicode="&#x16e;" horiz-adv-x="709" d="M115 230l82 470h113l-79 -450q-16 -90 14 -134.5t116 -44.5q167 0 195 159l83 470h102l-79 -450q-22 -127 -106.5 -196t-210.5 -69q-127 0 -189 63.5t-41 181.5zM371 806q0 50 40 82t96 32q45 0 73.5 -23t28.5 -61q0 -50 -40 -82t-96 -32q-45 0 -73.5 23t-28.5 61z M453 802q14 -26 44 -13q39 10 30 51q-13 26 -44 14q-18 -5 -26 -19t-4 -33z" />
<glyph unicode="&#x16f;" horiz-adv-x="592" d="M98 155l65 364h107l-61 -344q-19 -104 75 -104q70 0 143 59l69 389h107l-92 -519h-107l12 67q-97 -82 -193 -82q-68 0 -104 41t-21 129zM288 644q0 50 39.5 81t95.5 31q46 0 74 -22.5t28 -60.5q0 -50 -39.5 -81t-96.5 -31q-45 0 -73 22.5t-28 60.5zM370 641 q13 -27 43 -15q18 4 26.5 17.5t3.5 32.5q-12 28 -43 15q-18 -4 -26.5 -17.5t-3.5 -32.5z" />
<glyph unicode="&#x170;" horiz-adv-x="709" d="M115 230l82 470h113l-79 -450q-16 -90 14 -134.5t116 -44.5q167 0 195 159l83 470h102l-79 -450q-22 -127 -106.5 -196t-210.5 -69q-127 0 -189 63.5t-41 181.5zM293 752l132 141h139l-178 -141h-93zM485 752l132 141h139l-178 -141h-93z" />
<glyph unicode="&#x171;" horiz-adv-x="592" d="M98 155l65 364h107l-61 -344q-19 -104 75 -104q70 0 143 59l69 389h107l-92 -519h-107l12 67q-97 -82 -193 -82q-68 0 -104 41t-21 129zM234 582l109 154h130l-151 -154h-88zM407 582l108 154h130l-150 -154h-88z" />
<glyph unicode="&#x172;" horiz-adv-x="709" d="M115 230l82 470h113l-79 -450q-16 -90 14 -134.5t116 -44.5q167 0 195 159l83 470h102l-79 -450q-18 -101 -76 -166t-147 -88q-136 -66 -136 -137q0 -18 12 -28.5t29 -10.5q31 0 75 21l-11 -65q-48 -24 -105 -24q-44 0 -68.5 24t-24.5 61q0 83 112 149q-116 5 -172 68 t-35 176z" />
<glyph unicode="&#x173;" horiz-adv-x="592" d="M98 155l65 364h107l-61 -344q-19 -104 75 -104q70 0 143 59l69 389h107l-92 -519q-144 -68 -144 -141q0 -18 12 -28.5t29 -10.5q31 0 75 21l-11 -65q-48 -24 -105 -24q-44 0 -68.5 24t-24.5 61q0 93 139 163h-9l12 67q-97 -82 -193 -82q-68 0 -104 41t-21 129z" />
<glyph unicode="&#x174;" horiz-adv-x="917" d="M123 700h115l32 -415l7 -149l61 149l181 415h120l39 -415l9 -152l59 152l168 415h112l-305 -700h-118l-41 401l-10 151l-63 -151l-178 -401h-118zM383 752l173 141h105l124 -141h-102l-86 66l-108 -66h-106z" />
<glyph unicode="&#x175;" horiz-adv-x="790" d="M96 519h108l31 -257l11 -146l65 146l118 257h98l32 -257l16 -146l63 146l118 257h105l-258 -519h-100l-31 240l-16 146l-65 -146l-113 -240h-103zM318 582l143 154h113l86 -154h-89l-65 83l-95 -83h-93z" />
<glyph unicode="&#x176;" horiz-adv-x="587" d="M137 700h116l107 -345l214 345h111l-289 -439l-46 -261h-112l46 261zM221 752l173 141h105l124 -141h-102l-86 66l-108 -66h-106z" />
<glyph unicode="&#x177;" horiz-adv-x="505" d="M81 -208l119 212l-104 515h113l43 -243l19 -146l71 146l127 243h106l-395 -727h-99zM184 582l143 154h113l86 -154h-89l-65 83l-95 -83h-93z" />
<glyph unicode="&#x178;" horiz-adv-x="587" d="M137 700h116l107 -345l214 345h111l-289 -439l-46 -261h-112l46 261zM258 819q0 31 24 53t56 22q25 0 41 -16t16 -40q0 -31 -24 -53t-56 -22q-25 0 -41 15.5t-16 40.5zM476 819q0 31 23.5 53t55.5 22q25 0 41.5 -16t16.5 -41q0 -30 -24.5 -52t-55.5 -22q-25 0 -41 15.5 t-16 40.5z" />
<glyph unicode="&#x179;" horiz-adv-x="536" d="M37 0l15 86l422 528h-321l14 86h451l-14 -86l-422 -528h328l-15 -86h-458zM301 752l152 141h151l-201 -141h-102z" />
<glyph unicode="&#x17a;" horiz-adv-x="453" d="M37 0l13 74l319 371h-243l13 74h362l-13 -74l-320 -371h254l-13 -74h-372zM240 582l127 154h140l-173 -154h-94z" />
<glyph unicode="&#x17b;" horiz-adv-x="536" d="M37 0l15 86l422 528h-321l14 86h451l-14 -86l-422 -528h328l-15 -86h-458zM343 819q0 31 24.5 53.5t57.5 22.5q26 0 42.5 -16t16.5 -42q0 -31 -24.5 -53.5t-57.5 -22.5q-26 0 -42.5 16t-16.5 42z" />
<glyph unicode="&#x17c;" horiz-adv-x="453" d="M37 0l13 74l319 371h-243l13 74h362l-13 -74l-320 -371h254l-13 -74h-372zM271 652q0 32 24.5 55.5t57.5 23.5q26 0 42 -17t16 -42q0 -32 -24.5 -55t-57.5 -23q-26 0 -42 16.5t-16 41.5z" />
<glyph unicode="&#x17d;" horiz-adv-x="536" d="M37 0l15 86l422 528h-321l14 86h451l-14 -86l-422 -528h328l-15 -86h-458zM223 893h102l86 -66l109 66h106l-173 -141h-106z" />
<glyph unicode="&#x17e;" horiz-adv-x="453" d="M37 0l13 74l319 371h-243l13 74h362l-13 -74l-320 -371h254l-13 -74h-372zM186 736h89l65 -82l95 82h93l-142 -154h-113z" />
<glyph unicode="&#x17f;" horiz-adv-x="309" d="M92 0l106 600q14 79 64.5 119t127.5 40q54 0 84 -17l-12 -68q-40 9 -63 9q-81 0 -94 -82l-106 -601h-107z" />
<glyph unicode="&#x192;" horiz-adv-x="627" d="M-57 -36h118q-7 -103 73 -103q39 0 70 27t41 86l40 227h-158l16 86h157l39 218q18 97 85 153.5t156 56.5q95 0 141 -48.5t35 -139.5h-118q7 104 -73 104q-39 0 -70 -27t-41 -86l-41 -231h159l-15 -86h-159l-38 -214q-17 -97 -84 -153.5t-156 -56.5q-95 0 -141 48.5 t-36 138.5z" />
<glyph unicode="&#x1fc;" horiz-adv-x="947" d="M4 0l593 700h419l-15 -86h-302l-36 -202h283l-16 -87h-283l-42 -239h303l-15 -86h-416l32 183h-227l-150 -183h-128zM350 267h174l49 275l-105 -131zM628 752l152 141h151l-201 -141h-102z" />
<glyph unicode="&#x1fd;" horiz-adv-x="874" d="M60 100q0 78 69.5 134.5t212.5 56.5q23 0 79 -4l11 59q20 115 -75 115q-103 0 -128 -115h-109q16 89 86 138.5t164 49.5q115 0 152 -72q75 72 174 72q114 0 159.5 -75t12.5 -215h-346q-2 -32 -2 -50q0 -136 93 -136q86 0 119 89h111q-21 -71 -89.5 -116.5t-154.5 -45.5 q-132 0 -172 100q-111 -100 -233 -100q-62 0 -98 31.5t-36 83.5zM172 126q0 -60 77 -60q76 0 162 78q-4 35 0 78q-35 4 -73 4q-87 0 -126.5 -28t-39.5 -72zM392 582l127 154h140l-173 -154h-94zM533 313h235q12 73 -11 111t-75 38t-91.5 -38t-57.5 -111z" />
<glyph unicode="&#x218;" horiz-adv-x="602" d="M79 209h119q-7 -74 27.5 -107t94.5 -33q67 0 114 35.5t47 100.5q0 22 -9.5 38.5t-20 26.5t-35.5 19t-38.5 12.5t-45.5 10.5q-41 9 -70.5 20t-61 30.5t-48 50.5t-16.5 73q0 103 81 166t201 63q111 0 171 -56t48 -159h-119q6 68 -26 99.5t-90 31.5q-67 0 -108.5 -31 t-41.5 -93q0 -21 9 -37.5t19.5 -26t34.5 -18.5t37.5 -12.5t45.5 -10.5t56 -14.5t53 -21.5t47 -31.5t30.5 -45t12.5 -61.5q0 -104 -88 -173.5t-204 -69.5q-114 0 -177 57.5t-49 166.5zM187 -248l53 186h103l-79 -186h-77z" />
<glyph unicode="&#x219;" horiz-adv-x="511" d="M68 150h108q-2 -46 21.5 -69.5t76.5 -23.5q49 0 82 24t33 67q0 15 -7 27t-16 19t-27.5 13t-29.5 9t-34 7q-28 6 -46.5 10.5t-43.5 15t-40 24t-26 35t-11 48.5q0 83 66 130.5t167 47.5q90 0 137 -40t40 -111h-108q1 41 -20.5 60t-65.5 19q-48 0 -79.5 -21t-31.5 -61 q0 -24 16 -39t33.5 -20.5t51.5 -12.5q2 0 3 -0.5t3 -1t4 -0.5q29 -6 46.5 -10.5t44 -15t41 -23t26 -34t11.5 -48.5q0 -83 -67.5 -136.5t-167.5 -53.5q-99 0 -148.5 44t-41.5 121zM147 -248l53 186h103l-79 -186h-77z" />
<glyph unicode="&#x21a;" horiz-adv-x="541" d="M129 614l15 86h489l-14 -86h-189l-108 -614h-113l109 614h-189zM152 -248l53 186h103l-79 -186h-77z" />
<glyph unicode="&#x21b;" horiz-adv-x="386" d="M83 -248l53 186h103l-79 -186h-77zM89 445l12 74h87l25 141h107l-25 -141h141l-12 -74h-142l-52 -298q-15 -86 53 -86q28 0 82 15l-12 -68q-49 -23 -117 -23q-63 0 -96 36t-21 108l56 316h-86z" />
<glyph unicode="&#x2c6;" horiz-adv-x="442" d="M152 582l143 154h113l86 -154h-89l-65 83l-95 -83h-93z" />
<glyph unicode="&#x2c7;" horiz-adv-x="442" d="M180 736h89l65 -82l95 82h93l-142 -154h-113z" />
<glyph unicode="&#x2d8;" horiz-adv-x="393" d="M180 736h75q-6 -35 8 -58t49 -23t56.5 22.5t27.5 58.5h78q-15 -80 -64 -121.5t-112 -41.5t-97.5 41.5t-20.5 121.5z" />
<glyph unicode="&#x2d9;" horiz-adv-x="238" d="M166 652q0 32 24.5 55.5t57.5 23.5q26 0 42 -17t16 -42q0 -32 -24.5 -55t-57.5 -23q-26 0 -42 16.5t-16 41.5z" />
<glyph unicode="&#x2da;" horiz-adv-x="335" d="M165 644q0 50 39.5 81t95.5 31q46 0 74 -22.5t28 -60.5q0 -50 -39.5 -81t-96.5 -31q-45 0 -73 22.5t-28 60.5zM247 641q13 -27 43 -15q18 4 26.5 17.5t3.5 32.5q-12 28 -43 15q-18 -4 -26.5 -17.5t-3.5 -32.5z" />
<glyph unicode="&#x2db;" horiz-adv-x="309" d="M22 -163q0 93 139 163h98q-144 -68 -144 -141q0 -18 12 -28.5t29 -10.5q31 0 75 21l-11 -65q-48 -24 -105 -24q-44 0 -68.5 24t-24.5 61z" />
<glyph unicode="&#x2dc;" horiz-adv-x="455" d="M160 621q26 47 62 72.5t68 25.5q30 0 70.5 -22.5t53.5 -22.5q29 0 57 42l55 -29q-26 -48 -62 -73t-68 -25q-30 0 -70.5 22t-54.5 22q-29 0 -57 -41z" />
<glyph unicode="&#x2dd;" horiz-adv-x="481" d="M152 582l109 154h130l-151 -154h-88zM325 582l108 154h130l-150 -154h-88z" />
<glyph unicode="&#x326;" horiz-adv-x="0" d="M-216 -248l53 186h103l-79 -186h-77z" />
<glyph unicode="&#x3c0;" horiz-adv-x="597" d="M71 0l92 519h444l-91 -519h-107l79 445h-231l-79 -445h-107z" />
<glyph unicode="&#xe3f;" horiz-adv-x="626" d="M81 0l123 700h165l21 120h103l-22 -122q174 -17 174 -148q0 -63 -41 -115t-101 -69q52 -9 84 -41.5t32 -88.5q0 -106 -77 -167.5t-194 -67.5l-21 -121h-103l21 120h-164zM209 84h51l40 227h-52zM263 395h52l39 221h-51zM363 85q69 5 104 42.5t35 97.5q0 78 -99 85z M419 399q50 11 79 45t29 88q0 67 -71 80z" />
<glyph unicode="&#x1e80;" horiz-adv-x="917" d="M123 700h115l32 -415l7 -149l61 149l181 415h120l39 -415l9 -152l59 152l168 415h112l-305 -700h-118l-41 401l-10 151l-63 -151l-178 -401h-118zM443 893h142l113 -141h-94z" />
<glyph unicode="&#x1e81;" horiz-adv-x="790" d="M96 519h108l31 -257l11 -146l65 146l118 257h98l32 -257l16 -146l63 146l118 257h105l-258 -519h-100l-31 240l-16 146l-65 -146l-113 -240h-103zM361 736h130l81 -154h-88z" />
<glyph unicode="&#x1e82;" horiz-adv-x="917" d="M123 700h115l32 -415l7 -149l61 149l181 415h120l39 -415l9 -152l59 152l168 415h112l-305 -700h-118l-41 401l-10 151l-63 -151l-178 -401h-118zM471 752l152 141h151l-201 -141h-102z" />
<glyph unicode="&#x1e83;" horiz-adv-x="790" d="M96 519h108l31 -257l11 -146l65 146l118 257h98l32 -257l16 -146l63 146l118 257h105l-258 -519h-100l-31 240l-16 146l-65 -146l-113 -240h-103zM405 582l127 154h140l-173 -154h-94z" />
<glyph unicode="&#x1e84;" horiz-adv-x="917" d="M123 700h115l32 -415l7 -149l61 149l181 415h120l39 -415l9 -152l59 152l168 415h112l-305 -700h-118l-41 401l-10 151l-63 -151l-178 -401h-118zM420 819q0 31 24 53t56 22q25 0 41 -16t16 -40q0 -31 -24 -53t-56 -22q-25 0 -41 15.5t-16 40.5zM638 819q0 31 23.5 53 t55.5 22q25 0 41.5 -16t16.5 -41q0 -30 -24.5 -52t-55.5 -22q-25 0 -41 15.5t-16 40.5z" />
<glyph unicode="&#x1e85;" horiz-adv-x="790" d="M96 519h108l31 -257l11 -146l65 146l118 257h98l32 -257l16 -146l63 146l118 257h105l-258 -519h-100l-31 240l-16 146l-65 -146l-113 -240h-103zM337 653q0 31 24 53.5t56 22.5q25 0 40.5 -16.5t15.5 -40.5q0 -31 -23.5 -54t-55.5 -23q-25 0 -41 16.5t-16 41.5zM533 652 q0 31 24 54t56 23q25 0 40.5 -16.5t15.5 -41.5q0 -31 -24 -53.5t-56 -22.5q-25 0 -40.5 16.5t-15.5 40.5z" />
<glyph unicode="&#x1e9e;" horiz-adv-x="730" d="M81 0l70 399q54 301 319 301h241l-14 -86l-194 -220q46 -10 79 -31t50 -47.5t24.5 -52.5t7.5 -52q0 -106 -74 -166t-167 -60q-86 0 -127.5 40.5t-30.5 111.5h112q-4 -35 13 -53.5t50 -18.5q46 0 77.5 34t31.5 98q0 54 -36.5 87t-106.5 33h-33l15 85l188 212h-120 q-76 0 -123.5 -48.5t-66.5 -156.5l-72 -409h-113z" />
<glyph unicode="&#x1ef2;" horiz-adv-x="587" d="M137 700h116l107 -345l214 345h111l-289 -439l-46 -261h-112l46 261zM278 893h142l113 -141h-94z" />
<glyph unicode="&#x1ef3;" horiz-adv-x="505" d="M81 -208l119 212l-104 515h113l43 -243l19 -146l71 146l127 243h106l-395 -727h-99zM218 736h130l81 -154h-88z" />
<glyph unicode="&#x2000;" horiz-adv-x="467" />
<glyph unicode="&#x2001;" horiz-adv-x="935" />
<glyph unicode="&#x2002;" horiz-adv-x="467" />
<glyph unicode="&#x2003;" horiz-adv-x="935" />
<glyph unicode="&#x2004;" horiz-adv-x="311" />
<glyph unicode="&#x2005;" horiz-adv-x="233" />
<glyph unicode="&#x2006;" horiz-adv-x="155" />
<glyph unicode="&#x2007;" horiz-adv-x="155" />
<glyph unicode="&#x2008;" horiz-adv-x="116" />
<glyph unicode="&#x2009;" horiz-adv-x="187" />
<glyph unicode="&#x200a;" horiz-adv-x="51" />
<glyph unicode="&#x2010;" horiz-adv-x="292" d="M50 234l16 85h243l-16 -85h-243z" />
<glyph unicode="&#x2011;" horiz-adv-x="292" d="M50 234l16 85h243l-16 -85h-243z" />
<glyph unicode="&#x2012;" horiz-adv-x="292" d="M50 234l16 85h243l-16 -85h-243z" />
<glyph unicode="&#x2013;" horiz-adv-x="498" d="M79 234l15 85h420l-15 -85h-420z" />
<glyph unicode="&#x2014;" horiz-adv-x="998" d="M79 234l15 85h920l-15 -85h-920z" />
<glyph unicode="&#x2018;" horiz-adv-x="249" d="M137 601l141 259h92l-119 -259h-114z" />
<glyph unicode="&#x2019;" horiz-adv-x="249" d="M137 601l119 259h114l-140 -259h-93z" />
<glyph unicode="&#x201a;" horiz-adv-x="249" d="M3 -160l118 259h115l-141 -259h-92z" />
<glyph unicode="&#x201c;" horiz-adv-x="420" d="M137 601l141 259h92l-119 -259h-114zM308 601l141 259h92l-119 -259h-114z" />
<glyph unicode="&#x201d;" horiz-adv-x="420" d="M137 601l119 259h114l-140 -259h-93zM308 601l119 259h114l-140 -259h-93z" />
<glyph unicode="&#x201e;" horiz-adv-x="420" d="M3 -160l118 259h115l-141 -259h-92zM174 -160l118 259h115l-141 -259h-92z" />
<glyph unicode="&#x2020;" horiz-adv-x="484" d="M116 444l15 86h141l30 170h113l-30 -170h141l-14 -86h-142l-78 -444h-113l78 444h-141z" />
<glyph unicode="&#x2021;" horiz-adv-x="484" d="M68 170l15 86h141l33 188h-141l15 86h141l30 170h113l-30 -170h141l-14 -86h-142l-33 -188h141l-15 -86h-141l-30 -170h-113l30 170h-141z" />
<glyph unicode="&#x2022;" horiz-adv-x="343" d="M95 330q0 62 47 106t108 44q47 0 78 -31.5t31 -79.5q0 -62 -47.5 -105.5t-107.5 -43.5q-48 0 -78.5 31t-30.5 79z" />
<glyph unicode="&#x2026;" horiz-adv-x="813" d="M57 46q0 35 25.5 59t60.5 24q27 0 43.5 -17t16.5 -44q0 -35 -25 -59t-61 -24q-27 0 -43.5 17t-16.5 44zM343 46q0 35 25.5 59t61.5 24q27 0 43.5 -17t16.5 -44q0 -35 -25.5 -59t-60.5 -24q-27 0 -44 17t-17 44zM630 46q0 35 25.5 59t60.5 24q27 0 43.5 -17t16.5 -44 q0 -35 -25 -59t-61 -24q-27 0 -43.5 17t-16.5 44z" />
<glyph unicode="&#x202f;" horiz-adv-x="187" />
<glyph unicode="&#x2030;" horiz-adv-x="1422" d="M131 446q0 115 66.5 189t165.5 74q72 0 113.5 -47t41.5 -128q0 -114 -66.5 -188.5t-165.5 -74.5q-72 0 -113.5 47t-41.5 128zM221 0l570 700h116l-570 -700h-116zM230 443q0 -50 18 -75.5t50 -25.5q50 0 85.5 52.5t35.5 142.5q0 50 -18 75t-50 25q-51 0 -86 -52t-35 -142 zM611 166q0 115 66.5 189t165.5 74q72 0 113.5 -47t41.5 -128q0 -114 -66.5 -188.5t-165.5 -74.5q-72 0 -113.5 47t-41.5 128zM710 163q0 -50 18 -75.5t50 -25.5q50 0 85.5 52.5t35.5 142.5q0 50 -18 75t-50 25q-51 0 -86 -52t-35 -142zM1027 166q0 115 66.5 189t165.5 74 q72 0 113.5 -47t41.5 -128q0 -114 -66.5 -188.5t-165.5 -74.5q-72 0 -113.5 47t-41.5 128zM1126 163q0 -50 18 -75.5t50 -25.5q50 0 85.5 52.5t35.5 142.5q0 50 -18 75t-50 25q-51 0 -86 -52t-35 -142z" />
<glyph unicode="&#x2039;" horiz-adv-x="340" d="M89 223l17 97l275 194l-22 -124l-170 -120l128 -119l-22 -122z" />
<glyph unicode="&#x203a;" horiz-adv-x="340" d="M55 29l22 124l170 120l-128 119l21 122l206 -194l-17 -97z" />
<glyph unicode="&#x2044;" horiz-adv-x="610" d="M20 0l570 700h116l-570 -700h-116z" />
<glyph unicode="&#x205f;" horiz-adv-x="233" />
<glyph unicode="&#x20a1;" horiz-adv-x="662" d="M-3 -120l118 245q-23 61 -23 140q0 174 84.5 295t219.5 148l54 112h109l-52 -107q36 -5 64 -16l59 123h109l-87 -180q52 -63 45 -172h-122q4 81 -30 121t-93 40q-101 0 -170 -99t-69 -263q0 -97 37 -146.5t104 -49.5q60 0 107.5 40t71.5 121h122q-35 -122 -121 -184.5 t-196 -62.5h-1l-51 -105h-109l59 122q-31 12 -56 32l-74 -154h-109z" />
<glyph unicode="&#x20a5;" horiz-adv-x="922" d="M71 0l92 519h107l-12 -67q97 82 192 82q106 0 125 -88q46 40 95 62l104 128h114l-84 -103q58 -7 87 -48t15 -122l-64 -363h-107l60 343q18 98 -60 104l-187 -229l-38 -218h-107l9 50l-130 -160h-114l275 338l20 115q10 54 -8 79.5t-66 25.5q-69 0 -142 -59l-69 -389h-107 z" />
<glyph unicode="&#x20a6;" horiz-adv-x="732" d="M50 206l15 89h97l20 114h-97l16 88h96l36 203h114l206 -526l22 142l67 384h103l-36 -203h98l-16 -88h-97l-20 -114h97l-15 -89h-98l-36 -206h-114l-205 526l-23 -142l-67 -384h-103l36 206h-96z" />
<glyph unicode="&#x20a8;" horiz-adv-x="587" d="M114 453l15 86h306q-17 75 -115 75h-177l14 86h94h411l-14 -86h-138q33 -34 41 -75h83l-15 -86h-70q-18 -91 -93.5 -139.5t-175.5 -53.5l226 -260h-135l-221 259l15 83h107q60 0 103 27.5t57 83.5h-318z" />
<glyph unicode="&#x20a9;" horiz-adv-x="943" d="M50 208l15 85h133l-10 117h-103l15 86h80l-17 204h115l20 -415l6 -149l59 149l175 415h121l30 -415l8 -152l57 152l159 415h113l-86 -204h79l-15 -86h-100l-50 -117h129l-15 -85h-149l-88 -208h-120l-30 401l-8 151l-61 -151l-173 -401h-116l-18 208h-155z" />
<glyph unicode="&#x20aa;" horiz-adv-x="773" d="M93 0l123 700h210q100 0 149.5 -44t49.5 -144q0 -105 -76 -311h-94q69 202 69 283q0 65 -29 96t-94 31h-100l-108 -611h-100zM260 0l88 499h100l-72 -410h95q47 0 82 18.5t58 51t38.5 87t23.5 114.5t14 145q5 78 7 195h93q3 -35 3 -117q0 -301 -78 -442t-246 -141h-206z " />
<glyph unicode="&#x20ab;" horiz-adv-x="574" d="M47 0l14 81h507l-14 -81h-507zM103 304q0 124 74 194t169 70q40 0 72.5 -16t48.5 -43l16 93h-118l14 78h118l11 64h105l-11 -64h72l-14 -78h-72l-80 -456h-105l9 51q-71 -66 -157 -66q-66 0 -109 45t-43 128zM215 318q0 -52 24 -79t61 -27q62 0 123 49l32 180 q-40 46 -101 46q-55 0 -97 -44t-42 -125z" />
<glyph unicode="&#x20ac;" horiz-adv-x="669" d="M50 201l15 86h69q1 54 15 117h-64l15 86h77q45 105 126 165t182 60q104 0 165 -63t54 -184h-123q4 79 -26.5 118.5t-84.5 39.5q-52 0 -98 -35t-75 -101h186l-16 -86h-199q-12 -52 -15 -117h194l-15 -86h-177q17 -127 117 -127q54 0 98.5 39.5t68.5 118.5h123 q-35 -121 -118.5 -184t-187.5 -63q-99 0 -153.5 56.5t-66.5 159.5h-86z" />
<glyph unicode="&#x20ad;" horiz-adv-x="607" d="M63 325l15 86h90l51 289h112l-51 -289h5l263 289h123l-270 -289h223l-15 -86h-220l197 -325h-132l-188 325h-1l-57 -325h-112l57 325h-90z" />
<glyph unicode="&#x20ae;" horiz-adv-x="541" d="M104 116l17 95l135 53l14 81l-135 -53l17 96l135 53l31 173h-189l15 86h489l-14 -86h-189l-22 -125l135 53l-16 -96l-136 -53l-14 -81l135 53l-18 -96l-134 -53l-38 -216h-113l30 169z" />
<glyph unicode="&#x20b1;" horiz-adv-x="633" d="M82 429l14 85h90l33 186h200q90 0 152.5 -48t63.5 -138h76l-15 -85h-73q-28 -89 -108.5 -136.5t-175.5 -47.5h-87l-43 -245h-113l75 429h-89zM267 329h87q52 0 93 26t59 74h-221zM300 514h218q-4 49 -34.5 75.5t-78.5 26.5h-87z" />
<glyph unicode="&#x20b4;" horiz-adv-x="631" d="M91 140q0 102 99 165h-90l16 86h275q72 29 110.5 62.5t38.5 86.5q0 43 -28 67t-81 24q-127 0 -158 -117h-118q23 96 97.5 148.5t194.5 52.5q100 0 154 -41.5t54 -113.5q0 -105 -102 -169h100l-15 -86h-285q-71 -28 -109.5 -60.5t-38.5 -84.5q0 -43 28 -67t81 -24 q133 0 165 116h118q-23 -95 -100.5 -147.5t-198.5 -52.5q-99 0 -153 41.5t-54 113.5z" />
<glyph unicode="&#x20b5;" horiz-adv-x="662" d="M92 265q0 179 89 301t230 145l19 109h102l-19 -108q91 -13 141 -74.5t43 -169.5h-122q6 126 -78 154l-96 -544q95 27 132 154h122q-31 -108 -103 -169.5t-167 -74.5l-19 -108h-102l19 109q-95 17 -143 89t-48 187zM213 267q0 -150 87 -186l95 539q-81 -26 -131.5 -120 t-50.5 -233z" />
<glyph unicode="&#x2113;" horiz-adv-x="475" d="M26 174v71q48 25 87 49v135q0 138 45.5 212t125.5 74q56 0 92.5 -33t36.5 -110q0 -72 -53.5 -146t-139.5 -139v-137q0 -86 71 -86q27 0 80 15v-71q-51 -23 -116 -23q-64 0 -103 36t-39 108v88q-41 -23 -87 -43zM220 378q94 91 94 193q0 68 -35 68q-59 0 -59 -210v-51z " />
<glyph unicode="&#x2117;" horiz-adv-x="830" d="M50 350q0 152 105 258.5t260 106.5t260 -106.5t105 -258.5t-105 -258.5t-260 -106.5t-260 106.5t-105 258.5zM125 350q0 -124 84 -210.5t206 -86.5t206 86.5t84 210.5t-84 210.5t-206 86.5t-206 -86.5t-84 -210.5zM294 143v413h136q63 0 110 -34.5t47 -100.5 q0 -64 -47 -99t-110 -35h-56v-144h-80zM374 348h56q35 0 55.5 18.5t20.5 54.5q0 37 -20.5 55.5t-55.5 18.5h-56v-147z" />
<glyph unicode="&#x2120;" horiz-adv-x="698" d="M50 491h68q6 -44 56 -44q49 0 49 38q0 14 -11 22t-20.5 10.5t-35.5 7.5q-24 5 -36.5 8.5t-31 13.5t-27 27.5t-8.5 43.5q0 41 32 65.5t81 24.5q53 0 84.5 -23.5t34.5 -68.5h-69q-4 38 -50 38q-48 0 -48 -31q0 -12 9.5 -20t18.5 -10.5t31 -7.5q6 -1 9 -2q23 -4 36.5 -8 t31 -13.5t26 -27.5t8.5 -44q0 -43 -32.5 -70t-81.5 -27q-55 0 -88 24.5t-36 73.5zM337 401v299h69l89 -206l88 206h65v-299h-64v95l2 83l-70 -164h-45l-75 169l2 -89v-94h-61z" />
<glyph unicode="&#x2122;" horiz-adv-x="680" d="M50 647v53h223v-53h-80v-246h-65v246h-78zM318 401v299h70l88 -206l88 206h66v-299h-64v95l1 83l-70 -164h-45l-74 169l1 -89v-94h-61z" />
<glyph unicode="&#x2126;" horiz-adv-x="737" d="M37 0l15 86h173q-51 39 -84 109t-33 147q0 153 109 263t274 110q126 0 197 -76.5t71 -196.5q0 -109 -64 -206.5t-153 -149.5h165l-15 -86h-256l15 86q76 49 131 139t55 205q0 96 -43.5 147.5t-118.5 51.5q-111 0 -181.5 -90t-70.5 -230q0 -73 24.5 -132.5t61.5 -90.5 l-15 -86h-257z" />
<glyph unicode="&#x212e;" horiz-adv-x="774" d="M50 321q0 144 98 241t239 97t239 -97t98 -241h-523v-239q79 -65 186 -65q75 0 138 34t104 93h47q-45 -74 -121.5 -117t-167.5 -43q-141 0 -239 96.5t-98 240.5zM201 354h373l-1 206q-80 66 -186 66t-186 -66v-206z" />
<glyph unicode="&#x2153;" horiz-adv-x="901" d="M130 0l570 700h116l-570 -700h-116zM148 564l15 83l113 53h95l-74 -420h-95l60 337zM532 114h97q-2 -28 13.5 -41t51.5 -13q83 0 83 70q0 51 -79 51h-52l12 70h52q42 0 65.5 17t23.5 50q0 42 -55 42q-58 0 -77 -54h-98q16 58 66 90.5t121 32.5q64 0 101.5 -27t37.5 -75 q0 -37 -26 -66.5t-72 -41.5q76 -12 76 -84q0 -63 -57.5 -103.5t-133.5 -40.5q-79 0 -118 32t-32 91z" />
<glyph unicode="&#x2154;" horiz-adv-x="1002" d="M109 280l12 71q27 20 64.5 47t57.5 41.5t45.5 34t38.5 32.5t26 28.5t18 30t5 29.5q0 46 -52 46q-58 0 -77 -68h-97q15 66 64.5 101.5t121.5 35.5q63 0 99.5 -28t36.5 -80q0 -22 -4 -40t-20 -39t-27 -34.5t-45.5 -41t-54 -42t-72.5 -53.5h183l-12 -71h-311zM231 0l570 700 h116l-570 -700h-116zM633 114h97q-2 -28 13.5 -41t51.5 -13q83 0 83 70q0 51 -79 51h-52l12 70h52q42 0 65.5 17t23.5 50q0 42 -55 42q-58 0 -77 -54h-98q16 58 66 90.5t121 32.5q64 0 101.5 -27t37.5 -75q0 -37 -26 -66.5t-72 -41.5q76 -12 76 -84q0 -63 -57.5 -103.5 t-133.5 -40.5q-79 0 -118 32t-32 91z" />
<glyph unicode="&#x215b;" horiz-adv-x="907" d="M130 0l570 700h116l-570 -700h-116zM148 564l15 83l113 53h95l-74 -420h-95l60 337zM527 94q0 44 30 78t80 46q-28 9 -45 30t-17 50q0 60 52.5 95.5t131.5 35.5q65 0 104 -26.5t39 -73.5q0 -41 -26.5 -69.5t-69.5 -41.5q34 -9 53 -33t19 -56q0 -68 -55 -103t-141 -35 q-70 0 -112.5 26t-42.5 77zM626 111q0 -51 68 -51q38 0 63.5 17.5t25.5 54.5q0 48 -68 48q-43 0 -66 -18t-23 -51zM670 293q0 -44 57 -44q76 0 76 65q0 46 -56 46q-33 0 -55 -16.5t-22 -50.5z" />
<glyph unicode="&#x215c;" horiz-adv-x="987" d="M120 394h97q-2 -28 13.5 -41t51.5 -13q83 0 83 70q0 51 -79 51h-52l12 70h52q42 0 65.5 17t23.5 50q0 42 -55 42q-58 0 -77 -54h-98q16 58 66 90.5t121 32.5q64 0 101.5 -27t37.5 -75q0 -37 -26 -66.5t-72 -41.5q76 -12 76 -84q0 -63 -57.5 -103.5t-133.5 -40.5 q-79 0 -118 32t-32 91zM209 0l570 700h116l-570 -700h-116zM606 94q0 44 30 78t80 46q-28 9 -45 30t-17 50q0 60 52.5 95.5t131.5 35.5q65 0 104 -26.5t39 -73.5q0 -41 -26.5 -69.5t-69.5 -41.5q34 -9 53 -33t19 -56q0 -68 -55 -103t-141 -35q-70 0 -112.5 26t-42.5 77z M705 111q0 -51 68 -51q38 0 63.5 17.5t25.5 54.5q0 48 -68 48q-43 0 -66 -18t-23 -51zM749 293q0 -44 57 -44q76 0 76 65q0 46 -56 46q-33 0 -55 -16.5t-22 -50.5z" />
<glyph unicode="&#x215d;" horiz-adv-x="967" d="M118 385h97q0 -45 54 -45q40 0 62.5 25.5t22.5 72.5q0 58 -55 58q-45 0 -74 -29h-81l41 233h283l-14 -73h-201l-17 -95q40 33 99 33q52 0 84 -31t32 -88q0 -81 -58.5 -128t-135.5 -47q-73 0 -109.5 29.5t-29.5 84.5zM189 0l570 700h116l-570 -700h-116zM586 94 q0 44 30 78t80 46q-28 9 -45 30t-17 50q0 60 52.5 95.5t131.5 35.5q65 0 104 -26.5t39 -73.5q0 -41 -26.5 -69.5t-69.5 -41.5q34 -9 53 -33t19 -56q0 -68 -55 -103t-141 -35q-70 0 -112.5 26t-42.5 77zM685 111q0 -51 68 -51q38 0 63.5 17.5t25.5 54.5q0 48 -68 48 q-43 0 -66 -18t-23 -51zM729 293q0 -44 57 -44q76 0 76 65q0 46 -56 46q-33 0 -55 -16.5t-22 -50.5z" />
<glyph unicode="&#x215e;" horiz-adv-x="861" d="M83 0l570 700h116l-570 -700h-116zM132 280l221 347h-193l13 73h285l-13 -73l-219 -347h-94zM480 94q0 44 30 78t80 46q-28 9 -45 30t-17 50q0 60 52.5 95.5t131.5 35.5q65 0 104 -26.5t39 -73.5q0 -41 -26.5 -69.5t-69.5 -41.5q34 -9 53 -33t19 -56q0 -68 -55 -103 t-141 -35q-70 0 -112.5 26t-42.5 77zM579 111q0 -51 68 -51q38 0 63.5 17.5t25.5 54.5q0 48 -68 48q-43 0 -66 -18t-23 -51zM623 293q0 -44 57 -44q76 0 76 65q0 46 -56 46q-33 0 -55 -16.5t-22 -50.5z" />
<glyph unicode="&#x2190;" horiz-adv-x="751" d="M87 266l357 304l53 -65l-229 -195h497l-15 -88h-504l163 -198l-72 -61z" />
<glyph unicode="&#x2191;" horiz-adv-x="687" d="M92 298l358 303l249 -303l-73 -62l-162 197l-89 -502h-88l88 498l-230 -196z" />
<glyph unicode="&#x2192;" horiz-adv-x="751" d="M79 222l16 88h503l-162 198l71 61l251 -303l-358 -304l-53 65l229 195h-497z" />
<glyph unicode="&#x2193;" horiz-adv-x="687" d="M82 234l72 62l163 -197l89 502h88l-88 -498l230 196l53 -65l-357 -303z" />
<glyph unicode="&#x2196;" horiz-adv-x="624" d="M96 90l76 429h429l-16 -89h-280l292 -354l-71 -62l-292 355l-50 -279h-88z" />
<glyph unicode="&#x2197;" horiz-adv-x="624" d="M52 76l416 354h-277l16 89h429l-76 -429h-88l48 276l-415 -353z" />
<glyph unicode="&#x2198;" horiz-adv-x="624" d="M118 14l15 89h280l-291 354l72 61l290 -354l50 279h88l-75 -429h-429z" />
<glyph unicode="&#x2199;" horiz-adv-x="624" d="M82 14l76 429h88l-49 -278l417 355l51 -65l-415 -352h277l-16 -89h-429z" />
<glyph unicode="&#x2202;" horiz-adv-x="614" d="M53 186q0 122 70 194.5t182 72.5q49 0 94 -23.5t69 -60.5q5 53 5 101q0 104 -34 157t-88 53q-83 0 -114 -92h-115q23 81 85.5 126t158.5 45q99 0 159 -82t60 -224q0 -216 -86.5 -342t-241.5 -126q-88 0 -146 54.5t-58 146.5zM167 189q0 -57 28.5 -91.5t77.5 -34.5 q64 0 113 61t71 171q-18 32 -56.5 52.5t-82.5 20.5q-73 0 -112 -50t-39 -129z" />
<glyph unicode="&#x2205;" horiz-adv-x="656" d="M105 322q0 136 100.5 231t234.5 95q60 0 111 -24l59 72l64 -48l-59 -72q61 -66 61 -166q0 -136 -100.5 -231t-234.5 -95q-61 0 -109 24l-59 -73l-64 49l58 71q-62 67 -62 167zM195 335q0 -62 33 -106l263 321q-30 12 -66 12q-93 0 -161.5 -65t-68.5 -162zM293 181 q30 -11 64 -11q93 0 161 65t68 162q0 62 -32 105z" />
<glyph unicode="&#x2206;" horiz-adv-x="626" d="M32 0l15 85l324 615h115l117 -615l-15 -85h-556zM159 85h331l-62 358l-20 149l-70 -149z" />
<glyph unicode="&#x220f;" horiz-adv-x="730" d="M81 0l123 700h558l-123 -700h-113l109 614h-333l-108 -614h-113z" />
<glyph unicode="&#x2211;" horiz-adv-x="564" d="M81 0l15 86l256 281l-162 247l14 86h429l-14 -86h-310l140 -211l-16 -89l-212 -228h305l-16 -86h-429z" />
<glyph unicode="&#x2212;" horiz-adv-x="561" d="M100 323l15 86h466l-15 -86h-466z" />
<glyph unicode="&#x221a;" horiz-adv-x="649" d="M106 445l12 74h184l42 -259l18 -146l68 146l215 440h106l-360 -700h-103l-82 445h-100z" />
<glyph unicode="&#x221e;" horiz-adv-x="807" d="M94 322q0 90 64 154.5t150 64.5q53 0 90.5 -32t72.5 -87q117 119 208 119q66 0 107 -44.5t41 -112.5q0 -90 -64 -154.5t-150 -64.5q-54 0 -91 31.5t-73 87.5q-115 -119 -206 -119q-67 0 -108 44.5t-41 112.5zM188 336q0 -36 20 -60.5t55 -24.5q31 0 65 26.5t80 75.5 q-29 49 -54 75.5t-56 26.5q-47 0 -78.5 -35.5t-31.5 -83.5zM513 353q28 -49 53.5 -75.5t56.5 -26.5q47 0 78.5 35.5t31.5 83.5q0 36 -20 60.5t-55 24.5q-32 0 -64.5 -25.5t-80.5 -76.5z" />
<glyph unicode="&#x222b;" horiz-adv-x="422" d="M12 -223l14 84q42 0 73.5 26.5t41.5 83.5l94 534q18 98 85 154t161 56l-15 -84q-42 0 -73.5 -26.5t-41.5 -83.5l-94 -534q-18 -98 -85 -154t-160 -56z" />
<glyph unicode="&#x2248;" horiz-adv-x="568" d="M61 223q78 125 180 125q32 0 61 -12.5t46 -28t39 -28t42 -12.5q43 0 95 74l67 -38q-79 -126 -180 -126q-32 0 -61 13t-46 28t-39 28t-42 13q-43 0 -95 -75zM97 429q78 125 180 125q32 0 61 -12.5t46 -28t39 -28t42 -12.5q44 0 96 74l66 -38q-79 -126 -179 -126 q-41 0 -75 20.5t-61.5 41t-52.5 20.5q-43 0 -95 -75z" />
<glyph unicode="&#x2260;" horiz-adv-x="561" d="M82 220l15 86h163l67 120h-209l15 86h242l90 163h94l-90 -163h130l-15 -86h-163l-67 -120h209l-15 -86h-241l-92 -165h-94l92 165h-131z" />
<glyph unicode="&#x2264;" horiz-adv-x="553" d="M37 0l16 86h466l-16 -86h-466zM98 342l16 92l500 197l-15 -93l-384 -151l330 -151l-16 -91z" />
<glyph unicode="&#x2265;" horiz-adv-x="553" d="M42 0l15 86h466l-15 -86h-466zM68 145l15 93l384 152l-330 150l16 91l431 -197l-16 -92z" />
<glyph unicode="&#x25ca;" horiz-adv-x="556" d="M96 350l249 350h104l127 -350l-250 -350h-104zM196 348l92 -250l189 254l-93 249z" />
<glyph unicode="&#x25fc;" horiz-adv-x="520" d="M0 0v520h520v-520h-520z" />
<glyph unicode="&#x27f5;" horiz-adv-x="1378" d="M87 266l357 304l53 -65l-229 -195h1124l-15 -88h-1131l163 -198l-72 -61z" />
<glyph unicode="&#x27f6;" horiz-adv-x="1378" d="M79 222l16 88h1130l-163 198l72 61l250 -303l-357 -304l-53 65l228 195h-1123z" />
<glyph unicode="&#x301a;" horiz-adv-x="373" d="M99 -125l167 950h231l-13 -73h-73l-141 -804h73l-13 -73h-231zM174 -52h33l142 804h-33z" />
<glyph unicode="&#x301b;" horiz-adv-x="379" d="M-4 -125l12 73h73l142 804h-73l13 73h231l-167 -950h-231zM144 -52h33l141 804h-33z" />
<glyph horiz-adv-x="731" d="M93 276q0 192 110.5 315.5t282.5 123.5q126 0 195.5 -78.5t69.5 -212.5q0 -192 -110 -315.5t-284 -123.5q-125 0 -194.5 78.5t-69.5 212.5zM205 -145l15 86h369l-15 -86h-369zM213 276q0 -99 43 -152t117 -53q115 0 186.5 99.5t71.5 253.5q0 99 -43 152t-117 53 q-115 0 -186.5 -99.5t-71.5 -253.5z" />
<glyph horiz-adv-x="558" d="M60 100q0 78 69.5 134.5t212.5 56.5q23 0 79 -4l11 59q19 115 -75 115q-103 0 -128 -115h-109q16 89 86 138.5t164 49.5q86 0 136.5 -40t34.5 -135l-64 -359h-107l11 61q-91 -76 -187 -76q-62 0 -98 31.5t-36 83.5zM172 126q0 -60 84 -60q63 0 137 60l17 96q-35 4 -72 4 q-87 0 -126.5 -28t-39.5 -72z" />
<glyph horiz-adv-x="590" d="M15 -93q0 81 99 146q-29 22 -29 65q0 60 69 123q-44 38 -44 100q0 91 74.5 142t182.5 51q55 0 99 -15h182l-12 -74h-82q11 -25 11 -56q0 -91 -74.5 -142t-182.5 -51q-64 0 -108 19q-17 -30 -17 -54q0 -37 41 -37h158q74 0 115 -32t41 -87q0 -94 -94.5 -161t-220.5 -67 q-103 0 -155.5 34.5t-52.5 95.5zM120 -56q0 -97 130 -97q79 0 127 33.5t48 90.5q0 31 -21.5 47t-54.5 16h-161q-17 0 -32 3q-36 -44 -36 -93zM217 347q0 -41 28 -61t75 -20q62 0 100 29t38 89q0 81 -103 81q-138 0 -138 -118z" />
<glyph horiz-adv-x="259" d="M-106 -206l12 68q38 -10 64 -10q33 0 57.5 20.5t32.5 62.5l103 584h107l-103 -583q-14 -79 -65 -119t-133 -40q-44 0 -75 17zM173 652q0 32 24 55.5t56 23.5q26 0 41.5 -17t15.5 -42q0 -32 -24.5 -55t-56.5 -23q-25 0 -40.5 16.5t-15.5 41.5z" />
<glyph horiz-adv-x="369" d="M89 445l12 74h114l25 141h107l-25 -141h114l-12 -74h-115l-78 -445h-107l78 445h-113z" />
<glyph horiz-adv-x="518" d="M71 0l92 519h107l-92 -519h-107zM152 -206l12 68q38 -10 64 -10q33 0 57.5 20.5t32.5 62.5l103 584h107l-103 -583q-14 -79 -65 -119t-133 -40q-44 0 -75 17zM173 652q0 32 24 55.5t56 23.5q26 0 41.5 -17t15.5 -42q0 -32 -24.5 -55t-56.5 -23q-25 0 -40.5 16.5 t-15.5 41.5zM431 652q0 32 24 55.5t56 23.5q26 0 41.5 -17t15.5 -42q0 -32 -24.5 -55t-56.5 -23q-25 0 -40.5 16.5t-15.5 41.5z" />
<glyph horiz-adv-x="558" d="M60 100q0 78 69.5 134.5t212.5 56.5q23 0 79 -4l11 59q19 115 -75 115q-103 0 -128 -115h-109q16 89 86 138.5t164 49.5q86 0 136.5 -40t34.5 -135l-64 -359h-107l11 61q-91 -76 -187 -76q-62 0 -98 31.5t-36 83.5zM172 126q0 -60 84 -60q63 0 137 60l17 96q-35 4 -72 4 q-87 0 -126.5 -28t-39.5 -72zM282 582l127 154h140l-173 -154h-94z" />
<glyph horiz-adv-x="558" d="M60 100q0 78 69.5 134.5t212.5 56.5q23 0 79 -4l11 59q19 115 -75 115q-103 0 -128 -115h-109q16 89 86 138.5t164 49.5q86 0 136.5 -40t34.5 -135l-64 -359h-107l11 61q-91 -76 -187 -76q-62 0 -98 31.5t-36 83.5zM172 126q0 -60 84 -60q63 0 137 60l17 96q-35 4 -72 4 q-87 0 -126.5 -28t-39.5 -72zM256 736h75q-6 -35 8 -58t49 -23t56.5 22.5t27.5 58.5h78q-15 -80 -64 -121.5t-112 -41.5t-97.5 41.5t-20.5 121.5z" />
<glyph horiz-adv-x="558" d="M60 100q0 78 69.5 134.5t212.5 56.5q23 0 79 -4l11 59q19 115 -75 115q-103 0 -128 -115h-109q16 89 86 138.5t164 49.5q86 0 136.5 -40t34.5 -135l-64 -359h-107l11 61q-91 -76 -187 -76q-62 0 -98 31.5t-36 83.5zM172 126q0 -60 84 -60q63 0 137 60l17 96q-35 4 -72 4 q-87 0 -126.5 -28t-39.5 -72zM203 582l143 154h113l86 -154h-89l-65 83l-95 -83h-93z" />
<glyph horiz-adv-x="558" d="M60 100q0 78 69.5 134.5t212.5 56.5q23 0 79 -4l11 59q19 115 -75 115q-103 0 -128 -115h-109q16 89 86 138.5t164 49.5q86 0 136.5 -40t34.5 -135l-64 -359h-107l11 61q-91 -76 -187 -76q-62 0 -98 31.5t-36 83.5zM172 126q0 -60 84 -60q63 0 137 60l17 96q-35 4 -72 4 q-87 0 -126.5 -28t-39.5 -72zM223 653q0 31 24 53.5t56 22.5q25 0 40.5 -16.5t15.5 -40.5q0 -31 -23.5 -54t-55.5 -23q-25 0 -41 16.5t-16 41.5zM419 652q0 31 24 54t56 23q25 0 40.5 -16.5t15.5 -41.5q0 -31 -24 -53.5t-56 -22.5q-25 0 -40.5 16.5t-15.5 40.5z" />
<glyph horiz-adv-x="558" d="M60 100q0 78 69.5 134.5t212.5 56.5q23 0 79 -4l11 59q19 115 -75 115q-103 0 -128 -115h-109q16 89 86 138.5t164 49.5q86 0 136.5 -40t34.5 -135l-64 -359h-107l11 61q-91 -76 -187 -76q-62 0 -98 31.5t-36 83.5zM172 126q0 -60 84 -60q63 0 137 60l17 96q-35 4 -72 4 q-87 0 -126.5 -28t-39.5 -72zM254 736h130l81 -154h-88z" />
<glyph horiz-adv-x="558" d="M60 100q0 78 69.5 134.5t212.5 56.5q23 0 79 -4l11 59q19 115 -75 115q-103 0 -128 -115h-109q16 89 86 138.5t164 49.5q86 0 136.5 -40t34.5 -135l-64 -359h-107l11 61q-91 -76 -187 -76q-62 0 -98 31.5t-36 83.5zM172 126q0 -60 84 -60q63 0 137 60l17 96q-35 4 -72 4 q-87 0 -126.5 -28t-39.5 -72zM229 612l14 78h302l-14 -78h-302z" />
<glyph horiz-adv-x="558" d="M60 100q0 78 69.5 134.5t212.5 56.5q23 0 79 -4l11 59q19 115 -75 115q-103 0 -128 -115h-109q16 89 86 138.5t164 49.5q86 0 136.5 -40t34.5 -135l-64 -359q-144 -68 -144 -141q0 -18 12 -28.5t29 -10.5q31 0 75 21l-11 -65q-48 -24 -105 -24q-44 0 -68.5 24t-24.5 61 q0 93 139 163h-9l11 61q-91 -76 -187 -76q-62 0 -98 31.5t-36 83.5zM172 126q0 -60 84 -60q63 0 137 60l17 96q-35 4 -72 4q-87 0 -126.5 -28t-39.5 -72z" />
<glyph horiz-adv-x="558" d="M60 100q0 78 69.5 134.5t212.5 56.5q23 0 79 -4l11 59q19 115 -75 115q-103 0 -128 -115h-109q16 89 86 138.5t164 49.5q86 0 136.5 -40t34.5 -135l-64 -359h-107l11 61q-91 -76 -187 -76q-62 0 -98 31.5t-36 83.5zM172 126q0 -60 84 -60q63 0 137 60l17 96q-35 4 -72 4 q-87 0 -126.5 -28t-39.5 -72zM270 644q0 50 39.5 81t95.5 31q46 0 74 -22.5t28 -60.5q0 -50 -39.5 -81t-96.5 -31q-45 0 -73 22.5t-28 60.5zM352 641q13 -27 43 -15q18 4 26.5 17.5t3.5 32.5q-12 28 -43 15q-18 -4 -26.5 -17.5t-3.5 -32.5z" />
<glyph horiz-adv-x="558" d="M60 100q0 78 69.5 134.5t212.5 56.5q23 0 79 -4l11 59q19 115 -75 115q-103 0 -128 -115h-109q16 89 86 138.5t164 49.5q86 0 136.5 -40t34.5 -135l-64 -359h-107l11 61q-91 -76 -187 -76q-62 0 -98 31.5t-36 83.5zM172 126q0 -60 84 -60q63 0 137 60l17 96q-35 4 -72 4 q-87 0 -126.5 -28t-39.5 -72zM205 621q26 47 62 72.5t68 25.5q30 0 70.5 -22.5t53.5 -22.5q29 0 57 42l55 -29q-26 -48 -62 -73t-68 -25q-30 0 -70.5 22t-54.5 22q-29 0 -57 -41z" />
<glyph horiz-adv-x="590" d="M15 -93q0 81 99 146q-29 22 -29 65q0 60 69 123q-44 38 -44 100q0 91 74.5 142t182.5 51q55 0 99 -15h182l-12 -74h-82q11 -25 11 -56q0 -91 -74.5 -142t-182.5 -51q-64 0 -108 19q-17 -30 -17 -54q0 -37 41 -37h158q74 0 115 -32t41 -87q0 -94 -94.5 -161t-220.5 -67 q-103 0 -155.5 34.5t-52.5 95.5zM120 -56q0 -97 130 -97q79 0 127 33.5t48 90.5q0 31 -21.5 47t-54.5 16h-161q-17 0 -32 3q-36 -44 -36 -93zM217 347q0 -41 28 -61t75 -20q62 0 100 29t38 89q0 81 -103 81q-138 0 -138 -118zM261 736h75q-6 -35 8 -58t49 -23t56.5 22.5 t27.5 58.5h78q-15 -80 -64 -121.5t-112 -41.5t-97.5 41.5t-20.5 121.5z" />
<glyph horiz-adv-x="590" d="M15 -93q0 81 99 146q-29 22 -29 65q0 60 69 123q-44 38 -44 100q0 91 74.5 142t182.5 51q55 0 99 -15h182l-12 -74h-82q11 -25 11 -56q0 -91 -74.5 -142t-182.5 -51q-64 0 -108 19q-17 -30 -17 -54q0 -37 41 -37h158q74 0 115 -32t41 -87q0 -94 -94.5 -161t-220.5 -67 q-103 0 -155.5 34.5t-52.5 95.5zM120 -56q0 -97 130 -97q79 0 127 33.5t48 90.5q0 31 -21.5 47t-54.5 16h-161q-17 0 -32 3q-36 -44 -36 -93zM209 582l143 154h113l86 -154h-89l-65 83l-95 -83h-93zM217 347q0 -41 28 -61t75 -20q62 0 100 29t38 89q0 81 -103 81 q-138 0 -138 -118z" />
<glyph horiz-adv-x="590" d="M15 -93q0 81 99 146q-29 22 -29 65q0 60 69 123q-44 38 -44 100q0 91 74.5 142t182.5 51q55 0 99 -15h182l-12 -74h-82q11 -25 11 -56q0 -91 -74.5 -142t-182.5 -51q-64 0 -108 19q-17 -30 -17 -54q0 -37 41 -37h158q74 0 115 -32t41 -87q0 -94 -94.5 -161t-220.5 -67 q-103 0 -155.5 34.5t-52.5 95.5zM120 -56q0 -97 130 -97q79 0 127 33.5t48 90.5q0 31 -21.5 47t-54.5 16h-161q-17 0 -32 3q-36 -44 -36 -93zM217 347q0 -41 28 -61t75 -20q62 0 100 29t38 89q0 81 -103 81q-138 0 -138 -118zM309 583l79 186h77l-53 -186h-103z" />
<glyph horiz-adv-x="590" d="M15 -93q0 81 99 146q-29 22 -29 65q0 60 69 123q-44 38 -44 100q0 91 74.5 142t182.5 51q55 0 99 -15h182l-12 -74h-82q11 -25 11 -56q0 -91 -74.5 -142t-182.5 -51q-64 0 -108 19q-17 -30 -17 -54q0 -37 41 -37h158q74 0 115 -32t41 -87q0 -94 -94.5 -161t-220.5 -67 q-103 0 -155.5 34.5t-52.5 95.5zM120 -56q0 -97 130 -97q79 0 127 33.5t48 90.5q0 31 -21.5 47t-54.5 16h-161q-17 0 -32 3q-36 -44 -36 -93zM217 347q0 -41 28 -61t75 -20q62 0 100 29t38 89q0 81 -103 81q-138 0 -138 -118zM324 652q0 32 24.5 55.5t57.5 23.5q26 0 42 -17 t16 -42q0 -32 -24.5 -55t-57.5 -23q-26 0 -42 16.5t-16 41.5z" />
<glyph horiz-adv-x="259" d="M71 0l92 519h107l-92 -519h-107zM173 652q0 32 24 55.5t56 23.5q26 0 41.5 -17t15.5 -42q0 -32 -24.5 -55t-56.5 -23q-25 0 -40.5 16.5t-15.5 41.5z" />
<glyph horiz-adv-x="259" d="M-106 -206l12 68q38 -10 64 -10q33 0 57.5 20.5t32.5 62.5l103 584h107l-103 -583q-14 -79 -65 -119t-133 -40q-44 0 -75 17zM56 582l143 154h113l86 -154h-89l-65 83l-95 -83h-93z" />
<glyph horiz-adv-x="369" d="M75 260l14 78h94l19 107h-113l12 74h114l25 141h107l-25 -141h114l-12 -74h-115l-19 -107h97l-14 -78h-96l-46 -260h-107l46 260h-95z" />
<glyph horiz-adv-x="369" d="M89 445l12 74h114l25 141h107l-25 -141h114l-12 -74h-115l-78 -445h-107l78 445h-113zM385 577l40 226h99l-63 -226h-76z" />
<glyph horiz-adv-x="369" d="M46 -234l10 56q26 -13 62 -13q22 0 40.5 11.5t18.5 32.5q0 16 -14 24.5t-32 8.5q-20 0 -41 -6l-15 36l78 84h-29l78 445h-113l12 74h114l25 141h107l-25 -141h114l-12 -74h-115l-78 -445h-9l-60 -65q41 3 69.5 -15t28.5 -55q0 -52 -44 -82.5t-101 -30.5q-42 0 -69 14z " />
<glyph horiz-adv-x="369" d="M64 -248l53 186h103l-79 -186h-77zM89 445l12 74h114l25 141h107l-25 -141h114l-12 -74h-115l-78 -445h-107l78 445h-113z" />
<glyph horiz-adv-x="529" d="M4 0l298 543h97l120 -543h-110l-26 136h-202l-70 -136h-107zM220 212h149l-21 110l-17 109l-54 -109z" />
<glyph horiz-adv-x="547" d="M81 0l96 543h196q82 0 132 -29.5t50 -92.5q0 -50 -31.5 -87t-79.5 -50q41 -7 66 -34.5t25 -71.5q0 -86 -67.5 -132t-173.5 -46h-213zM200 74h108q63 0 91.5 23t28.5 74q0 66 -92 66h-107zM242 310h90q114 0 114 96q0 63 -86 63h-91z" />
<glyph horiz-adv-x="564" d="M85 212q0 149 85 247t219 98q89 0 146 -50.5t51 -143.5h-111q2 60 -25.5 89t-73.5 29q-84 0 -131.5 -77t-47.5 -193q0 -71 27 -110.5t78 -39.5q48 0 85 29.5t55 89.5h112q-27 -94 -102 -144.5t-164 -50.5q-98 0 -150.5 61t-52.5 166z" />
<glyph horiz-adv-x="599" d="M81 0l96 543h177q120 0 186.5 -59t66.5 -164q0 -147 -95.5 -233.5t-253.5 -86.5h-177zM200 76h72q101 0 161.5 59.5t60.5 180.5q0 77 -40.5 113.5t-112.5 36.5h-72z" />
<glyph horiz-adv-x="475" d="M81 0l96 543h349l-14 -77h-243l-25 -143h226l-13 -77h-227l-30 -170h243l-13 -76h-349z" />
<glyph horiz-adv-x="451" d="M81 0l96 543h340l-14 -77h-234l-28 -158h218l-13 -77h-219l-40 -231h-106z" />
<glyph horiz-adv-x="577" d="M84 201q0 157 84.5 256.5t221.5 99.5q88 0 145 -48t52 -134h-112q1 53 -26 79.5t-73 26.5q-83 0 -131 -77.5t-48 -195.5q0 -147 103 -147q70 0 136 54l15 86h-122l13 74h223l-48 -275h-101l8 49q-31 -27 -76.5 -45.5t-87.5 -18.5q-86 0 -131 58t-45 158z" />
<glyph horiz-adv-x="627" d="M81 0l96 543h106l-39 -220h252l39 220h105l-96 -543h-105l43 246h-252l-43 -246h-106z" />
<glyph horiz-adv-x="270" d="M81 0l96 543h106l-96 -543h-106z" />
<glyph horiz-adv-x="491" d="M55 181h113q-14 -120 66 -120q85 0 104 98l68 384h106l-66 -368q-16 -93 -77.5 -141.5t-149.5 -48.5q-81 0 -130 47t-34 149z" />
<glyph horiz-adv-x="543" d="M81 0l96 543h106l-45 -253l233 253h115l-245 -257l180 -286h-122l-163 276l-49 -276h-106z" />
<glyph horiz-adv-x="463" d="M89 0l96 543h106l-82 -467h217l-14 -76h-323z" />
<glyph horiz-adv-x="721" d="M81 0l96 543h115l93 -404l243 404h106l-96 -543h-99l45 258l20 98l-194 -325h-88l-81 345l-18 -110l-47 -266h-95z" />
<glyph horiz-adv-x="617" d="M81 0l96 543h104l184 -404l17 111l52 293h96l-96 -543h-104l-184 403l-18 -110l-52 -293h-95z" />
<glyph horiz-adv-x="616" d="M85 218q0 147 92.5 243t227.5 96q102 0 161 -63.5t59 -169.5q0 -147 -92.5 -243t-228.5 -96q-102 0 -160.5 63.5t-58.5 169.5zM198 219q0 -75 32 -116.5t88 -41.5q84 0 139.5 72.5t55.5 189.5q0 74 -32.5 116t-89.5 42q-84 0 -138.5 -73t-54.5 -189z" />
<glyph horiz-adv-x="509" d="M81 0l96 543h191q76 0 125.5 -39.5t49.5 -112.5q0 -98 -71 -152.5t-167 -54.5h-86l-32 -184h-106zM233 259h85q53 0 85 31t32 96q0 82 -81 82h-85z" />
<glyph horiz-adv-x="616" d="M85 218q0 147 92.5 243t227.5 96q102 0 161 -63.5t59 -169.5q0 -109 -53 -192t-140 -121l104 -128h-124l-81 103q-9 -1 -27 -1q-102 0 -160.5 63.5t-58.5 169.5zM198 219q0 -75 32 -116.5t88 -41.5q84 0 139.5 72.5t55.5 189.5q0 74 -32.5 116t-89.5 42q-84 0 -138.5 -73 t-54.5 -189z" />
<glyph horiz-adv-x="616" d="M85 218q0 147 92.5 243t227.5 96q102 0 161 -63.5t59 -169.5q0 -147 -92.5 -243t-228.5 -96q-102 0 -160.5 63.5t-58.5 169.5zM185 -126l14 77h293l-13 -77h-294zM198 219q0 -75 32 -116.5t88 -41.5q84 0 139.5 72.5t55.5 189.5q0 74 -32.5 116t-89.5 42 q-84 0 -138.5 -73t-54.5 -189z" />
<glyph horiz-adv-x="524" d="M81 0l96 543h186q77 0 127 -38t50 -109q0 -72 -42.5 -119t-110.5 -66l116 -211h-116l-99 200h-66l-35 -200h-106zM235 274h81q53 0 84.5 28t31.5 89q0 77 -82 77h-81z" />
<glyph horiz-adv-x="521" d="M73 162h109q-4 -52 25.5 -77.5t75.5 -25.5q49 0 85.5 25t36.5 69q0 37 -30 54.5t-84 28.5q-29 6 -50 11.5t-45.5 16.5t-40.5 25t-26.5 36.5t-10.5 50.5q0 82 66.5 131.5t167.5 49.5q96 0 148 -44.5t42 -124.5h-108q4 47 -24 71t-72 24q-47 0 -80.5 -23t-33.5 -64 q0 -35 28.5 -51t83.5 -27q36 -8 62.5 -16.5t54 -24.5t42.5 -42t15 -60q0 -84 -71 -137t-170 -53q-98 0 -152.5 46t-43.5 131z" />
<glyph horiz-adv-x="449" d="M110 466l14 77h399l-14 -77h-147l-82 -466h-106l82 466h-146z" />
<glyph horiz-adv-x="613" d="M116 187l63 356h106l-61 -341q-24 -141 97 -141q63 0 100 35.5t47 90.5l63 356h95l-60 -341q-18 -101 -89 -159t-171 -58q-105 0 -156 53t-34 149z" />
<glyph horiz-adv-x="529" d="M104 543h112l59 -304l20 -118l59 118l159 304h107l-299 -543h-96z" />
<glyph horiz-adv-x="761" d="M104 543h111l27 -287l10 -114l48 114l133 287h97l36 -287l12 -115l168 402h105l-249 -543h-95l-38 287l-12 116l-49 -116l-134 -287h-99z" />
<glyph horiz-adv-x="492" d="M8 0l226 272l-126 271h111l81 -184l146 184h111l-214 -257l135 -286h-111l-89 200l-159 -200h-111z" />
<glyph horiz-adv-x="521" d="M128 543h113l82 -255l166 255h101l-235 -341l-36 -202h-105l36 208z" />
<glyph horiz-adv-x="439" d="M37 0l14 76l324 390h-250l14 77h363l-14 -77l-324 -390h256l-14 -76h-369z" />
<glyph horiz-adv-x="782" d="M4 0l473 543h355l-14 -76h-243l-25 -144h227l-14 -77h-227l-29 -170h243l-14 -76h-349l24 136h-174l-114 -136h-119zM300 212h125l34 195l-76 -96z" />
<glyph horiz-adv-x="599" d="M42 231l14 77h79l42 235h177q120 0 186.5 -59t66.5 -164q0 -147 -95.5 -233.5t-253.5 -86.5h-177l41 231h-80zM200 76h72q101 0 161.5 59.5t60.5 180.5q0 77 -40.5 113.5t-112.5 36.5h-72l-28 -158h104l-14 -77h-104z" />
<glyph horiz-adv-x="761" d="M81 0l96 543h106l-96 -543h-106zM324 181h113q-14 -120 66 -120q85 0 104 98l68 384h106l-66 -368q-16 -93 -77.5 -141.5t-149.5 -48.5q-81 0 -130 47t-34 149z" />
<glyph horiz-adv-x="617" d="M81 0l96 543h104l184 -404l17 111l52 293h96l-96 -543q-31 -173 -209 -173q-47 0 -72 14l12 73q36 -9 68 -9q88 0 102 83l-189 415l-18 -110l-52 -293h-95z" />
<glyph horiz-adv-x="616" d="M49 -70l90 124q-54 62 -54 164q0 147 92.5 243t227.5 96q51 0 90 -16l51 71h115l-90 -124q54 -62 54 -164q0 -147 -92.5 -243t-228.5 -96q-50 0 -89 15l-51 -70h-115zM198 219q0 -42 10 -71l234 322q-24 11 -51 11q-84 0 -138.5 -73t-54.5 -189zM267 72q24 -11 51 -11 q84 0 139.5 72.5t55.5 189.5q0 37 -10 72z" />
<glyph horiz-adv-x="787" d="M85 223q0 146 96.5 233t253.5 87h402l-14 -77h-243l-25 -143h227l-14 -77h-227l-29 -170h243l-14 -76h-402q-119 0 -186.5 59t-67.5 164zM198 227q0 -151 154 -151h54l68 390h-53q-102 0 -162.5 -58.5t-60.5 -180.5z" />
<glyph horiz-adv-x="505" d="M81 0l96 543h106l-15 -84h85q76 0 126 -39.5t50 -111.5q0 -98 -71 -153t-168 -55h-85l-18 -100h-106zM218 175h85q54 0 86 31t32 97q0 81 -82 81h-85z" />
<glyph horiz-adv-x="631" d="M81 0l52 298q22 125 96.5 185t184.5 60h191l-14 -77l-144 -159q67 -16 95 -57.5t28 -87.5q0 -82 -61.5 -129.5t-134.5 -47.5q-70 0 -104 34.5t-24 96.5h92q-2 -28 11.5 -44t39.5 -16q34 0 56 25.5t22 69.5q0 41 -28.5 66t-82.5 25h-25l13 74l137 150h-83q-62 0 -102 -35 t-55 -123l-54 -308h-106z" />
<glyph horiz-adv-x="529" d="M4 0l298 543h97l120 -543h-110l-26 136h-202l-70 -136h-107zM220 212h149l-21 110l-17 109l-54 -109zM269 583l121 109h134l-159 -109h-96z" />
<glyph horiz-adv-x="529" d="M4 0l298 543h97l120 -543h-110l-26 136h-202l-70 -136h-107zM220 212h149l-21 110l-17 109l-54 -109zM240 692h74q-4 -19 8.5 -31t42.5 -12q57 0 64 43h77q-10 -56 -52.5 -86t-100.5 -30q-59 0 -91 30t-22 86z" />
<glyph horiz-adv-x="529" d="M4 0l298 543h97l120 -543h-110l-26 136h-202l-70 -136h-107zM188 583l144 109h84l105 -109h-93l-65 41l-79 -41h-96zM220 212h149l-21 110l-17 109l-54 -109z" />
<glyph horiz-adv-x="529" d="M4 0l298 543h97l120 -543h-110l-26 136h-202l-70 -136h-107zM217 634q0 27 21.5 45.5t48.5 18.5q22 0 36 -13.5t14 -34.5q0 -26 -21 -44.5t-49 -18.5q-21 0 -35.5 13.5t-14.5 33.5zM220 212h149l-21 110l-17 109l-54 -109zM392 634q0 27 21 45.5t48 18.5q22 0 36.5 -13.5 t14.5 -33.5q0 -27 -21.5 -45.5t-48.5 -18.5q-22 0 -36 13.5t-14 33.5z" />
<glyph horiz-adv-x="529" d="M4 0l298 543h97l120 -543h-110l-26 136h-202l-70 -136h-107zM220 212h149l-21 110l-17 109l-54 -109zM228 692h126l91 -109h-87z" />
<glyph horiz-adv-x="529" d="M4 0l298 543h97l120 -543h-110l-26 136h-202l-70 -136h-107zM220 212h149l-21 110l-17 109l-54 -109zM228 600l12 72h260l-12 -72h-260z" />
<glyph horiz-adv-x="529" d="M4 0l298 543h97l120 -543q-144 -68 -144 -141q0 -18 12 -28.5t29 -10.5q31 0 75 21l-11 -65q-48 -24 -105 -24q-44 0 -68.5 24t-24.5 61q0 93 139 163h-12l-26 136h-202l-70 -136h-107zM220 212h149l-21 110l-17 109l-54 -109z" />
<glyph horiz-adv-x="529" d="M4 0l298 543h97l120 -543h-110l-26 136h-202l-70 -136h-107zM220 212h149l-21 110l-17 109l-54 -109zM270 627q0 39 32 63t78 24q38 0 60.5 -17.5t22.5 -47.5q0 -39 -31.5 -63t-78.5 -24q-38 0 -60.5 17.5t-22.5 47.5zM341 626q9 -18 31 -10q28 7 20 35q-9 18 -31 10 q-28 -7 -20 -35z" />
<glyph horiz-adv-x="529" d="M4 0l298 543h97l120 -543h-110l-26 136h-202l-70 -136h-107zM205 618q44 77 105 77q24 0 64 -16t53 -16q23 0 43 29l52 -28q-43 -76 -105 -76q-24 0 -64.5 15t-53.5 15q-22 0 -42 -27zM220 212h149l-21 110l-17 109l-54 -109z" />
<glyph horiz-adv-x="564" d="M85 212q0 149 85 247t219 98q89 0 146 -50.5t51 -143.5h-111q2 60 -25.5 89t-73.5 29q-84 0 -131.5 -77t-47.5 -193q0 -71 27 -110.5t78 -39.5q48 0 85 29.5t55 89.5h112q-27 -94 -102 -144.5t-164 -50.5q-98 0 -150.5 61t-52.5 166zM290 583l121 109h134l-159 -109h-96z " />
<glyph horiz-adv-x="564" d="M85 212q0 149 85 247t219 98q89 0 146 -50.5t51 -143.5h-111q2 60 -25.5 89t-73.5 29q-84 0 -131.5 -77t-47.5 -193q0 -71 27 -110.5t78 -39.5q48 0 85 29.5t55 89.5h112q-27 -94 -102 -144.5t-164 -50.5q-98 0 -150.5 61t-52.5 166zM238 692h93l64 -42l80 42h97 l-144 -109h-84z" />
<glyph horiz-adv-x="564" d="M85 212q0 149 85 247t219 98q89 0 146 -50.5t51 -143.5h-111q2 60 -25.5 89t-73.5 29q-84 0 -131.5 -77t-47.5 -193q0 -71 27 -110.5t78 -39.5q48 0 85 29.5t55 89.5h112q-25 -86 -91 -136t-148 -58l-47 -51q41 3 69.5 -15t28.5 -55q0 -52 -44 -82.5t-101 -30.5 q-42 0 -69 14l10 56q26 -13 62 -13q22 0 40.5 11.5t18.5 32.5q0 16 -14 24.5t-32 8.5q-20 0 -41 -6l-15 36l67 72q-79 13 -121 72t-42 152z" />
<glyph horiz-adv-x="564" d="M85 212q0 149 85 247t219 98q89 0 146 -50.5t51 -143.5h-111q2 60 -25.5 89t-73.5 29q-84 0 -131.5 -77t-47.5 -193q0 -71 27 -110.5t78 -39.5q48 0 85 29.5t55 89.5h112q-27 -94 -102 -144.5t-164 -50.5q-98 0 -150.5 61t-52.5 166zM219 583l144 109h84l105 -109h-93 l-65 41l-79 -41h-96z" />
<glyph horiz-adv-x="564" d="M85 212q0 149 85 247t219 98q89 0 146 -50.5t51 -143.5h-111q2 60 -25.5 89t-73.5 29q-84 0 -131.5 -77t-47.5 -193q0 -71 27 -110.5t78 -39.5q48 0 85 29.5t55 89.5h112q-27 -94 -102 -144.5t-164 -50.5q-98 0 -150.5 61t-52.5 166zM334 634q0 27 21.5 45.5t49.5 18.5 q22 0 36.5 -13.5t14.5 -34.5q0 -27 -21.5 -45t-49.5 -18q-22 0 -36.5 13t-14.5 34z" />
<glyph horiz-adv-x="599" d="M81 0l96 543h177q120 0 186.5 -59t66.5 -164q0 -147 -95.5 -233.5t-253.5 -86.5h-177zM200 76h72q101 0 161.5 59.5t60.5 180.5q0 77 -40.5 113.5t-112.5 36.5h-72zM223 692h93l64 -42l80 42h97l-144 -109h-84z" />
<glyph horiz-adv-x="599" d="M42 231l14 77h79l42 235h177q120 0 186.5 -59t66.5 -164q0 -147 -95.5 -233.5t-253.5 -86.5h-177l41 231h-80zM200 76h72q101 0 161.5 59.5t60.5 180.5q0 77 -40.5 113.5t-112.5 36.5h-72l-28 -158h104l-14 -77h-104z" />
<glyph horiz-adv-x="475" d="M81 0l96 543h349l-14 -77h-243l-25 -143h226l-13 -77h-227l-30 -170h243l-13 -76h-349zM245 583l121 109h134l-159 -109h-96z" />
<glyph horiz-adv-x="475" d="M81 0l96 543h349l-14 -77h-243l-25 -143h226l-13 -77h-227l-30 -170h243l-13 -76h-349zM238 692h74q-4 -19 8.5 -31t42.5 -12q57 0 64 43h77q-10 -56 -52.5 -86t-100.5 -30q-59 0 -91 30t-22 86z" />
<glyph horiz-adv-x="475" d="M81 0l96 543h349l-14 -77h-243l-25 -143h226l-13 -77h-227l-30 -170h243l-13 -76h-349zM204 692h93l64 -42l80 42h97l-144 -109h-84z" />
<glyph horiz-adv-x="475" d="M81 0l96 543h349l-14 -77h-243l-25 -143h226l-13 -77h-227l-30 -170h243l-13 -76h-349zM185 583l144 109h84l105 -109h-93l-65 41l-79 -41h-96z" />
<glyph horiz-adv-x="475" d="M81 0l96 543h349l-14 -77h-243l-25 -143h226l-13 -77h-227l-30 -170h243l-13 -76h-349zM215 634q0 27 21.5 45.5t48.5 18.5q22 0 36 -13.5t14 -34.5q0 -26 -21 -44.5t-49 -18.5q-21 0 -35.5 13.5t-14.5 33.5zM390 634q0 27 21 45.5t48 18.5q22 0 36.5 -13.5t14.5 -33.5 q0 -27 -21.5 -45.5t-48.5 -18.5q-22 0 -36 13.5t-14 33.5z" />
<glyph horiz-adv-x="475" d="M81 0l96 543h349l-14 -77h-243l-25 -143h226l-13 -77h-227l-30 -170h243l-13 -76h-349zM300 634q0 27 21.5 45.5t49.5 18.5q22 0 36.5 -13.5t14.5 -34.5q0 -27 -21.5 -45t-49.5 -18q-22 0 -36.5 13t-14.5 34z" />
<glyph horiz-adv-x="475" d="M81 0l96 543h349l-14 -77h-243l-25 -143h226l-13 -77h-227l-30 -170h243l-13 -76h-349zM228 692h126l91 -109h-87z" />
<glyph horiz-adv-x="475" d="M81 0l96 543h349l-14 -77h-243l-25 -143h226l-13 -77h-227l-30 -170h243l-13 -76h-349zM224 600l12 72h260l-12 -72h-260z" />
<glyph horiz-adv-x="475" d="M81 0l96 543h349l-14 -77h-243l-25 -143h226l-13 -77h-227l-30 -170h243l-13 -76h-1q-144 -68 -144 -141q0 -18 12 -28.5t29 -10.5q31 0 75 21l-11 -65q-48 -24 -105 -24q-44 0 -68.5 24t-24.5 61q0 93 139 163h-250z" />
<glyph horiz-adv-x="577" d="M84 201q0 157 84.5 256.5t221.5 99.5q88 0 145 -48t52 -134h-112q1 53 -26 79.5t-73 26.5q-83 0 -131 -77.5t-48 -195.5q0 -147 103 -147q70 0 136 54l15 86h-122l13 74h223l-48 -275h-101l8 49q-31 -27 -76.5 -45.5t-87.5 -18.5q-86 0 -131 58t-45 158zM274 692h74 q-4 -19 8.5 -31t42.5 -12q57 0 64 43h77q-10 -56 -52.5 -86t-100.5 -30q-59 0 -91 30t-22 86z" />
<glyph horiz-adv-x="577" d="M84 201q0 157 84.5 256.5t221.5 99.5q88 0 145 -48t52 -134h-112q1 53 -26 79.5t-73 26.5q-83 0 -131 -77.5t-48 -195.5q0 -147 103 -147q70 0 136 54l15 86h-122l13 74h223l-48 -275h-101l8 49q-31 -27 -76.5 -45.5t-87.5 -18.5q-86 0 -131 58t-45 158zM222 583l144 109 h84l105 -109h-93l-65 41l-79 -41h-96z" />
<glyph horiz-adv-x="577" d="M84 201q0 157 84.5 256.5t221.5 99.5q88 0 145 -48t52 -134h-112q1 53 -26 79.5t-73 26.5q-83 0 -131 -77.5t-48 -195.5q0 -147 103 -147q70 0 136 54l15 86h-122l13 74h223l-48 -275h-101l8 49q-31 -27 -76.5 -45.5t-87.5 -18.5q-86 0 -131 58t-45 158zM180 -248l53 186 h103l-79 -186h-77z" />
<glyph horiz-adv-x="577" d="M84 201q0 157 84.5 256.5t221.5 99.5q88 0 145 -48t52 -134h-112q1 53 -26 79.5t-73 26.5q-83 0 -131 -77.5t-48 -195.5q0 -147 103 -147q70 0 136 54l15 86h-122l13 74h223l-48 -275h-101l8 49q-31 -27 -76.5 -45.5t-87.5 -18.5q-86 0 -131 58t-45 158zM337 634 q0 27 21.5 45.5t49.5 18.5q22 0 36.5 -13.5t14.5 -34.5q0 -27 -21.5 -45t-49.5 -18q-22 0 -36.5 13t-14.5 34z" />
<glyph horiz-adv-x="627" d="M81 0l69 389h-55l14 76h54l14 78h106l-14 -78h252l14 78h105l-14 -78h54l-14 -76h-53l-69 -389h-105l41 236h-252l-41 -236h-106zM242 312h252l14 77h-252z" />
<glyph horiz-adv-x="627" d="M81 0l96 543h106l-39 -220h252l39 220h105l-96 -543h-105l43 246h-252l-43 -246h-106zM248 583l144 109h84l105 -109h-93l-65 41l-79 -41h-96z" />
<glyph horiz-adv-x="270" d="M81 0l96 543h106l-96 -543h-106zM151 583l121 109h134l-159 -109h-96z" />
<glyph horiz-adv-x="270" d="M81 0l96 543h106l-96 -543h-106zM125 692h74q-4 -19 8.5 -31t42.5 -12q57 0 64 43h77q-10 -56 -52.5 -86t-100.5 -30q-59 0 -91 30t-22 86z" />
<glyph horiz-adv-x="270" d="M73 583l144 109h84l105 -109h-93l-65 41l-79 -41h-96zM81 0l96 543h106l-96 -543h-106z" />
<glyph horiz-adv-x="270" d="M81 0l96 543h106l-96 -543h-106zM111 634q0 27 21 45.5t48 18.5q22 0 36.5 -13.5t14.5 -34.5q0 -26 -21.5 -44.5t-48.5 -18.5q-22 0 -36 13.5t-14 33.5zM268 634q0 27 21 45.5t48 18.5q22 0 36.5 -13.5t14.5 -33.5q0 -27 -21.5 -45.5t-48.5 -18.5q-22 0 -36 13.5 t-14 33.5z" />
<glyph horiz-adv-x="270" d="M81 0l96 543h106l-96 -543h-106zM110 692h126l91 -109h-87z" />
<glyph horiz-adv-x="270" d="M81 0l96 543h106l-96 -543h-106zM115 600l13 72h254l-13 -72h-254z" />
<glyph horiz-adv-x="270" d="M-50 -163q0 93 139 163h-8l96 543h106l-96 -543q-144 -68 -144 -141q0 -18 12 -28.5t29 -10.5q31 0 75 21l-11 -65q-48 -24 -105 -24q-44 0 -68.5 24t-24.5 61z" />
<glyph horiz-adv-x="270" d="M81 0l96 543h106l-96 -543h-106zM91 618q44 77 105 77q24 0 64 -16t53 -16q23 0 43 29l52 -28q-43 -76 -105 -76q-24 0 -64.5 15t-53.5 15q-22 0 -42 -27z" />
<glyph horiz-adv-x="491" d="M55 181h113q-14 -120 66 -120q85 0 104 98l68 384h106l-66 -368q-16 -93 -77.5 -141.5t-149.5 -48.5q-81 0 -130 47t-34 149zM300 583l144 109h84l105 -109h-93l-65 41l-79 -41h-96z" />
<glyph horiz-adv-x="543" d="M81 0l96 543h106l-45 -253l233 253h115l-245 -257l180 -286h-122l-163 276l-49 -276h-106zM149 -248l53 186h103l-79 -186h-77z" />
<glyph horiz-adv-x="463" d="M89 0l96 543h106l-82 -467h217l-14 -76h-323zM172 583l121 109h134l-159 -109h-96z" />
<glyph horiz-adv-x="463" d="M89 0l96 543h106l-82 -467h217l-14 -76h-323zM354 376l40 226h99l-63 -226h-76z" />
<glyph horiz-adv-x="463" d="M89 0l96 543h106l-82 -467h217l-14 -76h-323zM131 -248l53 186h103l-79 -186h-77z" />
<glyph horiz-adv-x="463" d="M89 0l96 543h106l-82 -467h217l-14 -76h-323zM365 264q0 27 21.5 45.5t49.5 18.5q22 0 36.5 -13.5t14.5 -34.5q0 -27 -21.5 -45t-49.5 -18q-22 0 -36.5 13t-14.5 34z" />
<glyph horiz-adv-x="463" d="M51 158l17 90l71 38l46 257h106l-34 -196l114 60l-16 -90l-114 -60l-32 -181h217l-14 -76h-323l35 196z" />
<glyph horiz-adv-x="617" d="M81 0l96 543h104l184 -404l17 111l52 293h96l-96 -543h-104l-184 403l-18 -110l-52 -293h-95zM319 583l121 109h134l-159 -109h-96z" />
<glyph horiz-adv-x="617" d="M81 0l96 543h104l184 -404l17 111l52 293h96l-96 -543h-104l-184 403l-18 -110l-52 -293h-95zM260 692h93l64 -42l80 42h97l-144 -109h-84z" />
<glyph horiz-adv-x="617" d="M81 0l96 543h104l184 -404l17 111l52 293h96l-96 -543h-104l-184 403l-18 -110l-52 -293h-95zM205 -248l53 186h103l-79 -186h-77z" />
<glyph horiz-adv-x="617" d="M81 0l96 543h104l184 -404l17 111l52 293h96l-96 -543h-104l-184 403l-18 -110l-52 -293h-95zM258 618q44 77 105 77q24 0 64 -16t53 -16q23 0 43 29l52 -28q-43 -76 -105 -76q-24 0 -64.5 15t-53.5 15q-22 0 -42 -27z" />
<glyph horiz-adv-x="616" d="M85 218q0 147 92.5 243t227.5 96q102 0 161 -63.5t59 -169.5q0 -147 -92.5 -243t-228.5 -96q-102 0 -160.5 63.5t-58.5 169.5zM198 219q0 -75 32 -116.5t88 -41.5q84 0 139.5 72.5t55.5 189.5q0 74 -32.5 116t-89.5 42q-84 0 -138.5 -73t-54.5 -189zM319 583l121 109h134 l-159 -109h-96z" />
<glyph horiz-adv-x="616" d="M85 218q0 147 92.5 243t227.5 96q102 0 161 -63.5t59 -169.5q0 -147 -92.5 -243t-228.5 -96q-102 0 -160.5 63.5t-58.5 169.5zM198 219q0 -75 32 -116.5t88 -41.5q84 0 139.5 72.5t55.5 189.5q0 74 -32.5 116t-89.5 42q-84 0 -138.5 -73t-54.5 -189zM296 692h74 q-4 -19 8.5 -31t42.5 -12q57 0 64 43h77q-10 -56 -52.5 -86t-100.5 -30q-59 0 -91 30t-22 86z" />
<glyph horiz-adv-x="616" d="M85 218q0 147 92.5 243t227.5 96q102 0 161 -63.5t59 -169.5q0 -147 -92.5 -243t-228.5 -96q-102 0 -160.5 63.5t-58.5 169.5zM198 219q0 -75 32 -116.5t88 -41.5q84 0 139.5 72.5t55.5 189.5q0 74 -32.5 116t-89.5 42q-84 0 -138.5 -73t-54.5 -189zM244 583l144 109h84 l105 -109h-93l-65 41l-79 -41h-96z" />
<glyph horiz-adv-x="616" d="M85 218q0 147 92.5 243t227.5 96q102 0 161 -63.5t59 -169.5q0 -147 -92.5 -243t-228.5 -96q-102 0 -160.5 63.5t-58.5 169.5zM198 219q0 -75 32 -116.5t88 -41.5q84 0 139.5 72.5t55.5 189.5q0 74 -32.5 116t-89.5 42q-84 0 -138.5 -73t-54.5 -189zM273 634 q0 27 21.5 45.5t48.5 18.5q22 0 36 -13.5t14 -34.5q0 -26 -21 -44.5t-49 -18.5q-21 0 -35.5 13.5t-14.5 33.5zM448 634q0 27 21 45.5t48 18.5q22 0 36.5 -13.5t14.5 -33.5q0 -27 -21.5 -45.5t-48.5 -18.5q-22 0 -36 13.5t-14 33.5z" />
<glyph horiz-adv-x="616" d="M85 218q0 147 92.5 243t227.5 96q102 0 161 -63.5t59 -169.5q0 -147 -92.5 -243t-228.5 -96q-102 0 -160.5 63.5t-58.5 169.5zM198 219q0 -75 32 -116.5t88 -41.5q84 0 139.5 72.5t55.5 189.5q0 74 -32.5 116t-89.5 42q-84 0 -138.5 -73t-54.5 -189zM284 692h126l91 -109 h-87z" />
<glyph horiz-adv-x="616" d="M85 218q0 147 92.5 243t227.5 96q102 0 161 -63.5t59 -169.5q0 -147 -92.5 -243t-228.5 -96q-102 0 -160.5 63.5t-58.5 169.5zM198 219q0 -75 32 -116.5t88 -41.5q84 0 139.5 72.5t55.5 189.5q0 74 -32.5 116t-89.5 42q-84 0 -138.5 -73t-54.5 -189zM252 583l105 109h124 l-142 -109h-87zM419 583l105 109h125l-142 -109h-88z" />
<glyph horiz-adv-x="616" d="M85 218q0 147 92.5 243t227.5 96q102 0 161 -63.5t59 -169.5q0 -147 -92.5 -243t-228.5 -96q-102 0 -160.5 63.5t-58.5 169.5zM198 219q0 -75 32 -116.5t88 -41.5q84 0 139.5 72.5t55.5 189.5q0 74 -32.5 116t-89.5 42q-84 0 -138.5 -73t-54.5 -189zM283 600l12 72h260 l-12 -72h-260z" />
<glyph horiz-adv-x="616" d="M85 218q0 147 92.5 243t227.5 96q102 0 161 -63.5t59 -169.5q0 -147 -92.5 -243t-228.5 -96q-102 0 -160.5 63.5t-58.5 169.5zM198 219q0 -75 32 -116.5t88 -41.5q84 0 139.5 72.5t55.5 189.5q0 74 -32.5 116t-89.5 42q-84 0 -138.5 -73t-54.5 -189zM261 618 q44 77 105 77q24 0 64 -16t53 -16q23 0 43 29l52 -28q-43 -76 -105 -76q-24 0 -64.5 15t-53.5 15q-22 0 -42 -27z" />
<glyph horiz-adv-x="524" d="M81 0l96 543h186q77 0 127 -38t50 -109q0 -72 -42.5 -119t-110.5 -66l116 -211h-116l-99 200h-66l-35 -200h-106zM235 274h81q53 0 84.5 28t31.5 89q0 77 -82 77h-81zM250 583l121 109h134l-159 -109h-96z" />
<glyph horiz-adv-x="524" d="M81 0l96 543h186q77 0 127 -38t50 -109q0 -72 -42.5 -119t-110.5 -66l116 -211h-116l-99 200h-66l-35 -200h-106zM204 692h93l64 -42l80 42h97l-144 -109h-84zM235 274h81q53 0 84.5 28t31.5 89q0 77 -82 77h-81z" />
<glyph horiz-adv-x="524" d="M81 0l96 543h186q77 0 127 -38t50 -109q0 -72 -42.5 -119t-110.5 -66l116 -211h-116l-99 200h-66l-35 -200h-106zM150 -248l53 186h103l-79 -186h-77zM235 274h81q53 0 84.5 28t31.5 89q0 77 -82 77h-81z" />
<glyph horiz-adv-x="521" d="M73 162h109q-4 -52 25.5 -77.5t75.5 -25.5q49 0 85.5 25t36.5 69q0 37 -30 54.5t-84 28.5q-29 6 -50 11.5t-45.5 16.5t-40.5 25t-26.5 36.5t-10.5 50.5q0 82 66.5 131.5t167.5 49.5q96 0 148 -44.5t42 -124.5h-108q4 47 -24 71t-72 24q-47 0 -80.5 -23t-33.5 -64 q0 -35 28.5 -51t83.5 -27q36 -8 62.5 -16.5t54 -24.5t42.5 -42t15 -60q0 -84 -71 -137t-170 -53q-98 0 -152.5 46t-43.5 131zM265 583l121 109h134l-159 -109h-96z" />
<glyph horiz-adv-x="521" d="M73 162h109q-4 -52 25.5 -77.5t75.5 -25.5q49 0 85.5 25t36.5 69q0 37 -30 54.5t-84 28.5q-29 6 -50 11.5t-45.5 16.5t-40.5 25t-26.5 36.5t-10.5 50.5q0 82 66.5 131.5t167.5 49.5q96 0 148 -44.5t42 -124.5h-108q4 47 -24 71t-72 24q-47 0 -80.5 -23t-33.5 -64 q0 -35 28.5 -51t83.5 -27q36 -8 62.5 -16.5t54 -24.5t42.5 -42t15 -60q0 -84 -71 -137t-170 -53q-98 0 -152.5 46t-43.5 131zM211 692h93l64 -42l80 42h97l-144 -109h-84z" />
<glyph horiz-adv-x="521" d="M73 162h109q-4 -52 25.5 -77.5t75.5 -25.5q49 0 85.5 25t36.5 69q0 37 -30 54.5t-84 28.5q-29 6 -50 11.5t-45.5 16.5t-40.5 25t-26.5 36.5t-10.5 50.5q0 82 66.5 131.5t167.5 49.5q96 0 148 -44.5t42 -124.5h-108q4 47 -24 71t-72 24q-47 0 -80.5 -23t-33.5 -64 q0 -35 28.5 -51t83.5 -27q36 -8 62.5 -16.5t54 -24.5t42.5 -42t15 -60q0 -84 -71 -137t-170 -53q-98 0 -152.5 46t-43.5 131zM147 -248l53 186h103l-79 -186h-77z" />
<glyph horiz-adv-x="521" d="M73 162h109q-4 -52 25.5 -77.5t75.5 -25.5q49 0 85.5 25t36.5 69q0 37 -30 54.5t-84 28.5q-29 6 -50 11.5t-45.5 16.5t-40.5 25t-26.5 36.5t-10.5 50.5q0 82 66.5 131.5t167.5 49.5q96 0 148 -44.5t42 -124.5h-108q4 47 -24 71t-72 24q-47 0 -80.5 -23t-33.5 -64 q0 -35 28.5 -51t83.5 -27q36 -8 62.5 -16.5t54 -24.5t42.5 -42t15 -60q0 -84 -71 -137t-170 -53q-98 0 -152.5 46t-43.5 131zM192 583l144 109h84l105 -109h-93l-65 41l-79 -41h-96z" />
<glyph horiz-adv-x="521" d="M73 162h109q-4 -52 25.5 -77.5t75.5 -25.5q49 0 85.5 25t36.5 69q0 37 -30 54.5t-84 28.5q-29 6 -50 11.5t-45.5 16.5t-40.5 25t-26.5 36.5t-10.5 50.5q0 82 66.5 131.5t167.5 49.5q96 0 148 -44.5t42 -124.5h-108q4 47 -24 71t-72 24q-47 0 -80.5 -23t-33.5 -64 q0 -35 28.5 -51t83.5 -27q36 -8 62.5 -16.5t54 -24.5t42.5 -42t15 -60q0 -80 -64.5 -132t-157.5 -57l-47 -51q41 3 69.5 -15t28.5 -55q0 -52 -44 -82.5t-101 -30.5q-42 0 -69 14l10 56q26 -13 62 -13q22 0 40.5 11.5t18.5 32.5q0 16 -14 24.5t-32 8.5q-20 0 -41 -6l-15 36 l67 72q-77 11 -117 55.5t-31 118.5z" />
<glyph horiz-adv-x="449" d="M110 466l14 77h399l-14 -77h-147l-28 -158h102l-14 -77h-101l-41 -231h-106l41 231h-98l14 77h97l28 158h-146z" />
<glyph horiz-adv-x="449" d="M110 466l14 77h399l-14 -77h-147l-82 -466h-106l82 466h-146zM184 692h93l64 -42l80 42h97l-144 -109h-84z" />
<glyph horiz-adv-x="449" d="M94 -234l10 56q26 -13 62 -13q22 0 40.5 11.5t18.5 32.5q0 16 -14 24.5t-32 8.5q-20 0 -41 -6l-15 36l78 84h-27l82 466h-146l14 77h399l-14 -77h-147l-82 -466h-10l-60 -65q41 3 69.5 -15t28.5 -55q0 -52 -44 -82.5t-101 -30.5q-42 0 -69 14z" />
<glyph horiz-adv-x="449" d="M110 466l14 77h399l-14 -77h-147l-82 -466h-106l82 466h-146zM114 -248l53 186h103l-79 -186h-77z" />
<glyph horiz-adv-x="613" d="M116 187l63 356h106l-61 -341q-24 -141 97 -141q63 0 100 35.5t47 90.5l63 356h95l-60 -341q-18 -101 -89 -159t-171 -58q-105 0 -156 53t-34 149zM314 583l121 109h134l-159 -109h-96z" />
<glyph horiz-adv-x="613" d="M116 187l63 356h106l-61 -341q-24 -141 97 -141q63 0 100 35.5t47 90.5l63 356h95l-60 -341q-18 -101 -89 -159t-171 -58q-105 0 -156 53t-34 149zM295 692h74q-4 -19 8.5 -31t42.5 -12q57 0 64 43h77q-10 -56 -52.5 -86t-100.5 -30q-59 0 -91 30t-22 86z" />
<glyph horiz-adv-x="613" d="M116 187l63 356h106l-61 -341q-24 -141 97 -141q63 0 100 35.5t47 90.5l63 356h95l-60 -341q-18 -101 -89 -159t-171 -58q-105 0 -156 53t-34 149zM243 583l144 109h84l105 -109h-93l-65 41l-79 -41h-96z" />
<glyph horiz-adv-x="613" d="M116 187l63 356h106l-61 -341q-24 -141 97 -141q63 0 100 35.5t47 90.5l63 356h95l-60 -341q-18 -101 -89 -159t-171 -58q-105 0 -156 53t-34 149zM272 634q0 27 21.5 45.5t48.5 18.5q22 0 36 -13.5t14 -34.5q0 -26 -21 -44.5t-49 -18.5q-21 0 -35.5 13.5t-14.5 33.5z M447 634q0 27 21 45.5t48 18.5q22 0 36.5 -13.5t14.5 -33.5q0 -27 -21.5 -45.5t-48.5 -18.5q-22 0 -36 13.5t-14 33.5z" />
<glyph horiz-adv-x="613" d="M116 187l63 356h106l-61 -341q-24 -141 97 -141q63 0 100 35.5t47 90.5l63 356h95l-60 -341q-18 -101 -89 -159t-171 -58q-105 0 -156 53t-34 149zM287 692h126l91 -109h-87z" />
<glyph horiz-adv-x="613" d="M116 187l63 356h106l-61 -341q-24 -141 97 -141q63 0 100 35.5t47 90.5l63 356h95l-60 -341q-18 -101 -89 -159t-171 -58q-105 0 -156 53t-34 149zM251 583l105 109h124l-142 -109h-87zM418 583l105 109h125l-142 -109h-88z" />
<glyph horiz-adv-x="613" d="M116 187l63 356h106l-61 -341q-24 -141 97 -141q63 0 100 35.5t47 90.5l63 356h95l-60 -341q-18 -101 -89 -159t-171 -58q-105 0 -156 53t-34 149zM282 600l12 72h260l-12 -72h-260z" />
<glyph horiz-adv-x="613" d="M116 187l63 356h106l-61 -341q-24 -141 97 -141q63 0 100 35.5t47 90.5l63 356h95l-60 -341q-14 -80 -61.5 -133t-118.5 -73q-135 -66 -135 -137q0 -18 12 -28.5t29 -10.5q31 0 75 21l-11 -65q-48 -24 -105 -24q-44 0 -68.5 24t-24.5 61q0 85 114 150q-89 8 -130.5 60 t-25.5 140z" />
<glyph horiz-adv-x="613" d="M116 187l63 356h106l-61 -341q-24 -141 97 -141q63 0 100 35.5t47 90.5l63 356h95l-60 -341q-18 -101 -89 -159t-171 -58q-105 0 -156 53t-34 149zM322 627q0 39 32 63t78 24q38 0 60.5 -17.5t22.5 -47.5q0 -39 -31.5 -63t-78.5 -24q-38 0 -60.5 17.5t-22.5 47.5z M393 626q9 -18 31 -10q28 7 20 35q-9 18 -31 10q-28 -7 -20 -35z" />
<glyph horiz-adv-x="613" d="M116 187l63 356h106l-61 -341q-24 -141 97 -141q63 0 100 35.5t47 90.5l63 356h95l-60 -341q-18 -101 -89 -159t-171 -58q-105 0 -156 53t-34 149zM260 618q44 77 105 77q24 0 64 -16t53 -16q23 0 43 29l52 -28q-43 -76 -105 -76q-24 0 -64.5 15t-53.5 15q-22 0 -42 -27z " />
<glyph horiz-adv-x="761" d="M104 543h111l27 -287l10 -114l48 114l133 287h97l36 -287l12 -115l168 402h105l-249 -543h-95l-38 287l-12 116l-49 -116l-134 -287h-99zM403 583l121 109h134l-159 -109h-96z" />
<glyph horiz-adv-x="761" d="M104 543h111l27 -287l10 -114l48 114l133 287h97l36 -287l12 -115l168 402h105l-249 -543h-95l-38 287l-12 116l-49 -116l-134 -287h-99zM325 583l144 109h84l105 -109h-93l-65 41l-79 -41h-96z" />
<glyph horiz-adv-x="761" d="M104 543h111l27 -287l10 -114l48 114l133 287h97l36 -287l12 -115l168 402h105l-249 -543h-95l-38 287l-12 116l-49 -116l-134 -287h-99zM354 634q0 27 21.5 45.5t48.5 18.5q22 0 36 -13.5t14 -34.5q0 -26 -21 -44.5t-49 -18.5q-21 0 -35.5 13.5t-14.5 33.5zM529 634 q0 27 21 45.5t48 18.5q22 0 36.5 -13.5t14.5 -33.5q0 -27 -21.5 -45.5t-48.5 -18.5q-22 0 -36 13.5t-14 33.5z" />
<glyph horiz-adv-x="761" d="M104 543h111l27 -287l10 -114l48 114l133 287h97l36 -287l12 -115l168 402h105l-249 -543h-95l-38 287l-12 116l-49 -116l-134 -287h-99zM355 692h126l91 -109h-87z" />
<glyph horiz-adv-x="521" d="M128 543h113l82 -255l166 255h101l-235 -341l-36 -202h-105l36 208zM281 583l121 109h134l-159 -109h-96z" />
<glyph horiz-adv-x="521" d="M128 543h113l82 -255l166 255h101l-235 -341l-36 -202h-105l36 208zM204 583l144 109h84l105 -109h-93l-65 41l-79 -41h-96z" />
<glyph horiz-adv-x="521" d="M128 543h113l82 -255l166 255h101l-235 -341l-36 -202h-105l36 208zM234 634q0 27 21.5 45.5t48.5 18.5q22 0 36 -13.5t14 -34.5q0 -26 -21 -44.5t-49 -18.5q-21 0 -35.5 13.5t-14.5 33.5zM409 634q0 27 21 45.5t48 18.5q22 0 36.5 -13.5t14.5 -33.5q0 -27 -21.5 -45.5 t-48.5 -18.5q-22 0 -36 13.5t-14 33.5z" />
<glyph horiz-adv-x="521" d="M128 543h113l82 -255l166 255h101l-235 -341l-36 -202h-105l36 208zM234 692h126l91 -109h-87z" />
<glyph horiz-adv-x="439" d="M37 0l14 76l324 390h-250l14 77h363l-14 -77l-324 -390h256l-14 -76h-369zM231 583l121 109h134l-159 -109h-96z" />
<glyph horiz-adv-x="439" d="M37 0l14 76l324 390h-250l14 77h363l-14 -77l-324 -390h256l-14 -76h-369zM182 692h93l64 -42l80 42h97l-144 -109h-84z" />
<glyph horiz-adv-x="439" d="M37 0l14 76l324 390h-250l14 77h363l-14 -77l-324 -390h256l-14 -76h-369zM275 634q0 27 21.5 45.5t49.5 18.5q22 0 36.5 -13.5t14.5 -34.5q0 -27 -21.5 -45t-49.5 -18q-22 0 -36.5 13t-14.5 34z" />
<glyph horiz-adv-x="782" d="M4 0l473 543h355l-14 -76h-243l-25 -144h227l-14 -77h-227l-29 -170h243l-14 -76h-349l24 136h-174l-114 -136h-119zM300 212h125l34 195l-76 -96zM489 583l121 109h134l-159 -109h-96z" />
<glyph horiz-adv-x="611" d="M89 445l12 74h87l14 81q14 79 64.5 119t128.5 40q52 0 80 -17l-11 -68q-40 9 -61 9q-79 0 -94 -82l-14 -82h326l-103 -583q-14 -79 -65 -119t-133 -40q-43 0 -74 17l12 68q36 -10 64 -10q33 0 57.5 20.5t31.5 62.5l90 510h-219l-78 -445h-107l78 445h-86zM525 652 q0 32 24 55.5t56 23.5q26 0 41.5 -17t15.5 -42q0 -32 -24.5 -55t-56.5 -23q-26 0 -41 16.5t-15 41.5z" />
<glyph horiz-adv-x="668" d="M89 445l12 74h87l14 81q14 79 64.5 119t128.5 40q55 0 83 -17l-11 -68q-40 9 -64 9q-79 0 -94 -82l-14 -82h219l25 141h107l-25 -141h114l-12 -74h-115l-78 -445h-107l78 445h-219l-78 -445h-107l78 445h-86z" />
<glyph horiz-adv-x="940" d="M89 445l12 74h87l14 81q14 79 64.5 119t128.5 40q55 0 83 -17l-11 -68q-40 9 -64 9q-79 0 -94 -82l-14 -82h222l14 81q14 79 64.5 119t128.5 40q52 0 80 -17l-11 -68q-40 9 -61 9q-79 0 -94 -82l-14 -82h326l-103 -583q-14 -79 -65 -119t-133 -40q-43 0 -74 17l12 68 q36 -10 64 -10q33 0 57.5 20.5t31.5 62.5l90 510h-219l-78 -445h-107l78 445h-222l-78 -445h-107l78 445h-86zM854 652q0 32 24 55.5t56 23.5q26 0 41.5 -17t15.5 -42q0 -32 -24.5 -55t-56.5 -23q-26 0 -41 16.5t-15 41.5z" />
<glyph horiz-adv-x="997" d="M89 445l12 74h87l14 81q14 79 64.5 119t128.5 40q55 0 83 -17l-11 -68q-40 9 -64 9q-79 0 -94 -82l-14 -82h222l14 81q14 79 64.5 119t128.5 40q55 0 83 -17l-11 -68q-40 9 -64 9q-79 0 -94 -82l-14 -82h219l25 141h107l-25 -141h114l-12 -74h-115l-78 -445h-107l78 445 h-219l-78 -445h-107l78 445h-222l-78 -445h-107l78 445h-86z" />
<glyph horiz-adv-x="709" d="M89 445l12 74h114l25 141h107l-25 -141h233l25 141h107l-25 -141h114l-12 -74h-115l-78 -445h-107l78 445h-233l-78 -445h-107l78 445h-113z" />
<glyph horiz-adv-x="343" d="M117 552q0 89 49 141t116 52q44 0 71 -34l4 25h81l-51 -296h-82l5 29q-48 -38 -94 -38q-44 0 -71.5 31.5t-27.5 89.5zM201 559q0 -65 50 -65q34 0 69 30l23 130q-23 28 -57 28q-38 0 -61.5 -30.5t-23.5 -92.5z" />
<glyph horiz-adv-x="343" d="M112 440l74 424h81l-28 -159q48 40 95 40q44 0 71.5 -31.5t27.5 -89.5q0 -89 -49 -141t-116 -52q-44 0 -71 34l-4 -25h-81zM207 522q22 -28 58 -28q38 0 61.5 31t23.5 92q0 65 -51 65q-34 0 -69 -30z" />
<glyph horiz-adv-x="322" d="M117 557q0 82 51.5 135t129.5 53q56 0 89.5 -29t29.5 -78h-83q-1 49 -45 49q-38 0 -63 -33.5t-25 -96.5q0 -68 52 -68q42 0 63 47h83q-13 -47 -57 -76t-99 -29q-61 0 -93.5 34t-32.5 92z" />
<glyph horiz-adv-x="343" d="M117 552q0 89 49 141t116 52q43 0 70 -34l27 153h82l-74 -424h-82l5 29q-48 -38 -94 -38q-44 0 -71.5 31.5t-27.5 89.5zM201 559q0 -65 50 -65q34 0 69 30l22 131q-22 27 -56 27q-38 0 -61.5 -30.5t-23.5 -92.5z" />
<glyph horiz-adv-x="324" d="M117 558q0 81 52 134t126 53q70 0 101.5 -43t11.5 -128h-207q-1 -6 -1 -19q0 -66 52 -66q38 0 58 35h83q-12 -40 -55 -66.5t-95 -26.5q-61 0 -93.5 34.5t-32.5 92.5zM210 625h122q10 63 -47 63q-55 0 -75 -63z" />
<glyph horiz-adv-x="231" d="M128 677l10 59h52l6 34q19 103 126 103q34 0 53 -10l-10 -56q-20 5 -38 5q-41 0 -49 -42l-7 -34h81l-10 -59h-81l-41 -237h-81l41 237h-52z" />
<glyph horiz-adv-x="343" d="M95 411h83q-2 -21 11 -31t41 -10q63 0 74 66l6 37q-45 -39 -93 -39q-45 0 -72.5 31t-27.5 89q0 89 49 140t116 51q44 0 71 -34l4 25h81l-51 -293q-11 -63 -60 -96.5t-108 -33.5q-65 0 -98 25.5t-26 72.5zM201 561q0 -65 51 -65q34 0 68 29l23 129q-23 28 -57 28 q-39 0 -62 -29.5t-23 -91.5z" />
<glyph horiz-adv-x="356" d="M112 440l74 424h81l-29 -164q55 45 110 45q44 0 70.5 -24t17.5 -74l-36 -207h-82l31 180q12 59 -43 59q-38 0 -77 -32l-36 -207h-81z" />
<glyph horiz-adv-x="149" d="M118 440l51 296h81l-51 -296h-81zM176 817q0 23 17 39t41 16q18 0 29.5 -11.5t11.5 -28.5q0 -22 -17.5 -38.5t-40.5 -16.5q-18 0 -29.5 11.5t-11.5 28.5z" />
<glyph horiz-adv-x="149" d="M97 321l72 415h81l-72 -415h-81zM176 817q0 23 17 39t41 16q18 0 29.5 -11.5t11.5 -28.5q0 -22 -17.5 -38.5t-40.5 -16.5q-18 0 -29.5 11.5t-11.5 28.5z" />
<glyph horiz-adv-x="305" d="M112 440l74 424h81l-46 -262l123 134h88l-132 -139l93 -157h-89l-84 152l-27 -152h-81z" />
<glyph horiz-adv-x="149" d="M112 440l74 424h81l-74 -424h-81z" />
<glyph horiz-adv-x="554" d="M112 440l51 296h82l-6 -35q55 44 107 44q67 0 84 -47q60 47 119 47q43 0 68.5 -24t17.5 -74l-37 -207h-81l31 180q10 59 -41 59q-37 0 -75 -32l-36 -207h-82l31 180q12 59 -41 59q-38 0 -75 -32l-36 -207h-81z" />
<glyph horiz-adv-x="356" d="M112 440l51 296h82l-6 -35q55 44 109 44q44 0 70.5 -24t17.5 -74l-36 -207h-82l31 180q12 59 -43 59q-38 0 -77 -32l-36 -207h-81z" />
<glyph horiz-adv-x="344" d="M117 560q0 80 53 132.5t134 52.5q61 0 95.5 -35t34.5 -94q0 -80 -52.5 -132.5t-132.5 -52.5q-61 0 -96.5 35.5t-35.5 93.5zM201 559q0 -70 57 -70q44 0 68.5 35t24.5 93q0 70 -57 70q-43 0 -68 -34t-25 -94z" />
<glyph horiz-adv-x="343" d="M91 321l72 415h82l-5 -30q47 39 94 39q44 0 71.5 -31.5t27.5 -89.5q0 -89 -49 -141t-116 -52q-44 0 -71 34l-25 -144h-81zM207 522q22 -28 58 -28q38 0 61.5 31t23.5 92q0 65 -51 65q-34 0 -69 -30z" />
<glyph horiz-adv-x="343" d="M117 552q0 89 49 141t116 52q44 0 71 -34l4 25h81l-72 -415h-82l26 148q-49 -38 -94 -38q-44 0 -71.5 31.5t-27.5 89.5zM201 559q0 -65 50 -65q34 0 69 30l23 130q-23 28 -57 28q-38 0 -61.5 -30.5t-23.5 -92.5z" />
<glyph horiz-adv-x="246" d="M112 440l51 296h82l-8 -46q49 55 93 55q23 0 35 -14l-12 -68q-21 9 -41 9q-50 0 -84 -38l8 50l-42 -244h-82z" />
<glyph horiz-adv-x="304" d="M111 529h82q-2 -19 11 -31t40 -12q25 0 41.5 11t16.5 29q0 15 -14 22t-50 13q-32 5 -51.5 11t-37 23t-17.5 44q0 51 41.5 78.5t105.5 27.5q58 0 89.5 -24.5t25.5 -64.5h-82q1 16 -11 25t-33 9q-25 0 -40.5 -9.5t-15.5 -25.5q0 -14 13 -20t48 -12q33 -6 52.5 -11.5t38 -23 t18.5 -44.5q0 -50 -43 -81.5t-107 -31.5q-61 0 -94 27.5t-27 70.5z" />
<glyph horiz-adv-x="240" d="M128 677l10 59h53l14 80h81l-14 -80h76l-10 -59h-77l-24 -138q-5 -25 0.5 -36t25.5 -11q21 0 48 8l-10 -55q-35 -14 -72 -14q-91 0 -75 97l26 149h-52z" />
<glyph horiz-adv-x="352" d="M127 528l36 208h82l-31 -181q-5 -31 4 -45t37 -14q38 0 75 32l-9 -53q-55 -45 -108 -45q-43 0 -69 24t-17 74zM315 440l51 296h81l-51 -296h-81z" />
<glyph horiz-adv-x="326" d="M138 736h85l22 -125l13 -84l43 84l65 125h81l-168 -296h-72z" />
<glyph horiz-adv-x="500" d="M138 736h82l17 -123l9 -83l39 83l60 123h69l19 -123l11 -84l37 84l59 123h80l-157 -296h-71l-17 121l-9 83l-40 -83l-59 -121h-72z" />
<glyph horiz-adv-x="327" d="M86 440l136 152l-79 144h86l45 -87l73 87h86l-123 -138l87 -158h-86l-53 101l-86 -101h-86z" />
<glyph horiz-adv-x="326" d="M134 321l71 123l-67 292h85l22 -125l13 -84l43 84l65 125h81l-234 -415h-79z" />
<glyph horiz-adv-x="277" d="M95 440l10 59l182 178h-145l10 59h237l-9 -59l-182 -178h150l-10 -59h-243z" />
<glyph horiz-adv-x="343" d="M18 -8q0 89 49 141t116 52q44 0 71 -34l4 25h81l-51 -296h-82l5 29q-47 -38 -94 -38q-44 0 -71.5 31.5t-27.5 89.5zM102 -1q0 -65 50 -65q34 0 69 30l23 130q-23 28 -57 28q-38 0 -61.5 -30.5t-23.5 -92.5z" />
<glyph horiz-adv-x="343" d="M13 -120l74 424h81l-28 -159q48 40 95 40q44 0 71.5 -31.5t27.5 -89.5q0 -89 -49 -141t-116 -52q-44 0 -71 34l-4 -25h-81zM108 -38q22 -28 58 -28q38 0 61.5 31t23.5 92q0 65 -51 65q-34 0 -69 -30z" />
<glyph horiz-adv-x="322" d="M18 -3q0 82 51.5 135t129.5 53q56 0 89.5 -29t29.5 -78h-83q-1 49 -45 49q-38 0 -63 -33.5t-25 -96.5q0 -68 52 -68q42 0 63 47h83q-13 -47 -57 -76t-99 -29q-61 0 -93.5 34t-32.5 92z" />
<glyph horiz-adv-x="343" d="M18 -8q0 89 49 141t116 52q43 0 70 -34l27 153h82l-74 -424h-82l5 29q-47 -38 -94 -38q-44 0 -71.5 31.5t-27.5 89.5zM102 -1q0 -65 50 -65q34 0 69 30l22 131q-22 27 -56 27q-38 0 -61.5 -30.5t-23.5 -92.5z" />
<glyph horiz-adv-x="324" d="M18 -2q0 81 52 134t126 53q70 0 101.5 -43t11.5 -128h-207q-1 -6 -1 -19q0 -66 52 -66q38 0 58 35h83q-12 -40 -55 -66.5t-95 -26.5q-61 0 -93.5 34.5t-32.5 92.5zM111 65h122q10 63 -47 63q-55 0 -75 -63z" />
<glyph horiz-adv-x="231" d="M29 117l10 59h52l6 34q19 103 126 103q34 0 53 -10l-10 -56q-20 5 -38 5q-41 0 -49 -42l-7 -34h81l-10 -59h-81l-41 -237h-81l41 237h-52z" />
<glyph horiz-adv-x="343" d="M-3 -149h83q-2 -21 11 -31t41 -10q63 0 74 66l6 37q-45 -39 -93 -39q-45 0 -72.5 31t-27.5 89q0 89 49 140t116 51q44 0 71 -34l4 25h81l-51 -293q-11 -63 -60 -96.5t-108 -33.5q-65 0 -98 25.5t-26 72.5zM103 1q0 -65 51 -65q34 0 68 29l23 129q-23 28 -57 28 q-39 0 -62 -29.5t-23 -91.5z" />
<glyph horiz-adv-x="356" d="M13 -120l74 424h81l-29 -164q55 45 110 45q44 0 70.5 -24t17.5 -74l-36 -207h-82l31 180q12 59 -43 59q-38 0 -77 -32l-36 -207h-81z" />
<glyph horiz-adv-x="149" d="M19 -120l51 296h81l-51 -296h-81zM77 257q0 23 17 39t41 16q18 0 29.5 -11.5t11.5 -28.5q0 -22 -17.5 -38.5t-40.5 -16.5q-18 0 -29.5 11.5t-11.5 28.5z" />
<glyph horiz-adv-x="149" d="M-1 -239l72 415h81l-72 -415h-81zM78 257q0 23 17 39t41 16q18 0 29.5 -11.5t11.5 -28.5q0 -22 -17.5 -38.5t-40.5 -16.5q-18 0 -29.5 11.5t-11.5 28.5z" />
<glyph horiz-adv-x="305" d="M13 -120l74 424h81l-46 -262l123 134h88l-132 -139l93 -157h-89l-84 152l-27 -152h-81z" />
<glyph horiz-adv-x="149" d="M13 -120l74 424h81l-74 -424h-81z" />
<glyph horiz-adv-x="554" d="M13 -120l51 296h82l-6 -35q55 44 107 44q67 0 84 -47q60 47 119 47q43 0 68.5 -24t17.5 -74l-37 -207h-81l31 180q10 59 -41 59q-37 0 -75 -32l-36 -207h-82l31 180q12 59 -41 59q-38 0 -75 -32l-36 -207h-81z" />
<glyph horiz-adv-x="356" d="M13 -120l51 296h82l-6 -35q55 44 109 44q44 0 70.5 -24t17.5 -74l-36 -207h-82l31 180q12 59 -43 59q-38 0 -77 -32l-36 -207h-81z" />
<glyph horiz-adv-x="344" d="M18 0q0 80 53 132.5t134 52.5q61 0 95.5 -35t34.5 -94q0 -80 -52.5 -132.5t-132.5 -52.5q-62 0 -97 35.5t-35 93.5zM102 -1q0 -70 57 -70q44 0 68.5 35t24.5 93q0 70 -57 70q-43 0 -68 -34t-25 -94z" />
<glyph horiz-adv-x="343" d="M-7 -239l72 415h82l-5 -30q47 39 94 39q44 0 71.5 -31.5t27.5 -89.5q0 -89 -49 -141t-116 -52q-44 0 -71 34l-25 -144h-81zM109 -38q22 -28 58 -28q38 0 61.5 31t23.5 92q0 65 -51 65q-34 0 -69 -30z" />
<glyph horiz-adv-x="343" d="M19 -8q0 89 49 141t116 52q44 0 71 -34l4 25h81l-72 -415h-82l26 148q-49 -38 -94 -38q-44 0 -71.5 31.5t-27.5 89.5zM103 -1q0 -65 50 -65q34 0 69 30l23 130q-23 28 -57 28q-38 0 -61.5 -30.5t-23.5 -92.5z" />
<glyph horiz-adv-x="246" d="M13 -120l51 296h82l-8 -46q49 55 93 55q23 0 35 -14l-12 -68q-21 9 -41 9q-50 0 -84 -38l8 50l-42 -244h-82z" />
<glyph horiz-adv-x="304" d="M12 -31h82q-2 -19 11 -31t40 -12q25 0 41.5 11t16.5 29q0 15 -14 22t-50 13q-32 5 -51.5 11t-37 23t-17.5 44q0 51 41.5 78.5t105.5 27.5q58 0 89.5 -24.5t25.5 -64.5h-82q1 16 -11 25t-33 9q-25 0 -40.5 -9.5t-15.5 -25.5q0 -14 13 -20t48 -12q33 -6 52.5 -11.5t38 -23 t18.5 -44.5q0 -50 -43 -81.5t-107 -31.5q-61 0 -94 27.5t-27 70.5z" />
<glyph horiz-adv-x="240" d="M29 117l10 59h53l14 80h81l-14 -80h76l-10 -59h-77l-24 -138q-5 -25 0.5 -36t25.5 -11q21 0 48 8l-10 -55q-35 -14 -72 -14q-91 0 -75 97l26 149h-52z" />
<glyph horiz-adv-x="352" d="M28 -32l36 208h82l-31 -181q-5 -31 4 -45t37 -14q38 0 75 32l-9 -53q-55 -45 -108 -45q-43 0 -69 24t-17 74zM216 -120l51 296h81l-51 -296h-81z" />
<glyph horiz-adv-x="326" d="M40 176h85l22 -125l13 -84l43 84l65 125h81l-168 -296h-72z" />
<glyph horiz-adv-x="500" d="M40 176h82l17 -123l9 -83l39 83l60 123h69l19 -123l11 -84l37 84l59 123h80l-157 -296h-71l-17 121l-9 83l-40 -83l-59 -121h-72z" />
<glyph horiz-adv-x="327" d="M-13 -120l136 152l-79 144h86l45 -87l73 87h86l-123 -138l87 -158h-86l-53 101l-86 -101h-86z" />
<glyph horiz-adv-x="326" d="M36 -239l71 123l-67 292h85l22 -125l13 -84l43 84l65 125h81l-234 -415h-79z" />
<glyph horiz-adv-x="277" d="M-3 -120l10 59l182 178h-145l10 59h237l-9 -59l-182 -178h150l-10 -59h-243z" />
<glyph d="M79 209h119q-10 -103 65 -131l42 241q-76 20 -122.5 57.5t-46.5 109.5q0 93 67.5 154t171.5 73l19 107h103l-19 -110q84 -14 126.5 -68t32.5 -142h-119q8 91 -56 120l-40 -224q37 -9 64 -20.5t54.5 -30.5t42 -48.5t14.5 -68.5q0 -94 -72 -160t-175 -80l-19 -108h-103 l19 109q-88 14 -134 70t-34 150zM252 507q0 -60 72 -86l36 206q-50 -9 -79 -39t-29 -81zM365 74q52 10 84 44t32 87q0 62 -77 88z" />
<glyph d="M113 195q0 132 63 223.5t171 110.5l20 111h102l-19 -110q69 -14 106.5 -62.5t31.5 -120.5h-111q3 81 -41 104l-68 -383q51 22 77 101h110q-20 -72 -73.5 -119.5t-127.5 -60.5l-19 -109h-102l19 110q-139 27 -139 205zM223 195q0 -93 44 -123l66 376q-50 -25 -80 -92.5 t-30 -160.5z" />
<glyph d="M37 0l15 86h84l37 207h-84l15 86h84l22 126q17 98 86 154t165 56q98 0 151 -51.5t41 -149.5h-119q5 58 -20.5 84.5t-66.5 26.5q-45 0 -78.5 -25t-43.5 -82l-24 -139h210l-15 -86h-211l-36 -207h310l-15 -86h-507z" />
<glyph d="M92 90l14 86h173l21 117h-173l16 86h153l-145 321h115l114 -274l204 274h112l-250 -321h154l-15 -86h-173l-20 -117h172l-14 -86h-173l-16 -90h-113l16 90h-172z" />
<glyph d="M-34 -45h109q-7 -94 63 -94q35 0 62.5 25t36.5 79l42 236h-158l15 86h158l40 224q17 99 71.5 151.5t137.5 52.5q162 0 146 -158h-108q0 40 -11 57t-40 17q-31 0 -51 -24t-30 -80l-42 -240h159l-16 -86h-158l-39 -220q-17 -97 -79.5 -150.5t-147.5 -53.5q-86 0 -128 45.5 t-32 132.5z" />
<glyph d="M73 201l15 86h50q5 65 16 117h-46l15 86h56q40 105 112 165t166 60q209 0 194 -247h-123q5 87 -14 124t-73 37q-96 0 -151 -139h146l-16 -86h-155q-10 -52 -15 -117h150l-15 -86h-135q9 -130 94 -130q54 0 85.5 37t56.5 124h123q-72 -247 -281 -247q-89 0 -135.5 56.5 t-54.5 159.5h-65z" />
<glyph d="M31 0l123 700h164q95 0 141.5 -43.5t46.5 -142.5q0 -98 -76 -313h-82q27 84 38 121t21 84.5t10 82.5q0 66 -29 98.5t-93 32.5h-67l-110 -620h-87zM179 0l89 499h87l-74 -419h62q47 0 82 18.5t58 51t38.5 88t24 117t14.5 150.5q5 78 7 195h82q2 -46 2 -117 q0 -165 -22 -280.5t-65 -180.5t-97.5 -93.5t-127.5 -28.5h-160z" />
<glyph d="M15 -120l95 237q-24 60 -24 142q0 164 71.5 283t185.5 157l49 121h109l-42 -105q37 -3 66 -12l47 117h109l-70 -173q54 -65 47 -179h-126q9 158 -107 158q-86 0 -154 -99.5t-68 -267.5q0 -91 33 -138t91 -47q116 0 163 158h126q-33 -112 -103.5 -174t-165.5 -71l-43 -107 h-109l46 114q-30 8 -60 28l-57 -142h-109z" />
<glyph d="M30 0l91 516h98l-9 -49q29 30 62.5 47t59.5 17q76 0 85 -71q34 36 69 53l84 123h108l-81 -118q46 -28 31 -109l-72 -409h-98l68 384q3 21 2 33l-151 -219l-35 -198h-98l1 7l-80 -117h-107l224 327l30 167q12 62 -32 62q-36 0 -82 -45l-70 -401h-98z" />
<glyph d="M58 208l15 85h56l21 117h-57l15 86h57l36 204h110l146 -517l22 142l66 375h100l-36 -204h57l-15 -86h-57l-21 -117h58l-15 -85h-57l-37 -208h-111l-145 517l-23 -142l-66 -375h-99l37 208h-57z" />
<glyph d="M128 453l15 86h301q-15 75 -113 75h-174l14 86h91h403l-15 -86h-129q33 -34 41 -75h75l-15 -86h-62q-18 -90 -93 -138.5t-174 -54.5l225 -260h-138l-219 259l15 83h107q130 0 158 111h-313z" />
<glyph d="M44 208l15 85h81l5 117h-65l15 86h53l9 204h96l-31 -399l-17 -156l46 156l128 399h101l-12 -399l-10 -159l39 159l104 399h88l-60 -204h51l-15 -86h-61l-34 -117h74l-15 -85h-84l-61 -208h-99l8 385l9 158l-49 -158l-127 -385h-99l9 208h-92z" />
<glyph d="M52 0l14 81h508l-15 -81h-507zM108 304q0 124 74 194t169 70q40 0 72.5 -16t48.5 -43l16 93h-118l13 78h119l11 64h104l-11 -64h73l-13 -78h-74l-80 -456h-104l52 295q-40 46 -102 46q-55 0 -97 -44t-42 -125q0 -52 24 -79t62 -27q65 0 123 50l-11 -64q-69 -67 -158 -67 q-65 0 -108 45t-43 128z" />
<glyph d="M77 325l15 86h81l51 289h113l-51 -289h8l256 289h117l-264 -289h213l-15 -86h-204l173 -325h-130l-167 325h-2l-57 -325h-113l57 325h-81z" />
<glyph d="M149 177l10 57l17 93l134 53l42 234h-189l15 86h489l-14 -86h-189l-33 -187l135 53l-16 -92l-10 -57l-135 -53l-49 -278h-113l41 230z" />
<glyph d="M94 0l75 429h-75l14 85h76l33 186h170q91 0 150.5 -48t60.5 -138h67l-14 -85h-64q-27 -89 -105.5 -136.5t-174.5 -47.5h-57l-43 -245h-113zM266 332h57q52 0 90.5 25t55.5 72h-186zM298 514h183q-3 49 -31.5 74t-77.5 25h-57z" />
<glyph d="M78 140q0 104 97 165h-87l15 86h266q74 30 113 64t39 88q0 88 -105 88q-125 0 -155 -117h-119q23 96 97.5 148.5t191.5 52.5q98 0 151.5 -41.5t53.5 -113.5q0 -106 -99 -169h98l-16 -86h-276q-73 -29 -111.5 -62t-38.5 -86q0 -88 105 -88q132 0 162 116h119 q-23 -95 -100.5 -147.5t-195.5 -52.5q-97 0 -151 42t-54 113z" />
<glyph d="M86 259q0 178 84 302.5t214 148.5l19 110h103l-19 -108q86 -13 132 -74.5t39 -169.5h-126q7 122 -62 150l-94 -536q78 29 114 150h126q-31 -108 -98.5 -169.5t-158.5 -74.5l-19 -108h-103l19 110q-83 18 -126.5 88.5t-43.5 180.5zM203 259q0 -134 71 -172l92 526 q-69 -31 -116 -124t-47 -230z" />
<glyph d="M68 0l123 700h165l21 120h103l-22 -122q174 -17 174 -148q0 -63 -41 -115t-101 -69q52 -9 84 -41.5t32 -88.5q0 -106 -77 -167.5t-194 -67.5l-21 -121h-103l21 120h-164zM196 84h51l40 227h-52zM250 395h52l39 221h-51zM350 85q69 5 104 42.5t35 97.5q0 78 -99 85z M406 399q50 11 79 45t29 88q0 67 -71 80z" />
<glyph d="M42 130l97 82q-21 45 -21 103q0 121 73 203l-61 75l67 59l64 -78q66 39 147 39q74 0 125 -38l94 80l58 -65l-97 -83q21 -44 21 -102q0 -121 -74 -204l62 -74l-68 -59l-63 76q-65 -37 -147 -37q-76 0 -125 37l-94 -79zM229 311q0 -63 26.5 -97.5t75.5 -34.5q72 0 119.5 63 t47.5 166q0 63 -27 97.5t-76 34.5q-71 0 -118.5 -62.5t-47.5 -166.5z" />
<glyph d="M49 0l82 189h-68l16 88h90l64 149h-77l15 88h100l81 186h102l-81 -186h118l81 186h102l-81 -186h69l-15 -88h-92l-64 -149h79l-16 -88h-101l-82 -189h-102l82 189h-118l-82 -189h-102zM271 277h118l64 149h-118z" />
<glyph horiz-adv-x="521" d="M73 162h109q-6 -67 45 -92l30 172q-64 15 -101.5 44t-37.5 87q0 73 54.5 122t139.5 60l14 81h98l-15 -83q72 -12 106.5 -54t26.5 -111h-108q4 61 -39 83l-28 -159q65 -15 104 -45.5t39 -89.5q0 -75 -57.5 -126t-142.5 -63l-14 -81h-98l14 82q-75 12 -112 56t-27 117z M224 396q0 -40 49 -60l25 142q-33 -8 -53.5 -29t-20.5 -53zM324 64q36 9 58.5 31.5t22.5 57.5q0 42 -54 65z" />
<glyph horiz-adv-x="465" d="M81 154q0 99 48.5 170t136.5 88l14 83h98l-14 -82q56 -11 84 -48t24 -94h-99q1 51 -23 67l-48 -274q29 15 45 65h99q-16 -55 -57 -91.5t-100 -47.5l-14 -83h-98l15 83q-56 13 -83.5 56t-27.5 108zM180 155q0 -61 26 -84l46 264q-72 -40 -72 -180z" />
<glyph horiz-adv-x="481" d="M26 0l14 76h62l26 146h-63l14 77h62l16 89q14 78 73 123.5t138 45.5q82 0 125 -40.5t34 -117.5h-108q6 84 -64 84q-34 0 -58.5 -20.5t-31.5 -63.5l-18 -100h163l-14 -77h-162l-26 -146h242l-14 -76h-410z" />
<glyph horiz-adv-x="521" d="M89 68l14 76h136l14 81h-137l14 76h107l-109 242h113l90 -214l158 214h101l-187 -242h105l-13 -76h-136l-15 -81h137l-14 -76h-136l-12 -68h-105l12 68h-137z" />
<glyph horiz-adv-x="551" d="M-28 -27h108q-3 -74 54 -74q70 0 85 84l29 168h-117l13 77h118l28 160q14 77 72.5 123t135.5 46q75 0 115.5 -39t32.5 -109h-108q3 74 -55 74q-30 0 -53 -20t-31 -64l-30 -171h119l-13 -77h-120l-27 -157q-14 -77 -72.5 -123t-132.5 -46q-76 0 -117.5 38t-33.5 110z" />
<glyph horiz-adv-x="570" d="M50 154l13 74h54q3 47 10 80h-50l13 74h61q34 82 99.5 128.5t154.5 46.5q87 0 137.5 -50t44.5 -144h-112q6 118 -84 118q-83 0 -131 -99h138l-12 -74h-150q-7 -34 -10 -80h145l-12 -74h-129q15 -93 88 -93q89 0 125 119h111q-27 -95 -95.5 -145t-154.5 -50 q-79 0 -125.5 45t-58.5 124h-70z" />
<glyph horiz-adv-x="667" d="M87 0l96 543h180q87 0 129 -35t42 -116q0 -78 -59 -236h-85q53 150 53 212q0 50 -24 74t-76 24h-85l-82 -466h-89zM229 0l68 387h90l-55 -310h72q91 0 130 75.5t44 232.5q5 65 5 158h86q1 -16 1 -98q0 -238 -66 -341.5t-206 -103.5h-169z" />
<glyph horiz-adv-x="564" d="M10 -93l95 193q-20 49 -20 112q0 130 66 223t175 116l42 85h100l-40 -82q26 -3 44 -10l46 92h100l-70 -142q44 -52 38 -131h-111q2 60 -25.5 89t-73.5 29q-84 0 -131.5 -77t-47.5 -193q0 -71 27 -110.5t78 -39.5q48 0 85 29.5t55 89.5h112q-26 -91 -97.5 -141.5 t-157.5 -53.5l-39 -78h-100l45 92q-21 9 -39 21l-56 -113h-100z" />
<glyph horiz-adv-x="782" d="M77 0l71 402h98l-9 -51q76 64 148 64q84 0 103 -67q36 32 84 50l79 95h101l-68 -81q90 -20 69 -139l-48 -273h-98l45 255q12 69 -33 79l-153 -183l-26 -151h-98v2l-72 -87h-101l200 240l18 100q8 42 -5 61.5t-49 19.5q-54 0 -106 -46l-52 -290h-98z" />
<glyph horiz-adv-x="599" d="M42 154l13 74h74l14 80h-74l13 74h75l28 161h105l152 -394l18 111l50 283h95l-28 -161h74l-13 -74h-75l-14 -80h75l-13 -74h-75l-27 -154h-104l-153 393l-17 -110l-50 -283h-96l27 154h-74z" />
<glyph horiz-adv-x="485" d="M94 340l13 73h240q-15 56 -93 56h-137l13 74h77h326l-13 -74h-89q21 -26 25 -56h54l-13 -73h-45q-16 -66 -71 -103.5t-133 -45.5l177 -191h-131l-169 189l13 74h80q100 0 125 77h-249z" />
<glyph horiz-adv-x="779" d="M40 154l13 74h109l-8 80h-87l13 74h66l-17 161h112l18 -294l3 -114l48 114l133 294h97l31 -294l11 -115l42 115l115 294h103l-70 -161h61l-12 -74h-81l-35 -80h101l-12 -74h-121l-67 -154h-94l-34 294l-11 116l-49 -116l-132 -294h-100l-16 154h-130z" />
<glyph horiz-adv-x="470" d="M47 0l13 73h403l-13 -73h-403zM92 242q0 91 58 145t131 54q66 0 95 -47l13 74h-93l12 66h93l8 43h92l-8 -43h51l-12 -66h-50l-62 -349h-93l8 41q-55 -53 -124 -53q-51 0 -85 35.5t-34 99.5zM190 249q0 -70 59 -70q51 0 96 38l20 116q-30 36 -79 36q-39 0 -67.5 -30.5 t-28.5 -89.5z" />
<glyph horiz-adv-x="511" d="M58 248l14 74h69l39 221h105l-36 -205l190 205h112l-210 -221h180l-13 -74h-176l155 -248h-123l-134 229l-41 -229h-105l44 248h-70z" />
<glyph horiz-adv-x="449" d="M98 121l9 51h-1l15 84l105 39l30 171h-146l14 77h399l-14 -77h-147l-23 -130l105 39l-9 -51h1l-14 -83l-107 -39l-35 -202h-106l28 160z" />
<glyph horiz-adv-x="521" d="M70 328l13 76h69l25 139h168q72 0 121 -36t54 -103h62l-14 -76h-57q-22 -69 -86.5 -106.5t-142.5 -37.5h-63l-32 -184h-106l58 328h-69zM232 260h62q85 0 109 68h-159zM258 404h153q-8 64 -80 64h-62z" />
<glyph horiz-adv-x="545" d="M88 233l13 73h218q59 22 90 46t31 64q0 32 -21.5 49.5t-57.5 17.5q-89 0 -113 -82h-108q19 74 79.5 115t154.5 41q78 0 123 -33t45 -89q0 -82 -71 -129h78l-13 -73h-233q-54 -21 -82 -44.5t-28 -61.5q0 -32 21 -50t57 -18q95 0 118 83h108q-17 -73 -81 -115t-159 -42 q-78 0 -123 33t-45 90q0 77 65 125h-66z" />
<glyph horiz-adv-x="564" d="M85 212q0 133 69 227.5t182 113.5l15 83h98l-15 -83q73 -12 115.5 -60.5t36.5 -129.5h-111q3 85 -55 110l-71 -404q68 25 93 111h112q-24 -80 -83.5 -129t-135.5 -62l-14 -82h-98l15 83q-75 15 -114 73.5t-39 148.5zM197 211q0 -105 55 -137l70 397q-59 -23 -92 -94 t-33 -166z" />
<glyph horiz-adv-x="547" d="M81 0l96 543h133l16 93h98l-17 -94q148 -12 148 -121q0 -50 -31.5 -87t-79.5 -50q41 -7 66 -34.5t25 -71.5q0 -82 -61.5 -128t-161.5 -50l-16 -93h-98l16 93h-133zM200 74h27l29 163h-27zM242 310h27l28 159h-28zM325 74q54 3 78.5 26.5t24.5 70.5q0 58 -74 65zM367 313 q79 15 79 93q0 49 -52 60z" />
<glyph horiz-adv-x="562" d="M63 107l79 65q-16 35 -16 76q0 80 50 141l-53 62l76 62l54 -63q52 25 111 25q57 0 100 -27l79 65l54 -62l-79 -65q16 -37 16 -76q0 -81 -51 -142l52 -61l-74 -63l-55 64q-52 -25 -111 -25q-56 0 -99 27l-80 -66zM226 248q0 -48 22.5 -73.5t59.5 -25.5q54 0 90 42.5 t36 118.5q0 47 -22.5 72.5t-59.5 25.5q-54 0 -90 -42t-36 -118z" />
<glyph horiz-adv-x="604" d="M69 144l13 73h91l49 110h-80l12 74h100l63 142h95l-63 -142h114l63 142h95l-63 -142h72l-12 -74h-92l-49 -110h81l-13 -73h-100l-64 -144h-95l64 144h-114l-64 -144h-95l64 144h-72zM268 217h114l49 110h-114z" />
<glyph horiz-adv-x="624" d="M92 259q0 196 95 326t246 130q102 0 157 -73t55 -201q0 -196 -95 -326t-246 -130q-103 0 -157.5 73t-54.5 201zM202 258q0 -42 6 -73l274 422q-25 22 -64 22q-92 0 -154 -101t-62 -270zM255 93q25 -22 64 -22q91 0 153.5 101.5t62.5 269.5q0 41 -6 74z" />
<glyph horiz-adv-x="569" d="M82 213q0 158 82 264.5t217 106.5q95 0 144.5 -61.5t49.5 -166.5q0 -159 -81.5 -265t-218.5 -106q-95 0 -144 61.5t-49 166.5zM194 203q0 -142 95 -142q80 0 127 82t47 223q0 142 -96 142q-79 0 -126 -82t-47 -223z" />
<glyph horiz-adv-x="577" d="M93 213q0 158 81.5 264.5t216.5 106.5q95 0 144.5 -61.5t49.5 -166.5q0 -158 -81.5 -264.5t-217.5 -106.5q-95 0 -144 61.5t-49 166.5zM198 209q0 -30 5 -58l225 345q-21 12 -51 12q-85 0 -132 -80t-47 -219zM250 73q21 -12 50 -12q85 0 132.5 80.5t47.5 218.5 q0 30 -5 58z" />
<glyph horiz-adv-x="388" d="M93 379l17 100l178 90h110l-100 -569h-110l82 467z" />
<glyph horiz-adv-x="528" d="M50 0l16 87q60 37 88.5 55t73 46.5t64.5 44t49 38.5t41 39t26 36t18.5 39t4.5 40q0 79 -83 79q-46 0 -83 -31.5t-53 -95.5h-112q21 100 90.5 153.5t172.5 53.5q87 0 134 -38.5t47 -108.5q0 -91 -67 -161.5t-250 -188.5h272l-15 -87h-434z" />
<glyph horiz-adv-x="570" d="M48 55h115q-12 -124 115 -124q68 0 111 40t43 117q0 99 -137 99h-73l13 80h74q78 0 120 41t42 107q0 45 -25.5 67t-69.5 22q-117 0 -152 -125h-112q24 95 101 150t179 55q88 0 140.5 -42.5t52.5 -118.5q0 -63 -42.5 -117t-110.5 -73q58 -11 85.5 -50t27.5 -89 q0 -105 -83.5 -174t-198.5 -69q-114 0 -170.5 53.5t-44.5 150.5z" />
<glyph horiz-adv-x="564" d="M30 0l15 87l288 482h116l-290 -482h179l32 179h103l-32 -179h101l-16 -87h-100l-24 -134h-103l24 134h-293z" />
<glyph horiz-adv-x="549" d="M48 44h115q-5 -60 24.5 -86.5t78.5 -26.5q68 0 110.5 54t42.5 155q0 114 -99 114q-75 0 -133 -69h-96l68 384h409l-15 -87h-313l-38 -212q68 66 161 66q77 0 123.5 -48t46.5 -139q0 -136 -83 -217t-198 -81q-105 0 -159.5 51t-44.5 142z" />
<glyph horiz-adv-x="579" d="M86 240q0 237 95 378t255 141q92 0 144.5 -49.5t45.5 -141.5h-112q3 59 -26 85.5t-67 26.5q-81 0 -138 -82t-76 -229q36 37 92.5 61t108.5 24q80 0 125.5 -46.5t45.5 -135.5q0 -128 -87 -207.5t-203 -79.5q-101 0 -152 66t-51 189zM199 236q0 -171 105 -171q71 0 115 51 t44 143q0 113 -99 113q-41 0 -87 -21t-76 -52q-2 -40 -2 -63z" />
<glyph horiz-adv-x="479" d="M69 -134l357 616h-316l16 87h420l-16 -87l-351 -616h-110z" />
<glyph horiz-adv-x="603" d="M72 169q0 74 50 138.5t128 85.5q-44 17 -69.5 53.5t-25.5 86.5q0 100 79.5 163t197.5 63q93 0 149.5 -46t56.5 -125q0 -71 -43 -121.5t-111 -73.5q51 -15 80.5 -60.5t29.5 -100.5q0 -113 -87 -180t-212 -67q-100 0 -161.5 48.5t-61.5 135.5zM186 178q0 -55 33.5 -84 t89.5 -29q74 0 123 43t49 119q0 51 -31 85t-91 34q-79 0 -126 -50.5t-47 -117.5zM267 534q0 -46 27.5 -75t79.5 -29q70 0 110 43.5t40 106.5q0 49 -29 74t-78 25q-64 0 -107 -37.5t-43 -107.5z" />
<glyph horiz-adv-x="590" d="M55 39h112q-3 -60 28 -84.5t69 -24.5q81 0 136 70.5t72 211.5q-35 -36 -91.5 -59.5t-108.5 -23.5q-81 0 -126.5 44.5t-45.5 131.5q0 128 85.5 203.5t201.5 75.5q100 0 152.5 -65t52.5 -187q0 -229 -92.5 -355t-249.5 -126q-94 0 -148.5 48t-46.5 140zM216 321 q0 -52 25 -81t74 -29q41 0 86.5 20.5t76.5 51.5q1 17 1 51q0 170 -106 170q-72 0 -114.5 -46t-42.5 -137z" />
<glyph d="M97 254q0 197 89 329t240 132q99 0 149.5 -71.5t50.5 -197.5q0 -197 -89 -329t-240 -132q-99 0 -149.5 71.5t-50.5 197.5zM214 247q0 -173 99 -173q86 0 141 104t55 275q0 173 -99 173q-86 0 -141 -104t-55 -275z" />
<glyph d="M97 254q0 197 89 329t240 132q99 0 149.5 -71.5t50.5 -197.5q0 -197 -89 -329t-240 -132q-99 0 -149.5 71.5t-50.5 197.5zM205 247q0 -29 3 -53l267 411q-26 24 -65 24q-92 0 -148.5 -107t-56.5 -275zM249 94q26 -23 64 -23q92 0 149 107t57 275q0 29 -3 53z" />
<glyph d="M90 0l15 86h167l90 512l-182 -88l18 100l182 90h113l-108 -614h164l-15 -86h-277h-167z" />
<glyph d="M89 0l16 89q24 19 68 55q69 56 100.5 82t80 68.5t70 67t45.5 57.5t33 61t9 58q0 46 -23.5 69t-65.5 23q-48 0 -88.5 -35t-57.5 -108h-119q25 109 101 168.5t179 59.5q88 0 139 -43t51 -122q0 -54 -21.5 -103.5t-74.5 -108t-113.5 -111.5t-166.5 -138h308l-16 -89h-454z " />
<glyph d="M92 189h119q-6 -60 25.5 -89.5t84.5 -29.5q64 0 107.5 41.5t43.5 103.5q0 102 -136 102h-71l15 85h71q75 0 117.5 41t42.5 100q0 42 -24.5 64.5t-66.5 22.5q-48 0 -88 -30.5t-58 -89.5h-118q24 95 101 150t179 55q88 0 140 -42.5t52 -118.5q0 -62 -42 -115.5t-109 -73.5 q57 -10 84.5 -49t27.5 -88q0 -105 -83.5 -174t-198.5 -69t-171 53.5t-44 150.5z" />
<glyph d="M80 132l15 85l287 483h113l-288 -483h181l31 173h106l-31 -173h95l-15 -85h-95l-23 -132h-106l23 132h-293z" />
<glyph d="M99 175h119q-4 -54 24.5 -79.5t74.5 -25.5q67 0 108.5 54.5t41.5 148.5q0 109 -91 109q-84 0 -136 -66h-98l67 384h409l-14 -86h-311l-39 -221q31 35 76.5 54.5t89.5 19.5q76 0 120 -46.5t44 -136.5q0 -138 -82.5 -218.5t-198.5 -80.5q-106 0 -160 49.5t-44 140.5z" />
<glyph d="M102 232q0 210 96.5 346.5t246.5 136.5q91 0 140.5 -45.5t43.5 -125.5h-118q-1 87 -82 87q-71 0 -124.5 -73t-74.5 -192q37 38 91 63t105 25q80 0 125.5 -46.5t45.5 -135.5q0 -128 -87 -207.5t-203 -79.5q-96 0 -150.5 66t-54.5 181zM219 234q0 -164 103 -164 q70 0 114 52t44 136q0 111 -99 111q-44 0 -87 -20.5t-73 -53.5q-2 -40 -2 -61z" />
<glyph d="M145 0l376 614h-335l14 86h440l-14 -86l-371 -614h-110z" />
<glyph d="M76 154q0 74 46 131.5t125 76.5q-43 17 -68 51.5t-25 81.5q0 101 76.5 160.5t195.5 59.5q94 0 149 -43t55 -121q0 -69 -40.5 -117t-108.5 -72q52 -13 80 -53t28 -93q0 -113 -82 -172t-210 -59q-101 0 -161 42.5t-60 126.5zM192 168q0 -49 32 -73.5t89 -24.5q72 0 117 36 t45 105q0 46 -30 74t-90 28q-79 0 -121 -41t-42 -104zM268 496q0 -44 25 -70t77 -26q72 0 108.5 40t36.5 99q0 44 -28.5 67.5t-76.5 23.5q-62 0 -102 -35t-40 -99z" />
<glyph d="M95 173h119q-5 -104 87 -104q74 0 129 78.5t73 202.5q-37 -38 -90.5 -62.5t-104.5 -24.5q-80 0 -126 45t-46 131q0 125 86 200.5t202 75.5q100 0 153 -65.5t53 -181.5q0 -136 -40.5 -245t-120 -173.5t-183.5 -64.5q-93 0 -146 49t-45 139zM253 454q0 -106 99 -106 q44 0 87 20t72 53q1 15 1 45q0 164 -103 164q-69 0 -112.5 -48.5t-43.5 -127.5z" />
<glyph d="M104 216q0 158 81.5 263t217.5 105q96 0 145 -62t49 -169q0 -158 -82 -263t-218 -105q-95 0 -144 62t-49 169zM216 203q0 -142 95 -142q78 0 125.5 82.5t47.5 222.5q0 142 -95 142q-78 0 -125.5 -82.5t-47.5 -222.5z" />
<glyph d="M104 216q0 158 81.5 263t217.5 105q96 0 145 -62t49 -169q0 -158 -82 -263t-218 -105q-95 0 -144 62t-49 169zM209 209q0 -30 5 -58l225 345q-21 12 -50 12q-85 0 -132.5 -80t-47.5 -219zM261 73q21 -12 50 -12q85 0 132.5 80t47.5 219q0 30 -5 58z" />
<glyph d="M89 0l14 81h175l69 385l-192 -90l18 103l192 90h110l-87 -488h166l-15 -81h-275h-175z" />
<glyph d="M98 0l15 87q59 37 88 55t73.5 46.5t65 44t49.5 38.5t41 39t26 36t18.5 39t4.5 40q0 38 -21.5 58.5t-61.5 20.5q-47 0 -84 -31.5t-53 -95.5h-112q21 100 91 153.5t172 53.5q87 0 134.5 -38.5t47.5 -108.5q0 -47 -16 -86t-57 -81t-96 -82.5t-149 -100.5h272l-15 -87h-433z " />
<glyph d="M62 55h115q-12 -124 115 -124q68 0 110.5 39.5t42.5 117.5q0 99 -136 99h-74l14 80h74q78 0 120 41t42 107q0 45 -25.5 67t-69.5 22q-117 0 -152 -125h-112q24 95 100.5 150t179.5 55q88 0 140.5 -42.5t52.5 -118.5q0 -63 -42.5 -117t-110.5 -73q57 -11 85 -50t28 -89 q0 -105 -83.5 -174t-198.5 -69q-114 0 -170.5 53.5t-44.5 150.5z" />
<glyph d="M57 0l15 87l288 482h110l-289 -482h181l32 179h103l-32 -179h101l-16 -87h-100l-24 -134h-103l24 134h-290z" />
<glyph d="M69 44h115q-5 -60 24.5 -86.5t78.5 -26.5q68 0 110.5 54t42.5 155q0 114 -99 114q-75 0 -133 -69h-96l68 384h409l-15 -87h-313l-38 -212q68 66 161 66q77 0 123.5 -48t46.5 -139q0 -136 -83 -217t-198 -81q-105 0 -159.5 51t-44.5 142z" />
<glyph d="M96 240q0 236 95 377.5t255 141.5q93 0 145.5 -49.5t44.5 -141.5h-112q3 59 -25.5 85.5t-66.5 26.5q-81 0 -138.5 -82.5t-76.5 -229.5q37 37 93 61.5t108 24.5q81 0 126.5 -46.5t45.5 -135.5q0 -128 -87 -207.5t-203 -79.5q-101 0 -152.5 66t-51.5 189zM209 236 q0 -171 105 -171q72 0 115.5 51t43.5 143q0 113 -98 113q-42 0 -88 -21.5t-76 -52.5q-2 -40 -2 -62z" />
<glyph d="M137 -134l371 616h-344l16 87h448l-16 -87l-365 -616h-110z" />
<glyph d="M75 169q0 74 50 138.5t128 85.5q-44 17 -70 53.5t-26 86.5q0 100 79.5 163t197.5 63q93 0 150 -46t57 -125q0 -71 -43.5 -121.5t-111.5 -73.5q51 -15 80.5 -60.5t29.5 -100.5q0 -113 -86.5 -180t-212.5 -67q-99 0 -160.5 48.5t-61.5 135.5zM188 178q0 -55 33.5 -84 t89.5 -29q74 0 123 43t49 119q0 51 -31 85t-91 34q-79 0 -126 -50.5t-47 -117.5zM270 534q0 -46 27 -75t79 -29q70 0 110.5 44t40.5 106q0 49 -29.5 74t-77.5 25q-65 0 -107.5 -37.5t-42.5 -107.5z" />
<glyph d="M60 39h112q-2 -60 28.5 -84.5t68.5 -24.5q82 0 137 70t72 212q-36 -36 -92.5 -59.5t-108.5 -23.5q-80 0 -126 44.5t-46 131.5q0 86 42 151t106.5 96.5t139.5 31.5q100 0 152.5 -65t52.5 -187q0 -229 -93 -355t-250 -126q-94 0 -148 48t-47 140zM221 321q0 -52 25 -81 t74 -29q41 0 87.5 21t76.5 52q1 16 1 50q0 170 -107 170q-72 0 -114.5 -46t-42.5 -137z" />
<glyph horiz-adv-x="541" d="M84 209q0 150 80 249t204 99q88 0 135.5 -60t47.5 -163q0 -150 -80 -249.5t-204 -99.5q-88 0 -135.5 60.5t-47.5 163.5zM194 207q0 -70 23.5 -107t63.5 -37q68 0 114 74.5t46 196.5q0 71 -23 108t-64 37q-68 0 -114 -74.5t-46 -197.5z" />
<glyph horiz-adv-x="542" d="M84 209q0 150 80 249t204 99q88 0 135.5 -60t47.5 -163q0 -150 -79.5 -249.5t-204.5 -99.5q-88 0 -135.5 60.5t-47.5 163.5zM187 210q0 -30 5 -58l209 316q-20 14 -46 14q-70 0 -119 -74t-49 -198zM234 75q20 -15 47 -15q69 0 118 74t49 199q0 30 -5 58z" />
<glyph horiz-adv-x="356" d="M102 382l15 91l145 70h107l-96 -543h-107l80 450z" />
<glyph horiz-adv-x="461" d="M55 0l14 78q16 13 48 37q160 124 206 173q64 68 64 126q0 31 -18 48.5t-48 17.5q-35 0 -63 -26t-42 -76h-108q19 84 82.5 131.5t144.5 47.5q73 0 115 -34t42 -96q0 -78 -63.5 -153.5t-222.5 -195.5h229l-13 -78h-367z" />
<glyph horiz-adv-x="491" d="M65 147h108q-2 -41 21 -63t65 -22q51 0 82.5 28.5t31.5 76.5q0 34 -26.5 54t-81.5 20h-57l13 76h57q60 0 92.5 29t32.5 71q0 30 -19 46.5t-52 16.5q-36 0 -66 -22t-43 -62h-109q19 73 85.5 117t148.5 44q79 0 122 -32t43 -92q0 -51 -34 -93t-91 -57q48 -8 71 -39t23 -70 q0 -82 -67.5 -135.5t-167.5 -53.5q-91 0 -141 43.5t-41 118.5z" />
<glyph horiz-adv-x="473" d="M47 100l14 78l226 365h109l-228 -365h129l22 124h103l-22 -124h72l-13 -78h-72l-18 -100h-103l18 100h-237z" />
<glyph horiz-adv-x="468" d="M66 136h109q-2 -37 19 -55.5t55 -18.5q49 0 80 38t31 103q0 84 -73 84q-54 0 -96 -45h-92l53 301h345l-15 -81h-252l-27 -149q51 49 125 49q66 0 103.5 -37.5t37.5 -108.5q0 -108 -66 -169.5t-167 -61.5q-84 0 -131 40t-39 111z" />
<glyph horiz-adv-x="502" d="M80 183q0 163 78 268.5t204 105.5q72 0 116 -37.5t40 -98.5h-109q-1 57 -64 57q-50 0 -88.5 -50.5t-56.5 -133.5q66 58 146 58q69 0 108 -37t39 -106q0 -100 -73 -162t-168 -62q-84 0 -128 52.5t-44 145.5zM188 175q0 -113 78 -113q54 0 86.5 37.5t32.5 95.5 q0 40 -20 62.5t-60 22.5q-65 0 -114 -46q-3 -29 -3 -59z" />
<glyph horiz-adv-x="406" d="M89 0l279 465h-250l14 78h350l-14 -78l-276 -465h-103z" />
<glyph horiz-adv-x="509" d="M69 121q0 57 37 100.5t99 59.5q-35 12 -55 39.5t-20 65.5q0 78 65 124.5t161 46.5q78 0 126 -35t48 -95q0 -53 -33 -91t-86 -55q42 -11 64.5 -42t22.5 -73q0 -87 -69.5 -134t-173.5 -47q-83 0 -134.5 35t-51.5 101zM179 131q0 -70 90 -70q52 0 86 24t34 77q0 35 -23 55.5 t-66 20.5q-57 0 -89 -29.5t-32 -77.5zM237 386q0 -33 19.5 -51.5t57.5 -18.5q49 0 77.5 28t28.5 72q0 33 -22 49t-56 16q-44 0 -74.5 -23.5t-30.5 -71.5z" />
<glyph horiz-adv-x="504" d="M74 135h108q0 -36 20 -53.5t49 -17.5q53 0 93.5 55t56.5 143q-68 -58 -147 -58q-70 0 -109 34t-39 101q0 100 72 159t168 59q84 0 127.5 -52.5t43.5 -145.5q0 -163 -77.5 -268.5t-204.5 -105.5q-73 0 -120 40t-41 110zM214 354q0 -78 81 -78q63 0 113 45q2 30 2 46 q0 113 -78 113q-53 0 -85.5 -35.5t-32.5 -90.5z" />
<glyph horiz-adv-x="430" d="M136 606q0 115 66.5 189t165.5 74q72 0 113.5 -47t41.5 -128q0 -114 -66.5 -188.5t-165.5 -74.5q-72 0 -113.5 47t-41.5 128zM235 603q0 -50 18 -75.5t50 -25.5q50 0 85.5 52.5t35.5 142.5q0 50 -18 75t-50 25q-51 0 -86 -52t-35 -142z" />
<glyph horiz-adv-x="256" d="M144 724l15 83l113 53h95l-74 -420h-95l60 337z" />
<glyph horiz-adv-x="372" d="M115 440l12 71q27 20 64.5 47t57.5 41.5t45.5 34t38.5 32.5t26 28.5t18 30t5 29.5q0 46 -52 46q-58 0 -77 -68h-97q15 66 64.5 101.5t121.5 35.5q63 0 99.5 -28t36.5 -80q0 -22 -4 -40t-20 -39t-27 -34.5t-45.5 -41t-54 -42t-72.5 -53.5h183l-12 -71h-311z" />
<glyph horiz-adv-x="393" d="M125 554h97q-2 -28 13.5 -41t51.5 -13q83 0 83 70q0 51 -79 51h-52l12 70h52q42 0 65.5 17t23.5 50q0 42 -55 42q-58 0 -77 -54h-98q16 58 66 90.5t121 32.5q64 0 101.5 -27t37.5 -75q0 -37 -26 -66.5t-72 -41.5q76 -12 76 -84q0 -63 -57.5 -103.5t-133.5 -40.5 q-79 0 -118 32t-32 91z" />
<glyph horiz-adv-x="369" d="M107 508l12 73l181 279h95l-183 -279h97l16 93h89l-16 -93h64l-13 -73h-64l-12 -68h-89l12 68h-189z" />
<glyph horiz-adv-x="367" d="M123 545h97q0 -45 54 -45q40 0 62.5 25.5t22.5 72.5q0 58 -55 58q-45 0 -74 -29h-81l41 233h283l-14 -73h-201l-17 -95q40 33 99 33q52 0 84 -31t32 -88q0 -81 -58.5 -128t-135.5 -47q-73 0 -109.5 29.5t-29.5 84.5z" />
<glyph horiz-adv-x="385" d="M130 586q0 125 64.5 204t162.5 79q65 0 101 -28t33 -76h-98q-6 35 -48 35t-69.5 -35.5t-39.5 -95.5q49 44 110 44q60 0 93 -29t33 -84q0 -76 -58 -122.5t-135 -46.5q-71 0 -110 41t-39 114zM228 584q0 -84 63 -84q44 0 64.5 25.5t20.5 61.5q0 25 -15 41t-46 16 q-47 0 -86 -29q-1 -10 -1 -31z" />
<glyph horiz-adv-x="319" d="M128 440l221 347h-193l13 73h285l-13 -73l-219 -347h-94z" />
<glyph horiz-adv-x="395" d="M119 534q0 44 30 78t80 46q-28 9 -45 30t-17 50q0 60 52.5 95.5t131.5 35.5q65 0 104 -26.5t39 -73.5q0 -41 -26.5 -69.5t-69.5 -41.5q34 -9 53 -33t19 -56q0 -68 -55 -103t-141 -35q-70 0 -112.5 26t-42.5 77zM218 551q0 -51 68 -51q38 0 63.5 17.5t25.5 54.5 q0 48 -68 48q-43 0 -66 -18t-23 -51zM262 733q0 -44 57 -44q76 0 76 65q0 46 -56 46q-33 0 -55 -16.5t-22 -50.5z" />
<glyph horiz-adv-x="385" d="M121 543h98q5 -43 51 -43q41 0 69 35.5t40 95.5q-49 -44 -110 -44t-94 29t-33 83q0 76 58.5 123t134.5 47q71 0 110.5 -41t39.5 -114q0 -125 -65 -204t-163 -79q-66 0 -103 30t-33 82zM239 713q0 -25 15 -41.5t45 -16.5q47 0 87 31q1 10 1 29q0 85 -64 85 q-44 0 -64 -25.5t-20 -61.5z" />
<glyph horiz-adv-x="363" d="M137 622l12 74h117l20 110h75l-20 -110h117l-12 -74h-118l-19 -109h-75l19 109h-116z" />
<glyph horiz-adv-x="363" d="M137 623l12 73h309l-12 -73h-309z" />
<glyph horiz-adv-x="363" d="M126 557l12 73h309l-13 -73h-308zM149 689l12 73h309l-12 -73h-309z" />
<glyph horiz-adv-x="157" d="M85 330l45 178h90l-57 -178h-78z" />
<glyph horiz-adv-x="171" d="M112 480q0 28 21 47.5t49 19.5q22 0 35.5 -14t13.5 -35q0 -28 -20.5 -47.5t-48.5 -19.5q-22 0 -36 14t-14 35z" />
<glyph horiz-adv-x="246" d="M136 596q0 108 54.5 194.5t131.5 144.5h88q-76 -60 -125 -153.5t-49 -186.5q0 -65 19.5 -128t53.5 -102h-88q-36 36 -60.5 97t-24.5 134z" />
<glyph horiz-adv-x="246" d="M65 365q77 60 125.5 154t48.5 187q0 65 -19.5 127.5t-53.5 101.5h88q36 -37 60.5 -98t24.5 -133q0 -108 -55 -195t-131 -144h-88z" />
<glyph horiz-adv-x="430" d="M37 46q0 115 66.5 189t165.5 74q72 0 113.5 -47t41.5 -128q0 -114 -66.5 -188.5t-165.5 -74.5q-72 0 -113.5 47t-41.5 128zM136 43q0 -50 18 -75.5t50 -25.5q50 0 85.5 52.5t35.5 142.5q0 50 -18 75t-50 25q-51 0 -86 -52t-35 -142z" />
<glyph horiz-adv-x="256" d="M45 164l15 83l113 53h95l-74 -420h-95l60 337z" />
<glyph horiz-adv-x="372" d="M16 -120l12 71q27 20 64.5 47t57.5 41.5t45.5 34t38.5 32.5t26 28.5t18 30t5 29.5q0 46 -52 46q-58 0 -77 -68h-97q15 66 64.5 101.5t121.5 35.5q63 0 99.5 -28t36.5 -80q0 -22 -4 -40t-20 -39t-27 -34.5t-45.5 -41t-54 -42t-72.5 -53.5h183l-12 -71h-311z" />
<glyph horiz-adv-x="393" d="M26 -6h97q-2 -28 14 -41t52 -13q83 0 83 70q0 51 -79 51h-53l12 70h53q42 0 65.5 17t23.5 50q0 42 -55 42q-58 0 -77 -54h-98q16 58 66 90.5t121 32.5q63 0 100.5 -27t37.5 -75q0 -37 -25.5 -66.5t-71.5 -41.5q39 -6 57.5 -29.5t18.5 -54.5q0 -63 -57.5 -103.5 t-133.5 -40.5q-79 0 -118.5 32t-32.5 91z" />
<glyph horiz-adv-x="369" d="M8 -52l12 73l181 279h95l-183 -279h97l16 93h89l-16 -93h64l-13 -73h-64l-12 -68h-89l12 68h-189z" />
<glyph horiz-adv-x="367" d="M24 -15h97q0 -45 54 -45q40 0 62.5 25.5t22.5 72.5q0 58 -55 58q-45 0 -74 -29h-81l41 233h283l-14 -73h-201l-17 -95q40 33 99 33q52 0 84 -31t32 -88q0 -81 -58.5 -128t-135.5 -47q-73 0 -109.5 29.5t-29.5 84.5z" />
<glyph horiz-adv-x="385" d="M31 26q0 125 64.5 204t162.5 79q65 0 101 -28t33 -76h-98q-6 35 -48 35t-69.5 -35.5t-39.5 -95.5q49 44 110 44q60 0 93 -29t33 -84q0 -76 -58 -122.5t-135 -46.5q-71 0 -110 41t-39 114zM129 24q0 -84 63 -84q44 0 64.5 25.5t20.5 61.5q0 25 -15 41t-46 16 q-47 0 -86 -29q-1 -10 -1 -31z" />
<glyph horiz-adv-x="319" d="M29 -120l221 347h-193l13 73h285l-13 -73l-219 -347h-94z" />
<glyph horiz-adv-x="395" d="M20 -26q0 44 30 78t80 46q-28 9 -45 30t-17 50q0 60 52.5 95.5t131.5 35.5q65 0 104 -26.5t39 -73.5q0 -41 -26.5 -69.5t-69.5 -41.5q34 -9 53 -33t19 -56q0 -68 -55 -103t-141 -35q-70 0 -112.5 26t-42.5 77zM119 -9q0 -51 68 -51q38 0 63.5 17.5t25.5 54.5q0 48 -68 48 q-43 0 -66 -18t-23 -51zM163 173q0 -44 57 -44q76 0 76 65q0 46 -56 46q-33 0 -55 -16.5t-22 -50.5z" />
<glyph horiz-adv-x="385" d="M22 -17h98q5 -43 51 -43q41 0 69 35.5t40 95.5q-49 -44 -110 -44t-94 29t-33 83q0 76 58.5 123t134.5 47q71 0 110.5 -41t39.5 -114q0 -125 -65 -204t-163 -79q-66 0 -103 30t-33 82zM140 153q0 -25 15 -41.5t45 -16.5q47 0 87 31q1 10 1 29q0 85 -64 85q-44 0 -64 -25.5 t-20 -61.5z" />
<glyph horiz-adv-x="363" d="M38 62l12 74h117l20 110h75l-20 -110h117l-12 -74h-118l-19 -109h-75l19 109h-116z" />
<glyph horiz-adv-x="363" d="M38 63l12 73h309l-12 -73h-309z" />
<glyph horiz-adv-x="363" d="M27 -3l12 73h309l-13 -73h-308zM50 129l12 73h309l-12 -73h-309z" />
<glyph horiz-adv-x="157" d="M-14 -230l45 178h90l-57 -178h-78z" />
<glyph horiz-adv-x="176" d="M13 -80q0 28 21 47.5t49 19.5q22 0 35.5 -14t13.5 -35q0 -28 -20.5 -47.5t-48.5 -19.5q-22 0 -36 14t-14 35z" />
<glyph horiz-adv-x="246" d="M37 36q0 108 54.5 194.5t131.5 144.5h88q-76 -60 -125 -153.5t-49 -186.5q0 -65 19.5 -128t53.5 -102h-88q-36 36 -60.5 97t-24.5 134z" />
<glyph horiz-adv-x="246" d="M-34 -195q77 60 125.5 154t48.5 187q0 65 -19.5 127.5t-53.5 101.5h88q36 -37 61 -98t25 -133q0 -108 -55 -195t-132 -144h-88z" />
<glyph horiz-adv-x="430" d="M108 446q0 115 66.5 189t165.5 74q72 0 113.5 -47t41.5 -128q0 -114 -66.5 -188.5t-165.5 -74.5q-72 0 -113.5 47t-41.5 128zM207 443q0 -50 18 -75.5t50 -25.5q50 0 85.5 52.5t35.5 142.5q0 50 -18 75t-50 25q-51 0 -86 -52t-35 -142z" />
<glyph horiz-adv-x="256" d="M115 564l15 83l113 53h95l-74 -420h-95l60 337z" />
<glyph horiz-adv-x="372" d="M86 280l12 71q27 20 64.5 47t57.5 41.5t45.5 34t38.5 32.5t26 28.5t18 30t5 29.5q0 46 -52 46q-58 0 -77 -68h-97q15 66 64.5 101.5t121.5 35.5q63 0 99.5 -28t36.5 -80q0 -22 -4 -40t-20 -39t-27 -34.5t-45.5 -41t-54 -42t-72.5 -53.5h183l-12 -71h-311z" />
<glyph horiz-adv-x="393" d="M97 394h97q-2 -28 13.5 -41t51.5 -13q83 0 83 70q0 51 -79 51h-52l12 70h52q42 0 65.5 17t23.5 50q0 42 -55 42q-58 0 -77 -54h-98q16 58 66 90.5t121 32.5q64 0 101.5 -27t37.5 -75q0 -37 -26 -66.5t-72 -41.5q76 -12 76 -84q0 -63 -57.5 -103.5t-133.5 -40.5 q-79 0 -118 32t-32 91z" />
<glyph horiz-adv-x="369" d="M78 348l12 73l181 279h95l-183 -279h97l16 93h89l-16 -93h64l-13 -73h-64l-12 -68h-89l12 68h-189z" />
<glyph horiz-adv-x="367" d="M95 385h97q0 -45 54 -45q40 0 62.5 25.5t22.5 72.5q0 58 -55 58q-45 0 -74 -29h-81l41 233h283l-14 -73h-201l-17 -95q41 33 99 33q52 0 84 -31t32 -88q0 -81 -58.5 -128t-135.5 -47q-73 0 -109.5 29.5t-29.5 84.5z" />
<glyph horiz-adv-x="385" d="M102 426q0 125 64.5 204t162.5 79q65 0 101 -28t33 -76h-98q-6 35 -48 35t-69.5 -35.5t-39.5 -95.5q49 44 110 44q60 0 93 -29t33 -84q0 -76 -58 -122.5t-135 -46.5q-71 0 -110 41t-39 114zM200 424q0 -84 63 -84q44 0 64.5 25.5t20.5 61.5q0 25 -15 41t-46 16 q-47 0 -86 -29q-1 -10 -1 -31z" />
<glyph horiz-adv-x="319" d="M99 280l221 347h-193l13 73h285l-13 -73l-219 -347h-94z" />
<glyph horiz-adv-x="395" d="M91 374q0 44 30 78t80 46q-28 9 -45 30t-17 50q0 60 52.5 95.5t131.5 35.5q65 0 104 -26.5t39 -73.5q0 -41 -26.5 -69.5t-69.5 -41.5q34 -9 53 -33t19 -56q0 -68 -55 -103t-141 -35q-70 0 -112.5 26t-42.5 77zM190 391q0 -51 68 -51q38 0 63.5 17.5t25.5 54.5 q0 48 -68 48q-43 0 -66 -18t-23 -51zM234 573q0 -44 57 -44q76 0 76 65q0 46 -56 46q-33 0 -55 -16.5t-22 -50.5z" />
<glyph horiz-adv-x="385" d="M93 383h98q5 -43 51 -43q41 0 69 35.5t40 95.5q-49 -44 -110 -44t-94 29t-33 83q0 76 58.5 123t134.5 47q71 0 110.5 -41t39.5 -114q0 -125 -65 -204t-163 -79q-66 0 -103 30t-33 82zM211 553q0 -25 15 -41.5t45 -16.5q47 0 87 31q1 10 1 29q0 85 -64 85q-44 0 -64 -25.5 t-20 -61.5z" />
<glyph horiz-adv-x="430" d="M58 166q0 115 66.5 189t165.5 74q72 0 113.5 -47t41.5 -128q0 -114 -66.5 -188.5t-165.5 -74.5q-72 0 -113.5 47t-41.5 128zM157 163q0 -50 18 -75.5t50 -25.5q50 0 85.5 52.5t35.5 142.5q0 50 -18 75t-50 25q-51 0 -86 -52t-35 -142z" />
<glyph horiz-adv-x="256" d="M66 284l15 83l113 53h95l-74 -420h-95l60 337z" />
<glyph horiz-adv-x="372" d="M37 0l12 71q27 20 64.5 47t57.5 41.5t45.5 34t38.5 32.5t26 28.5t18 30t5 29.5q0 46 -52 46q-58 0 -77 -68h-97q15 66 64.5 101.5t121.5 35.5q63 0 99.5 -28t36.5 -80q0 -22 -4 -40t-20 -39t-27 -34.5t-45.5 -41t-54 -42t-72.5 -53.5h183l-12 -71h-311z" />
<glyph horiz-adv-x="393" d="M47 114h97q-2 -28 13.5 -41t51.5 -13q83 0 83 70q0 51 -79 51h-52l12 70h52q42 0 65.5 17t23.5 50q0 42 -55 42q-58 0 -77 -54h-98q16 58 66 90.5t121 32.5q64 0 101.5 -27t37.5 -75q0 -37 -26 -66.5t-72 -41.5q76 -12 76 -84q0 -63 -57.5 -103.5t-133.5 -40.5 q-79 0 -118 32t-32 91z" />
<glyph horiz-adv-x="369" d="M29 68l12 73l181 279h95l-183 -279h97l16 93h89l-16 -93h64l-13 -73h-64l-12 -68h-89l12 68h-189z" />
<glyph horiz-adv-x="367" d="M45 105h97q0 -45 54 -45q40 0 62.5 25.5t22.5 72.5q0 58 -55 58q-45 0 -74 -29h-81l41 233h283l-14 -73h-201l-17 -95q41 33 99 33q52 0 84 -31t32 -88q0 -81 -58.5 -128t-135.5 -47q-73 0 -109.5 29.5t-29.5 84.5z" />
<glyph horiz-adv-x="385" d="M52 146q0 125 64.5 204t162.5 79q65 0 101 -28t33 -76h-98q-6 35 -48 35t-69.5 -35.5t-39.5 -95.5q49 44 110 44q60 0 93 -29t33 -84q0 -76 -58 -122.5t-135 -46.5q-71 0 -110 41t-39 114zM150 144q0 -84 63 -84q44 0 64.5 25.5t20.5 61.5q0 25 -15 41t-46 16 q-47 0 -86 -29q-1 -10 -1 -31z" />
<glyph horiz-adv-x="319" d="M50 0l221 347h-193l13 73h285l-13 -73l-219 -347h-94z" />
<glyph horiz-adv-x="395" d="M41 94q0 44 30 78t80 46q-28 9 -45 30t-17 50q0 60 52.5 95.5t131.5 35.5q65 0 104 -26.5t39 -73.5q0 -41 -26.5 -69.5t-69.5 -41.5q34 -9 53 -33t19 -56q0 -68 -55 -103t-141 -35q-70 0 -112.5 26t-42.5 77zM140 111q0 -51 68 -51q38 0 63.5 17.5t25.5 54.5q0 48 -68 48 q-43 0 -66 -18t-23 -51zM184 293q0 -44 57 -44q76 0 76 65q0 46 -56 46q-33 0 -55 -16.5t-22 -50.5z" />
<glyph horiz-adv-x="385" d="M43 103h98q5 -43 51 -43q41 0 69 35.5t40 95.5q-49 -44 -110 -44t-94 29t-33 83q0 76 58.5 123t134.5 47q71 0 110.5 -41t39.5 -114q0 -125 -65 -204t-163 -79q-66 0 -103 30t-33 82zM161 273q0 -25 15 -41.5t45 -16.5q47 0 87 31q1 10 1 29q0 85 -64 85q-44 0 -64 -25.5 t-20 -61.5z" />
<glyph horiz-adv-x="764" d="M65 101l319 269l-220 270l71 57l218 -268l319 269l57 -68l-320 -270l220 -270l-71 -57l-219 269l-318 -269z" />
<glyph horiz-adv-x="998" d="M90 323l15 86h920l-15 -86h-920z" />
<glyph horiz-adv-x="498" d="M90 323l15 86h420l-15 -86h-420z" />
<glyph horiz-adv-x="292" d="M50 323l15 86h243l-15 -86h-243z" />
<glyph horiz-adv-x="340" d="M94 313l17 97l275 194l-22 -124l-171 -120l129 -119l-22 -122z" />
<glyph horiz-adv-x="340" d="M60 119l22 124l170 120l-129 119l22 122l206 -194l-17 -97z" />
<glyph horiz-adv-x="568" d="M94 313l17 97l275 194l-22 -122l-171 -120l129 -119l-22 -124zM322 313l17 97l275 194l-22 -122l-171 -120l129 -119l-22 -124z" />
<glyph horiz-adv-x="568" d="M60 119l22 122l170 120l-128 119l22 124l205 -194l-17 -97zM288 119l22 122l170 120l-128 119l22 124l205 -194l-17 -97z" />
<glyph horiz-adv-x="515" d="M58 132q0 57 25.5 100t61.5 69.5t71 50.5t58 57t20 75h110q2 -42 -9.5 -74.5t-31.5 -53.5t-45 -38.5t-50 -33.5t-46 -33.5t-34 -44t-13 -60.5q0 -37 24 -56.5t65 -19.5q46 0 81.5 29t50.5 86h119q-22 -94 -93 -147t-173 -53q-89 0 -140 38.5t-51 108.5zM302 632 q0 35 25.5 59t60.5 24q27 0 43.5 -17t16.5 -44q0 -35 -25 -59t-61 -24q-27 0 -43.5 17t-16.5 44z" />
<glyph horiz-adv-x="315" d="M90 0l105 484h84l-65 -484h-124zM192 632q0 35 25.5 59t60.5 24q27 0 44 -17t17 -44q0 -35 -25 -59t-61 -24q-27 0 -44 17t-17 44z" />
<glyph horiz-adv-x="947" d="M60 263q0 231 156.5 381.5t407.5 150.5q159 0 268 -95.5t109 -250.5q0 -94 -29 -170.5t-75 -121t-96.5 -68.5t-99.5 -24q-42 0 -71.5 18t-35.5 56q-83 -74 -170 -74q-63 0 -105 54.5t-42 153.5q0 159 82 250.5t189 91.5q71 0 112 -60l8 44h110l-70 -399q-5 -29 3.5 -44.5 t26.5 -15.5q63 0 112.5 88.5t49.5 209.5q0 126 -77 205t-218 79q-187 0 -315 -123.5t-128 -319.5q0 -173 93.5 -261t249.5 -88q59 0 132.5 13t116.5 29l-12 -72q-46 -17 -121.5 -30t-142.5 -13q-82 0 -156 25.5t-133 74t-94 128t-35 178.5zM392 284q0 -66 25 -100.5 t60 -34.5q63 0 121 51l50 284q-35 47 -94 47q-65 0 -113.5 -65t-48.5 -182z" />
<glyph horiz-adv-x="842" d="M93 246l14 77h742l-14 -77h-742z" />
<glyph horiz-adv-x="438" d="M93 246l14 77h338l-13 -77h-339z" />
<glyph horiz-adv-x="306" d="M93 246l14 77h206l-14 -77h-206z" />
<glyph horiz-adv-x="433" d="M102 399q16 73 75.5 115.5t141.5 42.5q74 0 117 -31.5t43 -87.5q0 -47 -20 -81.5t-48.5 -54t-56.5 -36.5t-46 -40t-15 -55h-102q-3 43 14.5 73.5t44.5 47.5t55 33t48 40.5t20 59.5q0 55 -67 55q-74 0 -96 -81h-108zM154 38q0 31 22 51.5t54 20.5q24 0 38.5 -14.5 t14.5 -37.5q0 -31 -22 -52t-54 -21q-24 0 -38.5 15t-14.5 38z" />
<glyph horiz-adv-x="427" d="M36 103q0 48 20.5 82.5t49 54t56.5 36.5t46 40t15 55h102q3 -37 -9.5 -64.5t-33 -42.5t-45 -30.5t-45.5 -28.5t-35.5 -35.5t-14.5 -52.5q0 -55 67 -55q75 0 96 81h109q-17 -73 -76.5 -115.5t-141.5 -42.5q-74 0 -117 31t-43 87zM232 484q0 31 22 52t54 21 q24 0 38.5 -14.5t14.5 -38.5q0 -30 -22 -51t-53 -21q-24 0 -39 14.5t-15 37.5z" />
<glyph horiz-adv-x="292" d="M86 38q0 31 22 51.5t54 20.5q24 0 38.5 -14.5t14.5 -37.5q0 -31 -22 -52t-54 -21q-24 0 -38.5 15t-14.5 38zM132 171l50 372h112l-81 -372h-81z" />
<glyph horiz-adv-x="277" d="M73 0l82 372h81l-50 -372h-113zM152 485q0 30 22.5 51.5t53.5 21.5q24 0 39 -15t15 -38q0 -31 -22 -51.5t-54 -20.5q-24 0 -39 14.5t-15 37.5z" />
<glyph horiz-adv-x="362" d="M124 411q0 61 45.5 103.5t109.5 42.5q50 0 80.5 -30t30.5 -78q0 -61 -46 -103.5t-110 -42.5q-49 0 -79.5 30t-30.5 78zM209.5 401.5q6.5 -16.5 24.5 -22.5q25 -5 44.5 8t24.5 38q8 17 1 33.5t-25 22.5q-24 5 -43.5 -8t-25.5 -38q-7 -17 -0.5 -33.5z" />
<glyph horiz-adv-x="199" d="M122 337l24 206h99l-48 -206h-75z" />
<glyph horiz-adv-x="339" d="M122 337l24 206h99l-48 -206h-75zM262 337l24 206h99l-48 -206h-75z" />
<glyph horiz-adv-x="249" d="M110 444l119 259h114l-140 -259h-93z" />
<glyph horiz-adv-x="420" d="M110 444l119 259h114l-140 -259h-93zM281 444l119 259h114l-140 -259h-93z" />
<glyph horiz-adv-x="249" d="M110 444l141 259h92l-119 -259h-114z" />
<glyph horiz-adv-x="420" d="M110 444l141 259h92l-119 -259h-114zM281 444l141 259h92l-119 -259h-114z" />
<glyph horiz-adv-x="475" d="M90 243l14 79h150l25 142h80l-25 -142h151l-14 -79h-151l-25 -143h-80l25 143h-150z" />
<glyph horiz-adv-x="467" d="M90 243l14 79h373l-14 -79h-373z" />
<glyph horiz-adv-x="465" d="M73 151l14 79h373l-14 -79h-373zM105 334l14 79h373l-14 -79h-373z" />
<glyph horiz-adv-x="322" d="M100 198q0 74 21 143.5t56.5 125t74 97t81.5 75.5h97q-96 -79 -157 -200.5t-61 -243.5q0 -83 23 -163t65 -129h-97q-44 47 -73.5 124.5t-29.5 170.5z" />
<glyph horiz-adv-x="322" d="M-17 -97q95 79 156.5 200.5t61.5 243.5q0 83 -23 163t-65 129h98q43 -46 72.5 -124t29.5 -171q0 -74 -21 -143.5t-56.5 -124.5t-73.5 -97t-81 -76h-98z" />
<glyph horiz-adv-x="312" d="M102 -97l130 736h178l-13 -68h-71l-106 -600h71l-11 -68h-178z" />
<glyph horiz-adv-x="312" d="M2 -97l11 68h72l106 600h-71l12 68h178l-130 -736h-178z" />
<glyph horiz-adv-x="327" d="M96 236l12 70q82 0 91 63l25 140q11 62 58 96t120 34h22l-11 -68h-14q-30 0 -47 -18t-21 -43l-23 -132q-7 -39 -33 -69t-58 -38q30 -8 44.5 -38t7.5 -69l-23 -132q-4 -24 7 -42.5t40 -18.5h14l-12 -68h-22q-72 0 -107.5 34t-25.5 95l25 141q5 31 -11 47t-58 16z" />
<glyph horiz-adv-x="330" d="M3 -97l12 68h14q29 0 46 18.5t21 42.5l23 132q7 39 33 69t59 38q-31 8 -46 38t-8 69l24 132q4 24 -6.5 42.5t-40.5 18.5h-14l11 68h23q73 0 108 -34t25 -96l-25 -140q-5 -31 11 -47t58 -16l-12 -70q-82 0 -91 -63l-25 -141q-11 -61 -58 -95t-119 -34h-23z" />
<glyph horiz-adv-x="395" d="M16 -31l358 605h110l-358 -605h-110z" />
<glyph horiz-adv-x="404" d="M127 574h98l146 -605h-98z" />
<glyph horiz-adv-x="589" d="M66 121q0 54 34.5 99.5t91.5 75.5q-37 50 -37 93q0 68 59 118t143 50q76 0 123.5 -41t39.5 -113h-109q6 78 -67 78q-36 0 -59.5 -21t-23.5 -59q0 -43 38 -85l127 -144q28 48 39 115h102q-17 -98 -85 -178l96 -109h-128l-38 43q-81 -58 -174 -58q-78 0 -125 36.5t-47 99.5 zM170 141q0 -37 26 -58t64 -21q57 0 105 35l-133 151q-62 -42 -62 -107z" />
<glyph horiz-adv-x="883" d="M105 369l435 370l53 -64l-307 -262h630l-16 -89h-636l217 -263l-71 -61z" />
<glyph horiz-adv-x="883" d="M97 324l16 89h636l-218 264l72 61l305 -370l-436 -370l-53 65l307 261h-629z" />
<glyph horiz-adv-x="819" d="M110 400l436 371l304 -371l-73 -61l-217 263l-111 -634h-88l110 630l-308 -262z" />
<glyph horiz-adv-x="819" d="M100 338l73 61l216 -263l112 635h88l-111 -631l309 262l53 -64l-436 -370z" />
<glyph horiz-adv-x="718" d="M104 138l93 523h523l-16 -89h-374l369 -448l-71 -62l-370 450l-65 -374h-89z" />
<glyph horiz-adv-x="718" d="M62 126l525 446h-371l16 89h523l-92 -523h-89l65 370l-525 -446z" />
<glyph horiz-adv-x="718" d="M126 62l16 89l373 -1l-368 449l71 61l369 -449l66 374h88l-92 -523h-523z" />
<glyph horiz-adv-x="718" d="M91 62l92 523h88l-66 -371l526 447l52 -65l-525 -446l371 1l-15 -89h-523z" />
<glyph horiz-adv-x="1663" d="M105 369l435 370l53 -64l-307 -262h1409l-15 -89h-1416l217 -263l-71 -61z" />
<glyph horiz-adv-x="1663" d="M97 324l16 89h1415l-217 264l72 61l305 -370l-436 -370l-53 65l306 261h-1408z" />
<glyph horiz-adv-x="199" d="M152 577l40 226h99l-63 -226h-76z" />
<glyph horiz-adv-x="379" d="M183 752l152 141h151l-201 -141h-102z" />
<glyph horiz-adv-x="413" d="M207 893h76q-5 -29 12.5 -47.5t57.5 -18.5q39 0 61.5 18.5t27.5 47.5h79q-13 -73 -64 -112t-120 -39t-105.5 39t-24.5 112z" />
<glyph horiz-adv-x="503" d="M207 893h102l86 -66l109 66h106l-173 -141h-106z" />
<glyph horiz-adv-x="503" d="M183 752l173 141h105l124 -141h-102l-86 66l-108 -66h-106z" />
<glyph horiz-adv-x="453" d="M195 819q0 31 24 53t56 22q25 0 41 -16t16 -40q0 -31 -24 -53t-56 -22q-25 0 -41 15.5t-16 40.5zM413 819q0 31 23.5 53t55.5 22q25 0 41.5 -16t16.5 -41q0 -30 -24.5 -52t-55.5 -22q-25 0 -41 15.5t-16 40.5z" />
<glyph horiz-adv-x="239" d="M195 819q0 31 24.5 53.5t57.5 22.5q26 0 42.5 -16t16.5 -42q0 -31 -24.5 -53.5t-57.5 -22.5q-26 0 -42.5 16t-16.5 42z" />
<glyph horiz-adv-x="379" d="M207 893h142l113 -141h-94z" />
<glyph horiz-adv-x="538" d="M183 752l132 141h139l-178 -141h-93zM375 752l132 141h139l-178 -141h-93z" />
<glyph horiz-adv-x="425" d="M188 784l14 78h325l-14 -78h-325z" />
<glyph horiz-adv-x="335" d="M193 806q0 50 40 82t96 32q45 0 73.5 -23t28.5 -61q0 -50 -40 -82t-96 -32q-45 0 -73.5 23t-28.5 61zM275 802q14 -26 44 -13q39 10 30 51q-13 26 -44 14q-18 -5 -26 -19t-4 -33z" />
<glyph horiz-adv-x="475" d="M190 794q28 49 63 74t69 25q30 0 78.5 -22.5t61.5 -22.5q33 0 59 41l55 -28q-27 -48 -61.5 -73.5t-68.5 -25.5q-30 0 -78.5 22.5t-62.5 22.5q-32 0 -61 -41z" />
<glyph horiz-adv-x="336" d="M153 583l121 109h134l-159 -109h-96z" />
<glyph horiz-adv-x="366" d="M172 692h74q-4 -19 8.5 -31t42.5 -12q57 0 64 43h77q-10 -56 -52.5 -86t-100.5 -30q-59 0 -91 30t-22 86z" />
<glyph horiz-adv-x="433" d="M172 692h93l64 -42l80 42h97l-144 -109h-84z" />
<glyph horiz-adv-x="433" d="M153 583l144 109h84l105 -109h-93l-65 41l-79 -41h-96z" />
<glyph horiz-adv-x="392" d="M162 634q0 27 21.5 45.5t48.5 18.5q22 0 36 -13.5t14 -34.5q0 -26 -21 -44.5t-49 -18.5q-21 0 -35.5 13.5t-14.5 33.5zM337 634q0 27 21 45.5t48 18.5q22 0 36.5 -13.5t14.5 -33.5q0 -27 -21.5 -45.5t-48.5 -18.5q-22 0 -36 13.5t-14 33.5z" />
</font>
</defs>
</svg>
