<?xml version="1.0" standalone="no"?>
<!DOCTYPE svg PUBLIC "-//W3C//DTD SVG 1.1//EN" "http://www.w3.org/Graphics/SVG/1.1/DTD/svg11.dtd" >
<svg xmlns="http://www.w3.org/2000/svg">
<metadata></metadata>
<defs>
<font id="vegan-sans-light" horiz-adv-x="600" >
<font-face units-per-em="1000" ascent="800" descent="-200" />
<missing-glyph horiz-adv-x="300" />
<glyph unicode="fb" horiz-adv-x="929" d="M20 458v58h90v59q0 90 65 137t169 47q87 0 166 -25v-275q70 72 168 72q83 0 142 -68.5t59 -204.5q0 -70 -20.5 -124.5t-54 -86t-73.5 -47t-83 -15.5q-86 0 -138 61v-46h-80v690q-43 10 -86 10q-67 0 -110.5 -32t-43.5 -93v-59h120v-58h-120v-458h-80v458h-90zM510 108 q53 -56 135 -56q59 0 103.5 50.5t44.5 155.5q0 106 -40 156t-98 50q-87 0 -145 -61v-295z" />
<glyph unicode="ff" horiz-adv-x="670" d="M20 458v58h90v99q0 144 154 144q45 0 76 -16v-57q-44 11 -65 11q-85 0 -85 -82v-99h240v99q0 144 154 144q45 0 76 -16v-57q-44 11 -65 11q-85 0 -85 -82v-99h150v-58h-150v-458h-80v458h-240v-458h-80v458h-90z" />
<glyph unicode="fh" horiz-adv-x="936" d="M20 458v58h90v59q0 90 65 137t169 47q87 0 166 -25v-285q35 36 83.5 59t96.5 23q73 0 119.5 -42t46.5 -127v-362h-80v342q0 122 -109 122q-41 0 -85.5 -21t-71.5 -50v-393h-80v690q-43 10 -86 10q-67 0 -110.5 -32t-43.5 -93v-59h120v-58h-120v-458h-80v458h-90z" />
<glyph unicode="fi" horiz-adv-x="590" d="M20 458v58h90v99q0 144 154 144q45 0 76 -16v-57q-44 11 -65 11q-85 0 -85 -82v-99h320v-516h-80v458h-240v-458h-80v458h-90zM414 660q0 22 16.5 38.5t39.5 16.5t39.5 -16.5t16.5 -38.5t-16.5 -38.5t-39.5 -16.5t-39.5 16.5t-16.5 38.5z" />
<glyph unicode="fj" horiz-adv-x="590" d="M20 458v58h90v99q0 144 154 144q45 0 76 -16v-57q-44 11 -65 11q-85 0 -85 -82v-99h320v-724h-80v666h-240v-458h-80v458h-90zM414 660q0 22 16.5 38.5t39.5 16.5t39.5 -16.5t16.5 -38.5t-16.5 -38.5t-39.5 -16.5t-39.5 16.5t-16.5 38.5z" />
<glyph unicode="fk" horiz-adv-x="845" d="M20 458v58h90v59q0 90 65 137t169 47q87 0 166 -25v-734h-80v691q-43 10 -86 10q-66 0 -110 -32.5t-44 -93.5v-59h120v-58h-120v-458h-80v458h-90zM510 275l221 241h91l-224 -234l247 -282h-103z" />
<glyph unicode="fl" horiz-adv-x="590" d="M20 458v58h90v59q0 90 65 137t169 47q87 0 166 -25v-734h-80v690q-43 10 -86 10q-67 0 -110.5 -32t-43.5 -93v-59h120v-58h-120v-458h-80v458h-90z" />
<glyph unicode="ft" horiz-adv-x="700" d="M20 458v58h90v99q0 144 154 144q45 0 76 -16v-57q-44 11 -65 11q-85 0 -85 -82v-99h240v144h80v-144h150v-58h-150v-324q0 -86 72 -86q35 0 88 17v-57q-46 -23 -113 -23q-56 0 -91.5 33.5t-35.5 95.5v344h-240v-458h-80v458h-90z" />
<glyph unicode="ffb" horiz-adv-x="1249" d="M20 458v58h90v99q0 144 154 144q45 0 76 -16v-57q-44 11 -65 11q-85 0 -85 -82v-99h240v59q0 90 65 137t169 47q87 0 166 -25v-275q70 72 168 72q83 0 142 -68.5t59 -204.5q0 -70 -20.5 -124.5t-54 -86t-73.5 -47t-83 -15.5q-86 0 -138 61v-46h-80v690q-43 10 -86 10 q-67 0 -110.5 -32t-43.5 -93v-59h120v-58h-120v-458h-80v458h-240v-458h-80v458h-90zM830 108q53 -56 135 -56q59 0 103.5 50.5t44.5 155.5q0 106 -40 156t-98 50q-87 0 -145 -61v-295z" />
<glyph unicode="ffh" horiz-adv-x="1256" d="M20 458v58h90v99q0 144 154 144q45 0 76 -16v-57q-44 11 -65 11q-85 0 -85 -82v-99h240v59q0 90 65 137t169 47q87 0 166 -25v-285q35 36 83.5 59t96.5 23q73 0 119.5 -42t46.5 -127v-362h-80v342q0 122 -109 122q-41 0 -85.5 -21t-71.5 -50v-393h-80v690q-43 10 -86 10 q-67 0 -110.5 -32t-43.5 -93v-59h120v-58h-120v-458h-80v458h-240v-458h-80v458h-90z" />
<glyph unicode="ffi" horiz-adv-x="910" d="M20 458v58h90v99q0 144 154 144q45 0 76 -16v-57q-44 11 -65 11q-85 0 -85 -82v-99h240v99q0 144 154 144q45 0 76 -16v-57q-44 11 -65 11q-85 0 -85 -82v-99h320v-516h-80v458h-240v-458h-80v458h-240v-458h-80v458h-90zM734 660q0 22 16.5 38.5t39.5 16.5t39.5 -16.5 t16.5 -38.5t-16.5 -38.5t-39.5 -16.5t-39.5 16.5t-16.5 38.5z" />
<glyph unicode="ffj" horiz-adv-x="910" d="M20 458v58h90v99q0 144 154 144q45 0 76 -16v-57q-44 11 -65 11q-85 0 -85 -82v-99h240v99q0 144 154 144q45 0 76 -16v-57q-44 11 -65 11q-85 0 -85 -82v-99h320v-724h-80v666h-240v-458h-80v458h-240v-458h-80v458h-90zM734 660q0 22 16.5 38.5t39.5 16.5t39.5 -16.5 t16.5 -38.5t-16.5 -38.5t-39.5 -16.5t-39.5 16.5t-16.5 38.5z" />
<glyph unicode="ffk" horiz-adv-x="1165" d="M20 458v58h90v99q0 144 154 144q45 0 76 -16v-57q-44 11 -65 11q-85 0 -85 -82v-99h240v59q0 90 65 137t169 47q87 0 166 -25v-734h-80v690q-43 10 -86 10q-67 0 -110.5 -32t-43.5 -93v-59h120v-58h-120v-458h-80v458h-240v-458h-80v458h-90zM830 275l221 241h91 l-224 -234l247 -282h-103z" />
<glyph unicode="ffl" horiz-adv-x="940" d="M20 458v58h90v99q0 144 154 144q45 0 76 -16v-57q-44 11 -65 11q-85 0 -85 -82v-99h240v59q0 90 65 137t169 47q87 0 166 -25v-734h-80v686q-43 10 -85 10q-68 0 -111.5 -30t-43.5 -91v-59h120v-58h-120v-458h-80v458h-240v-458h-80v458h-90z" />
<glyph unicode="fft" horiz-adv-x="1020" d="M20 458v58h90v99q0 144 154 144q45 0 76 -16v-57q-44 11 -65 11q-85 0 -85 -82v-99h240v99q0 144 154 144q45 0 76 -16v-57q-44 11 -65 11q-85 0 -85 -82v-99h240v144h80v-144h150v-58h-150v-324q0 -86 72 -86q35 0 88 17v-57q-46 -23 -113 -23q-56 0 -91.5 33.5 t-35.5 95.5v344h-240v-458h-80v458h-240v-458h-80v458h-90z" />
<glyph unicode="tt" horiz-adv-x="720" d="M20 458v58h90v144h80v-144h260v144h80v-144h150v-58h-150v-324q0 -86 72 -86q35 0 88 17v-57q-46 -23 -113 -23q-56 0 -91.5 33.5t-35.5 95.5v344h-260v-324q0 -86 72 -86q35 0 88 17v-57q-46 -23 -113 -23q-56 0 -91.5 33.5t-35.5 95.5v344h-90z" />
<glyph unicode="&#xd;" horiz-adv-x="0" />
<glyph unicode=" "  horiz-adv-x="300" />
<glyph unicode="&#x09;" horiz-adv-x="300" />
<glyph unicode="&#xa0;" horiz-adv-x="300" />
<glyph unicode="!" horiz-adv-x="320" d="M100 45q0 26 17.5 43t42.5 17t42.5 -17t17.5 -43t-17.5 -43t-42.5 -17t-42.5 17t-17.5 43zM112 700h96l-17 -495h-62z" />
<glyph unicode="&#x22;" horiz-adv-x="340" d="M50 700h90l-14 -250h-62zM200 700h90l-14 -250h-62z" />
<glyph unicode="#" horiz-adv-x="726" d="M50 194v67h117l45 173h-112v67h129l51 199h81l-51 -199h184l51 199h81l-51 -199h101v-67h-118l-45 -173h113v-67h-130l-50 -194h-81l50 194h-184l-50 -194h-81l50 194h-100zM248 261h184l45 173h-184z" />
<glyph unicode="$" d="M50 205h93q10 -129 118 -149v273q-44 10 -73.5 20.5t-62 31t-49 55t-16.5 83.5q0 79 56 132t145 62v107h78v-107q96 -11 148.5 -64t56.5 -144h-93q-10 121 -112 139v-253q36 -8 60.5 -15t55.5 -21.5t50 -33.5t32 -50.5t13 -71.5q0 -85 -60.5 -143.5t-150.5 -68.5v-107 h-78v107q-97 11 -152 66.5t-59 151.5zM147 531q0 -54 29.5 -80.5t84.5 -41.5v237q-52 -7 -83 -36t-31 -79zM339 54q55 9 89.5 43t34.5 90q0 55 -32.5 82t-91.5 42v-257z" />
<glyph unicode="%" horiz-adv-x="974" d="M50 490q0 99 50.5 159t131.5 60t131.5 -60t50.5 -159t-50.5 -159t-131.5 -60t-131.5 60t-50.5 159zM128 490q0 -82 29 -121.5t75 -39.5q45 0 74 39.5t29 121.5t-29 121.5t-74 39.5q-46 0 -75 -39.5t-29 -121.5zM225 0l435 700h83l-435 -700h-83zM560 210q0 99 50.5 159 t131.5 60t131.5 -60t50.5 -159t-50.5 -159t-131.5 -60t-131.5 60t-50.5 159zM638 210q0 -82 29 -121.5t75 -39.5q45 0 74 39.5t29 121.5t-29 121.5t-74 39.5q-46 0 -75 -39.5t-29 -121.5z" />
<glyph unicode="&#x26;" horiz-adv-x="707" d="M60 183q0 118 115 199q-62 78 -62 154q0 73 57.5 126t141.5 53q96 0 151.5 -48.5t59.5 -141.5h-93q-6 68 -36.5 95.5t-81.5 27.5q-48 0 -80 -29.5t-32 -78.5q0 -74 71 -142l221 -212q31 74 31 179h86q0 -131 -61 -232l139 -133h-115l-73 69q-81 -84 -198 -84 q-106 0 -173.5 53.5t-67.5 144.5zM147 193q0 -63 44.5 -102t109.5 -39q91 0 149 64l-231 220q-72 -49 -72 -143z" />
<glyph unicode="'" horiz-adv-x="190" d="M50 700h90l-14 -250h-62z" />
<glyph unicode="(" horiz-adv-x="344" d="M60 350q0 151 57 275t140 200h77q-83 -83 -132 -213t-49 -262t49 -262t132 -213h-77q-83 76 -140 200t-57 275z" />
<glyph unicode=")" horiz-adv-x="344" d="M10 -125q83 83 132 213t49 262t-49 262t-132 213h77q83 -76 140 -200t57 -275t-57 -275t-140 -200h-77z" />
<glyph unicode="*" horiz-adv-x="508" d="M50 463l156 58l-156 59l49 84l134 -111l-28 167h98l-29 -167l135 111l49 -84l-157 -59l157 -58l-49 -84l-135 111l29 -170h-98l29 170l-135 -111z" />
<glyph unicode="+" horiz-adv-x="560" d="M50 332v67h196v196h67v-196h197v-67h-197v-197h-67v197h-196z" />
<glyph unicode="," horiz-adv-x="226" d="M60 -160l20 250h86l-35 -250h-71z" />
<glyph unicode="-" horiz-adv-x="340" d="M50 243v67h240v-67h-240z" />
<glyph unicode="." horiz-adv-x="240" d="M60 45q0 26 17.5 43t42.5 17t42.5 -17t17.5 -43t-17.5 -43t-42.5 -17t-42.5 17t-17.5 43z" />
<glyph unicode="/" horiz-adv-x="438" d="M20 -40l315 780h83l-315 -780h-83z" />
<glyph unicode="0" horiz-adv-x="620" d="M50 350q0 168 69 266.5t191 98.5t191 -98.5t69 -266.5t-69 -266.5t-191 -98.5t-191 98.5t-69 266.5zM143 350q0 -150 46 -224t121 -74t121 74t46 224t-46 224t-121 74t-121 -74t-46 -224z" />
<glyph unicode="1" horiz-adv-x="381" d="M40 535v75l165 90h86v-700h-86v622z" />
<glyph unicode="2" horiz-adv-x="537" d="M50 490q4 108 66 166.5t167 58.5q98 0 154.5 -51.5t56.5 -146.5q0 -91 -75.5 -190.5t-244.5 -259.5h333v-67h-442v67q175 168 228 228q111 128 111 222q0 66 -33 98.5t-88 32.5q-128 0 -140 -158h-93z" />
<glyph unicode="3" horiz-adv-x="568" d="M50 185h93q12 -133 150 -133q62 0 103.5 40.5t41.5 107.5q0 58 -42.5 94t-128.5 36h-71v67h71q72 0 111.5 36.5t39.5 93.5q0 59 -35.5 90t-90.5 31q-125 0 -143 -133h-93q8 94 70.5 147t165.5 53q98 0 157 -50t59 -138q0 -53 -34 -98.5t-95 -61.5q76 -10 112.5 -58.5 t36.5 -108.5q0 -95 -68.5 -155t-166.5 -60q-116 0 -177 52t-66 148z" />
<glyph unicode="4" horiz-adv-x="556" d="M30 143v67l214 490h86l-214 -490h214v180h86v-180h100v-67h-100v-143h-86v143h-300z" />
<glyph unicode="5" horiz-adv-x="543" d="M50 165h93q12 -113 134 -113q62 0 99 43.5t37 129.5q0 93 -33 133t-95 40q-94 0 -142 -76h-76v378h395v-67h-319v-244q56 76 154 76q92 0 149 -60t57 -180q0 -113 -64.5 -176.5t-161.5 -63.5q-107 0 -164.5 46.5t-62.5 133.5z" />
<glyph unicode="6" horiz-adv-x="586" d="M50 310q0 194 69 299.5t191 105.5q93 0 145.5 -43t60.5 -117h-93q-18 93 -113 93q-74 0 -116.5 -65.5t-49.5 -212.5q73 85 178 85q98 0 156 -60.5t58 -174.5q0 -106 -70 -170.5t-169 -64.5q-122 0 -184.5 85.5t-62.5 239.5zM143 302q3 -250 154 -250q68 0 108.5 43.5 t40.5 124.5q0 82 -35 125t-101 43q-53 0 -96 -23.5t-71 -62.5z" />
<glyph unicode="7" horiz-adv-x="482" d="M40 633v67h412v-67l-252 -633h-84l257 633h-333z" />
<glyph unicode="8" horiz-adv-x="596" d="M50 186q0 66 38.5 114t102.5 63q-121 42 -121 162q0 89 62 139.5t166 50.5t166 -50.5t62 -139.5q0 -120 -121 -162q64 -15 102.5 -63t38.5 -114q0 -102 -68.5 -151.5t-179.5 -49.5t-179.5 50t-68.5 151zM140 186q0 -70 42.5 -102t115.5 -32t115.5 32t42.5 102 q0 64 -39.5 102t-118.5 38t-118.5 -38t-39.5 -102zM160 525q0 -60 33.5 -96t104.5 -36t104.5 36t33.5 96t-38 91.5t-100 31.5t-100 -31.5t-38 -91.5z" />
<glyph unicode="9" horiz-adv-x="586" d="M50 488q0 102 70 164.5t169 62.5q122 0 184.5 -85.5t62.5 -239.5q0 -197 -66.5 -301t-194.5 -104q-96 0 -152.5 47t-62.5 133h93q14 -113 122 -113q83 0 123.5 69t44.5 230q-32 -38 -79.5 -62t-99.5 -24q-98 0 -156 56.5t-58 166.5zM140 488q0 -156 136 -156 q105 0 167 85q-8 231 -154 231q-68 0 -108.5 -41.5t-40.5 -118.5z" />
<glyph unicode=":" horiz-adv-x="240" d="M60 45q0 26 17.5 43t42.5 17t42.5 -17t17.5 -43t-17.5 -43t-42.5 -17t-42.5 17t-17.5 43zM60 471q0 26 17.5 43t42.5 17t42.5 -17t17.5 -43t-17.5 -43t-42.5 -17t-42.5 17t-17.5 43z" />
<glyph unicode=";" horiz-adv-x="240" d="M60 -140l20 230h86l-35 -230h-71zM60 471q0 26 17.5 43t42.5 17t42.5 -17t17.5 -43t-17.5 -43t-42.5 -17t-42.5 17t-17.5 43z" />
<glyph unicode="&#x3c;" horiz-adv-x="560" d="M50 332v71l460 200v-69l-379 -165l379 -164v-73z" />
<glyph unicode="=" horiz-adv-x="560" d="M50 232v67h460v-67h-460zM50 432v67h460v-67h-460z" />
<glyph unicode="&#x3e;" horiz-adv-x="560" d="M50 132v69l379 165l-379 164v73l460 -200v-71z" />
<glyph unicode="?" horiz-adv-x="514" d="M40 520q4 89 65 142t158 53t154 -47t57 -131q0 -47 -16 -83.5t-39 -56.5t-49 -41t-45.5 -37.5t-29 -46.5t0.5 -67h-86q-10 47 -1 82t28.5 53.5t44.5 38t48 36.5t38.5 48.5t15.5 73.5q0 55 -33 83t-88 28q-52 0 -88 -31.5t-42 -96.5h-93zM193 45q0 26 17.5 43t42.5 17 t42.5 -17t17.5 -43t-17.5 -43t-42.5 -17t-42.5 17t-17.5 43z" />
<glyph unicode="@" horiz-adv-x="1052" d="M60 183q0 232 154 382t404 150q155 0 264.5 -96t109.5 -250q0 -76 -19 -140.5t-49.5 -108.5t-69 -75t-77 -45.5t-74.5 -14.5q-42 0 -67.5 19.5t-27.5 56.5q-85 -76 -176 -76q-62 0 -106 52.5t-44 154.5q0 70 16.5 127.5t44 96t64 65t75 38.5t77.5 12q35 0 67 -17t50 -44 l8 46h80l-72 -410q-5 -30 3.5 -46.5t26.5 -16.5q75 0 129.5 93t54.5 222q0 128 -81 213.5t-227 85.5q-191 0 -321 -130t-130 -328q0 -175 95.5 -269.5t254.5 -94.5q61 0 133.5 12.5t115.5 29.5l-10 -57q-47 -17 -122.5 -30t-141.5 -13q-82 0 -155 25.5t-131 74t-92 128 t-34 178.5zM369 202q0 -75 29.5 -112.5t68.5 -37.5q78 0 146 61v-1l54 306l-2 -10q-44 56 -115 56t-126 -65t-55 -197z" />
<glyph unicode="A" horiz-adv-x="626" d="M10 0l250 700h90l266 -700h-95l-72 198h-289l-66 -198h-84zM183 264h242l-86 237l-40 114l-37 -114z" />
<glyph unicode="B" horiz-adv-x="623" d="M90 0v700h217q63 0 113.5 -15t86.5 -56.5t36 -105.5q0 -56 -34 -102t-83 -59q61 -6 104 -44t43 -113q0 -96 -67.5 -150.5t-178.5 -54.5h-237zM176 67h151q156 0 156 138q0 114 -156 114h-151v-252zM176 386h131q69 0 107.5 35.5t38.5 99.5q0 61 -37 86.5t-109 25.5h-131 v-247z" />
<glyph unicode="C" horiz-adv-x="668" d="M50 350q0 166 81.5 265.5t217.5 99.5q110 0 180.5 -59t88.5 -176h-99q-24 168 -170 168q-89 0 -147.5 -75t-58.5 -223q0 -151 55.5 -224.5t150.5 -73.5q146 0 170 168h99q-18 -117 -88.5 -176t-180.5 -59q-141 0 -220 98.5t-79 266.5z" />
<glyph unicode="D" horiz-adv-x="703" d="M90 0v700h204q166 0 262.5 -93t96.5 -257t-96.5 -257t-262.5 -93h-204zM176 67h118q121 0 193.5 67.5t72.5 215.5t-72.5 215.5t-193.5 67.5h-118v-566z" />
<glyph unicode="E" horiz-adv-x="545" d="M90 0v700h405v-67h-319v-231h299v-67h-299v-268h319v-67h-405z" />
<glyph unicode="F" horiz-adv-x="525" d="M90 0v700h395v-67h-309v-252h289v-67h-289v-314h-86z" />
<glyph unicode="G" horiz-adv-x="674" d="M50 350q0 166 81.5 265.5t217.5 99.5q109 0 177.5 -57t86.5 -168h-99q-25 158 -165 158q-89 0 -147.5 -75t-58.5 -223q0 -147 58 -222.5t140 -75.5q105 0 187 86v145h-174v67h260v-350h-86v71q-35 -37 -89.5 -61.5t-109.5 -24.5q-134 0 -206.5 98t-72.5 267z" />
<glyph unicode="H" horiz-adv-x="723" d="M90 0v700h86v-298h371v298h86v-700h-86v335h-371v-335h-86z" />
<glyph unicode="I" horiz-adv-x="266" d="M90 0v700h86v-700h-86z" />
<glyph unicode="J" horiz-adv-x="559" d="M30 220h93q4 -91 36.5 -129.5t96.5 -38.5q137 0 137 130v518h86v-498q0 -107 -65.5 -162t-157.5 -55q-218 0 -226 235z" />
<glyph unicode="K" horiz-adv-x="607" d="M90 0v700h86v-700h-86zM176 365l266 335h97l-269 -325l307 -375h-113z" />
<glyph unicode="L" horiz-adv-x="520" d="M90 0v700h86v-633h284v-67h-370z" />
<glyph unicode="M" horiz-adv-x="865" d="M90 0v700h101l248 -609l251 609h85v-700h-85v442l2 90l-215 -532h-85l-226 552l2 -110v-442h-78z" />
<glyph unicode="N" horiz-adv-x="713" d="M90 0v700h98l359 -577l-2 110v467h78v-700h-98l-359 577l2 -110v-467h-78z" />
<glyph unicode="O" horiz-adv-x="740" d="M50 350q0 166 87 265.5t233 99.5t233 -99.5t87 -265.5t-87 -265.5t-233 -99.5t-233 99.5t-87 265.5zM143 350q0 -149 63.5 -223.5t163.5 -74.5t163.5 74.5t63.5 223.5t-63.5 223.5t-163.5 74.5t-163.5 -74.5t-63.5 -223.5z" />
<glyph unicode="P" horiz-adv-x="588" d="M90 0v700h212q102 0 174 -57t72 -163t-72 -163t-174 -57h-126v-260h-86zM176 327h126q72 0 114 38.5t42 114.5t-42 114.5t-114 38.5h-126v-306z" />
<glyph unicode="Q" horiz-adv-x="740" d="M50 350q0 166 87 265.5t233 99.5t233 -99.5t87 -265.5q0 -126 -51 -215t-143 -127l167 -159h-116l-139 138q-24 -2 -38 -2q-146 0 -233 99.5t-87 265.5zM143 350q0 -149 63.5 -223.5t163.5 -74.5t163.5 74.5t63.5 223.5t-63.5 223.5t-163.5 74.5t-163.5 -74.5 t-63.5 -223.5z" />
<glyph unicode="R" horiz-adv-x="610" d="M90 0v700h207q104 0 175 -52.5t71 -157.5q0 -85 -47.5 -135.5t-124.5 -66.5l209 -288h-108l-192 280h-104v-280h-86zM176 347h121q156 0 156 143t-156 143h-121v-286z" />
<glyph unicode="S" d="M50 205h93q12 -153 164 -153q66 0 111 35.5t45 99.5q0 29 -10.5 50.5t-24 34.5t-40.5 23.5t-44.5 15t-51.5 11.5q-33 7 -46.5 10t-44 12t-45 17.5t-37 23.5t-32.5 33t-18.5 44t-8.5 57q0 87 66.5 141.5t168.5 54.5q116 0 180.5 -54.5t68.5 -155.5h-93q-6 76 -45.5 109.5 t-110.5 33.5q-66 0 -107 -29t-41 -88q0 -29 10 -50.5t23 -34t39 -23t43 -15t51 -11.5q33 -7 46.5 -10t45 -12.5t46.5 -17.5t37.5 -23.5t33.5 -33t19.5 -44t8.5 -57.5q0 -92 -71 -153t-172 -61q-117 0 -185 56.5t-72 163.5z" />
<glyph unicode="T" horiz-adv-x="542" d="M30 633v67h482v-67h-198v-633h-86v633h-198z" />
<glyph unicode="U" horiz-adv-x="704" d="M80 227v473h86v-453q0 -96 41.5 -145.5t139.5 -49.5q97 0 143 47t46 128v473h78v-453q0 -122 -71.5 -192t-195.5 -70q-125 0 -196 64t-71 178z" />
<glyph unicode="V" horiz-adv-x="626" d="M10 700h95l182 -501l40 -114l37 114l168 501h84l-250 -700h-90z" />
<glyph unicode="W" horiz-adv-x="910" d="M10 700h95l125 -478l29 -114l30 114l129 478h95l135 -478l32 -118l27 118l111 478h82l-180 -700h-90l-138 476l-33 118l-31 -118l-132 -476h-90z" />
<glyph unicode="X" horiz-adv-x="579" d="M20 0l218 357l-214 343h97l165 -272l161 272h84l-203 -332l231 -368h-97l-182 298l-176 -298h-84z" />
<glyph unicode="Y" horiz-adv-x="590" d="M30 700h95l183 -373l169 373h83l-216 -445v-255h-86v255z" />
<glyph unicode="Z" horiz-adv-x="532" d="M40 0v67l357 566h-347v67h442v-67l-357 -566h357v-67h-452z" />
<glyph unicode="[" horiz-adv-x="330" d="M120 -125v950h190v-57h-104v-836h104v-57h-190z" />
<glyph unicode="\" horiz-adv-x="438" d="M20 740h83l315 -780h-83z" />
<glyph unicode="]" horiz-adv-x="330" d="M20 -68h104v836h-104v57h190v-950h-190v57z" />
<glyph unicode="^" horiz-adv-x="527" d="M50 300l178 400h71l178 -400h-77l-138 321l-139 -321h-73z" />
<glyph unicode="_" horiz-adv-x="500" d="M40 -15h420v-67h-420v67z" />
<glyph unicode="`" horiz-adv-x="309" d="M50 729h107l102 -148h-70z" />
<glyph unicode="a" horiz-adv-x="546" d="M50 120q0 69 58.5 117.5t189.5 48.5q35 0 88 -5v64q0 127 -105 127q-61 0 -90.5 -29.5t-32.5 -96.5h-87q1 88 55.5 136.5t154.5 48.5q80 0 132.5 -40.5t52.5 -135.5v-355h-80v67q-84 -82 -179 -82q-71 0 -114 37.5t-43 97.5zM133 132q0 -82 108 -82q37 0 77 21.5t68 51.5 v104q-41 4 -82 4q-171 0 -171 -99z" />
<glyph unicode="b" horiz-adv-x="579" d="M80 0v744h80v-285q70 72 168 72q83 0 142 -68.5t59 -204.5q0 -70 -20.5 -124.5t-54 -86t-73.5 -47t-83 -15.5q-86 0 -138 61v-46h-80zM160 108q53 -56 135 -56q59 0 103.5 50.5t44.5 155.5q0 106 -40 156t-98 50q-87 0 -145 -61v-295z" />
<glyph unicode="c" horiz-adv-x="532" d="M50 258q0 124 59 198.5t168 74.5q94 0 150.5 -47.5t64.5 -127.5h-89q-10 63 -39.5 89.5t-86.5 26.5q-63 0 -102 -53.5t-39 -160.5q0 -214 141 -214q57 0 86.5 26.5t39.5 89.5h89q-8 -80 -64.5 -127.5t-150.5 -47.5q-115 0 -171 73t-56 200z" />
<glyph unicode="d" horiz-adv-x="579" d="M50 258q0 70 20.5 124.5t54 86t73.5 47t83 15.5q86 0 138 -61v274h80v-744h-80v57q-70 -72 -168 -72q-83 0 -142 68.5t-59 204.5zM136 258q0 -106 40 -156t98 -50q87 0 145 61v295q-53 56 -135 56q-59 0 -103.5 -50.5t-44.5 -155.5z" />
<glyph unicode="e" horiz-adv-x="543" d="M50 258q0 122 60.5 197.5t162.5 75.5q111 -1 169 -75q50 -65 51 -172q0 -15 -1 -31h-356q1 -105 37 -157t100 -52q52 0 80.5 23t39.5 73h89q-9 -67 -64.5 -111t-144.5 -44q-111 0 -167 73.5t-56 199.5zM139 309h262q0 79 -34 121t-94 42q-53 0 -89 -41t-45 -122z" />
<glyph unicode="f" horiz-adv-x="350" d="M20 458v58h90v99q0 144 154 144q45 0 76 -16v-57q-44 11 -65 11q-85 0 -85 -82v-99h150v-58h-150v-458h-80v458h-90z" />
<glyph unicode="g" horiz-adv-x="579" d="M50 258q0 70 20.5 124.5t54 86t73.5 47t83 15.5q86 0 138 -61v46h80v-508q0 -112 -63.5 -171.5t-158.5 -59.5q-107 0 -161.5 44.5t-55.5 120.5h87q3 -54 33 -80t97 -26q142 0 142 162v59q-70 -72 -168 -72q-83 0 -142 68.5t-59 204.5zM136 258q0 -106 40 -156t98 -50 q87 0 145 61v295q-53 56 -135 56q-59 0 -103.5 -50.5t-44.5 -155.5z" />
<glyph unicode="h" horiz-adv-x="586" d="M80 0v744h80v-295q35 36 83.5 59t96.5 23q73 0 119.5 -42t46.5 -127v-362h-80v342q0 122 -109 122q-41 0 -85.5 -21t-71.5 -50v-393h-80z" />
<glyph unicode="i" horiz-adv-x="240" d="M64 660q0 22 16.5 38.5t39.5 16.5t39.5 -16.5t16.5 -38.5t-16.5 -38.5t-39.5 -16.5t-39.5 16.5t-16.5 38.5zM80 0v516h80v-516h-80z" />
<glyph unicode="j" horiz-adv-x="240" d="M64 660q0 22 16.5 38.5t39.5 16.5t39.5 -16.5t16.5 -38.5t-16.5 -38.5t-39.5 -16.5t-39.5 16.5t-16.5 38.5zM80 -208v724h80v-724h-80z" />
<glyph unicode="k" horiz-adv-x="495" d="M80 0v744h80v-744h-80zM160 275l221 241h91l-224 -234l247 -282h-103z" />
<glyph unicode="l" horiz-adv-x="240" d="M80 0v744h80v-744h-80z" />
<glyph unicode="m" horiz-adv-x="920" d="M80 0v516h80v-67q80 82 177 82q112 0 148 -87q84 87 192 87q73 0 118 -41.5t45 -127.5v-362h-80v342q0 62 -25.5 92t-80.5 30q-41 0 -83 -20.5t-73 -51.5q2 -20 2 -30v-362h-80v342q0 62 -25.5 92t-80.5 30q-41 0 -83.5 -21t-70.5 -50v-393h-80z" />
<glyph unicode="n" horiz-adv-x="586" d="M80 0v516h80v-67q35 36 83.5 59t96.5 23q73 0 119.5 -42t46.5 -127v-362h-80v342q0 122 -109 122q-41 0 -85.5 -21t-71.5 -50v-393h-80z" />
<glyph unicode="o" horiz-adv-x="582" d="M50 258q0 123 64 198t177 75t177 -75t64 -198t-64 -198t-177 -75t-177 75t-64 198zM136 258q0 -107 42.5 -160.5t112.5 -53.5t112.5 53.5t42.5 160.5t-42.5 160.5t-112.5 53.5t-112.5 -53.5t-42.5 -160.5z" />
<glyph unicode="p" horiz-adv-x="579" d="M80 -208v724h80v-57q70 72 168 72q83 0 142 -68.5t59 -204.5q0 -70 -20.5 -124.5t-54 -86t-73.5 -47t-83 -15.5q-86 0 -138 61v-254h-80zM160 108q53 -56 135 -56q59 0 103.5 50.5t44.5 155.5q0 106 -40 156t-98 50q-87 0 -145 -61v-295z" />
<glyph unicode="q" horiz-adv-x="579" d="M50 258q0 70 20.5 124.5t54 86t73.5 47t83 15.5q86 0 138 -61v46h80v-724h-80v265q-70 -72 -168 -72q-83 0 -142 68.5t-59 204.5zM136 258q0 -106 40 -156t98 -50q87 0 145 61v295q-53 56 -135 56q-59 0 -103.5 -50.5t-44.5 -155.5z" />
<glyph unicode="r" horiz-adv-x="391" d="M80 0v516h80v-89q66 104 149 104q38 0 62 -27v-64q-38 16 -68 16q-43 0 -81.5 -29.5t-61.5 -70.5v-356h-80z" />
<glyph unicode="s" horiz-adv-x="508" d="M50 144h87q3 -49 31.5 -74.5t96.5 -25.5q51 0 83 25t32 70q0 23 -11 39t-35 26t-40 14.5t-49 10.5q-22 4 -28.5 5t-28 6t-30 8.5t-26.5 10.5t-26 13.5t-20.5 17.5t-17.5 23t-9.5 28t-4.5 35q0 72 54 113.5t144 41.5q95 0 144 -38t50 -106h-87q-3 45 -29 65t-83 20 q-52 0 -83.5 -21t-31.5 -60q0 -19 8 -34t17.5 -23t31 -15.5t32.5 -10t38 -7.5q32 -6 44.5 -8.5t42.5 -10.5t44.5 -17.5t33 -24.5t26.5 -37t8 -49q0 -74 -55.5 -121.5t-142.5 -47.5q-107 0 -158 43t-52 116z" />
<glyph unicode="t" horiz-adv-x="380" d="M20 458v58h90v144h80v-144h150v-58h-150v-324q0 -86 72 -86q35 0 88 17v-57q-46 -23 -113 -23q-56 0 -91.5 33.5t-35.5 95.5v344h-90z" />
<glyph unicode="u" horiz-adv-x="582" d="M80 154v362h80v-342q0 -122 107 -122q41 0 84.5 21t70.5 50v393h80v-516h-80v67q-80 -82 -178 -82q-73 0 -118.5 42t-45.5 127z" />
<glyph unicode="v" horiz-adv-x="505" d="M20 516h92l111 -313l39 -114l38 114l107 313h78l-190 -516h-77z" />
<glyph unicode="w" horiz-adv-x="788" d="M20 516h90l96 -313l34 -114l31 114l89 313h76l95 -313l34 -114l32 114l93 313h78l-170 -516h-75l-93 295l-35 114l-33 -114l-87 -295h-77z" />
<glyph unicode="x" horiz-adv-x="502" d="M20 0l184 268l-172 248h92l124 -187l124 187h82l-164 -239l192 -277h-92l-145 216l-143 -216h-82z" />
<glyph unicode="y" horiz-adv-x="505" d="M20 516h92l108 -295l41 -114l40 114l106 295h78l-274 -724h-78l85 214z" />
<glyph unicode="z" horiz-adv-x="440" d="M40 0v58l273 400h-263v58h350v-58l-273 -400h273v-58h-360z" />
<glyph unicode="{" horiz-adv-x="370" d="M60 321v57q52 0 76 27t24 68v210q0 64 42 103t119 39h29v-57h-29q-37 0 -56 -24t-19 -51v-210q0 -47 -24.5 -85t-62.5 -48q38 -10 62.5 -48.5t24.5 -85.5v-209q0 -27 19 -51t56 -24h29v-57h-29q-77 0 -119 39t-42 103v209q0 41 -24 68t-76 27z" />
<glyph unicode="|" horiz-adv-x="258" d="M90 -160v980h78v-980h-78z" />
<glyph unicode="}" horiz-adv-x="370" d="M20 -68h29q37 0 56 24t19 51v209q0 47 24.5 85.5t62.5 48.5q-38 10 -62.5 48t-24.5 85v210q0 27 -19 51t-56 24h-29v57h29q77 0 119 -39t42 -103v-210q0 -41 24 -68t76 -27v-57q-52 0 -76 -27t-24 -68v-209q0 -64 -42 -103t-119 -39h-29v57z" />
<glyph unicode="~" horiz-adv-x="560" d="M30 326q34 66 70.5 92t80.5 26q41 0 78 -22.5t68.5 -45t57.5 -22.5q46 0 89 83l56 -32q-34 -66 -70.5 -92t-80.5 -26q-41 0 -78 22.5t-68.5 45t-57.5 22.5q-46 0 -89 -83z" />
<glyph unicode="&#xa1;" horiz-adv-x="320" d="M100 447q0 26 17.5 43t42.5 17t42.5 -17t17.5 -43t-17.5 -43t-42.5 -17t-42.5 17t-17.5 43zM112 -208l17 495h62l17 -495h-96z" />
<glyph unicode="&#xa2;" horiz-adv-x="532" d="M50 258q0 112 48.5 184.5t138.5 85.5v108h78v-107q78 -10 123.5 -55.5t53.5 -117.5h-89q-15 98 -88 113v-422q73 15 88 113h89q-8 -72 -53.5 -117.5t-123.5 -55.5v-107h-78v108q-94 12 -140.5 83.5t-46.5 186.5zM136 258q0 -181 101 -209v417q-101 -34 -101 -208z" />
<glyph unicode="&#xa3;" horiz-adv-x="560" d="M20 0v67h90v227h-90v67h90v148q0 96 58 151t147 55q95 0 153 -49t62 -141h-93q-12 123 -122 123q-51 0 -85 -30t-34 -97v-160h224v-67h-224v-227h324v-67h-500z" />
<glyph unicode="&#xa4;" horiz-adv-x="664" d="M50 120l86 86q-50 64 -50 154t50 154l-86 86l47 47l86 -86q63 47 149 47t149 -47l86 86l47 -47l-86 -86q50 -64 50 -154t-50 -154l86 -86l-47 -47l-86 86q-63 -47 -149 -47t-149 47l-86 -86zM172 360q0 -90 45 -139.5t115 -49.5t115 49.5t45 139.5t-45 139.5t-115 49.5 t-115 -49.5t-45 -139.5z" />
<glyph unicode="&#xa5;" horiz-adv-x="590" d="M30 700h95l180 -293l172 293h83l-206 -339h170v-67h-180v-133h180v-67h-180v-94h-86v94h-180v67h180v133h-180v67h170z" />
<glyph unicode="&#xa6;" horiz-adv-x="258" d="M90 -160v455h78v-455h-78zM90 420v400h78v-400h-78z" />
<glyph unicode="&#xa7;" horiz-adv-x="610" d="M50 351q0 81 87 141q-67 42 -67 132q0 82 66 131.5t169 49.5q116 0 180.5 -54.5t68.5 -155.5h-93q-6 76 -45.5 109.5t-110.5 33.5q-66 0 -107 -25.5t-41 -76.5q0 -28 10 -48t24 -31.5t40.5 -19.5t45.5 -11.5t54 -7.5q41 -5 67 -9.5t60 -16.5t53.5 -28.5t34 -46 t14.5 -68.5q0 -81 -87 -141q67 -42 67 -132q0 -82 -66 -131.5t-169 -49.5q-116 0 -180.5 54.5t-68.5 155.5h93q6 -76 45.5 -109.5t110.5 -33.5q66 0 107 25.5t41 76.5q0 28 -10 48t-24 31.5t-40.5 19.5t-45.5 11.5t-54 7.5q-41 5 -67 9.5t-60 16.5t-53.5 28.5t-34 46 t-14.5 68.5zM137 363q0 -31 12 -52t38 -32t48.5 -15.5t62.5 -9.5q82 -10 125 -24q21 17 35.5 48t14.5 59q0 31 -12 52t-38 32t-48.5 15.5t-62.5 9.5q-82 10 -125 23q-21 -16 -35.5 -47t-14.5 -59z" />
<glyph unicode="&#xa8;" horiz-adv-x="394" d="M50 660q0 22 16.5 38.5t39.5 16.5t39.5 -16.5t16.5 -38.5t-16.5 -38.5t-39.5 -16.5t-39.5 16.5t-16.5 38.5zM232 660q0 22 16.5 38.5t39.5 16.5t39.5 -16.5t16.5 -38.5t-16.5 -38.5t-39.5 -16.5t-39.5 16.5t-16.5 38.5z" />
<glyph unicode="&#xa9;" horiz-adv-x="830" d="M50 350q0 152 105 258.5t260 106.5t260 -106.5t105 -258.5t-105 -258.5t-260 -106.5t-260 106.5t-105 258.5zM117 350q0 -127 86.5 -216t211.5 -89t211.5 89t86.5 216t-86.5 216t-211.5 89t-211.5 -89t-86.5 -216zM230 350q0 97 50.5 155.5t131.5 58.5q66 0 110.5 -34.5 t55.5 -103.5h-71q-8 46 -30.5 66.5t-64.5 20.5q-51 0 -83 -41t-32 -122q0 -82 30.5 -123t84.5 -41q41 0 64 20.5t31 66.5h71q-11 -69 -55.5 -103.5t-110.5 -34.5q-84 0 -133 58t-49 157z" />
<glyph unicode="&#xaa;" horiz-adv-x="332" d="M30 515q0 95 147 95q21 0 51 -3v30q0 29 -16.5 43.5t-40.5 14.5q-60 0 -64 -58h-68q0 50 35.5 78t96.5 28q49 0 85 -24t36 -77v-202h-64v31q-47 -40 -104 -40q-45 0 -69.5 24t-24.5 60zM96 521q0 -39 51 -39q45 0 81 33v49q-28 3 -48 3q-84 0 -84 -46z" />
<glyph unicode="&#xab;" horiz-adv-x="550" d="M50 232v71l240 200v-93l-170 -141l170 -140v-97zM260 232v71l240 200v-93l-170 -141l170 -140v-97z" />
<glyph unicode="&#xac;" horiz-adv-x="560" d="M50 332v67h460v-264h-67v197h-393z" />
<glyph unicode="&#xad;" horiz-adv-x="340" d="M50 243v67h240v-67h-240z" />
<glyph unicode="&#xae;" horiz-adv-x="578" d="M50 477q0 100 68.5 169t170.5 69t170.5 -69t68.5 -169t-68.5 -169t-170.5 -69t-170.5 69t-68.5 169zM108 477q0 -77 52 -131.5t129 -54.5t129 54.5t52 131.5t-52 131.5t-129 54.5t-129 -54.5t-52 -131.5zM203 353v255h85q40 0 69.5 -19t29.5 -57q0 -30 -19 -48.5 t-48 -25.5l75 -105h-57l-71 102h-15v-102h-49zM252 496h36q48 0 48 36q0 35 -48 35h-36v-71z" />
<glyph unicode="&#xaf;" horiz-adv-x="390" d="M50 612v63h290v-63h-290z" />
<glyph unicode="&#xb0;" horiz-adv-x="428" d="M50 551q0 71 47 117.5t117 46.5t117 -46.5t47 -117.5t-47 -117.5t-117 -46.5t-117 46.5t-47 117.5zM117 551q0 -44 27 -72.5t70 -28.5t70 28.5t27 72.5t-27 72.5t-70 28.5t-70 -28.5t-27 -72.5z" />
<glyph unicode="&#xb1;" horiz-adv-x="560" d="M50 0v67h460v-67h-460zM50 332v67h196v196h67v-196h197v-67h-197v-197h-67v197h-196z" />
<glyph unicode="&#xb4;" horiz-adv-x="309" d="M50 581l102 148h107l-139 -148h-70z" />
<glyph unicode="&#xb5;" horiz-adv-x="582" d="M80 -208v724h80v-342q0 -122 107 -122q41 0 84.5 21t70.5 50v393h80v-516h-80v67q-80 -82 -178 -82q-48 0 -84 18v-211h-80z" />
<glyph unicode="&#xb6;" horiz-adv-x="668" d="M60 510q0 92 66 141t160 49h282v-700h-78v633h-80v-633h-78v320h-46q-94 0 -160 49t-66 141z" />
<glyph unicode="&#xb7;" horiz-adv-x="220" d="M50 365q0 26 17.5 43t42.5 17t42.5 -17t17.5 -43t-17.5 -43t-42.5 -17t-42.5 17t-17.5 43z" />
<glyph unicode="&#xb8;" horiz-adv-x="288" d="M50 -183q27 -13 65 -13q22 0 40 12t18 32t-17.5 31.5t-40.5 11.5q-26 0 -44 -6l-18 31l63 84h61l-50 -67q47 4 79 -17.5t32 -65.5t-35 -71t-82 -27q-42 0 -71 14v51z" />
<glyph unicode="&#xba;" horiz-adv-x="343" d="M20 587q0 70 41.5 113t110.5 43q68 0 109.5 -43t41.5 -113t-41.5 -113t-109.5 -43q-69 0 -110.5 43t-41.5 113zM88 587q0 -108 84 -108q40 0 62 27.5t22 80.5t-22 80.5t-62 27.5q-84 0 -84 -108z" />
<glyph unicode="&#xbb;" horiz-adv-x="550" d="M50 32v93l170 141l-170 140v97l240 -200v-71zM260 32v93l170 141l-170 140v97l240 -200v-71z" />
<glyph unicode="&#xbc;" horiz-adv-x="805" d="M50 580v67l102 53h74v-420h-74v353zM119 0l435 700h83l-435 -700h-83zM424 76v58l139 286h74l-140 -286h116v100h73v-100h69v-58h-69v-76h-73v76h-189z" />
<glyph unicode="&#xbd;" horiz-adv-x="835" d="M50 580v67l102 53h74v-420h-74v353zM119 0l435 700h83l-435 -700h-83zM480 294q2 64 43.5 99.5t110.5 35.5q66 0 107.5 -33t41.5 -96q0 -51 -37 -94.5t-138 -131.5l-21 -18h198v-56h-296v56q23 21 60.5 53t55 47.5t41.5 38.5t34.5 38t18.5 32.5t8 34.5q0 71 -73 71 q-67 0 -76 -77h-78z" />
<glyph unicode="&#xbe;" horiz-adv-x="898" d="M50 391h78q8 -62 88 -62q84 0 84 70q0 33 -25 51.5t-73 18.5h-55v58h55q85 0 85 64q0 60 -75 60q-69 0 -80 -62h-79q5 56 48 88t111 32t109.5 -32t41.5 -86q0 -31 -22 -56.5t-62 -34.5q49 -6 73 -35t24 -66q0 -56 -47.5 -92t-112.5 -36q-76 0 -120 32t-46 88zM212 0 l435 700h83l-435 -700h-83zM517 76v58l139 286h74l-140 -286h116v100h73v-100h69v-58h-69v-76h-73v76h-189z" />
<glyph unicode="&#xbf;" horiz-adv-x="514" d="M40 -45q0 47 16 83.5t39 56.5t49 41t45.5 37.5t29 46.5t-0.5 67h86q10 -47 1 -82t-28.5 -53.5t-44.5 -38t-48 -36.5t-38.5 -48.5t-15.5 -73.5q0 -55 33 -83t88 -28q52 0 88 31.5t42 96.5h93q-4 -89 -65 -142t-158 -53t-154 47t-57 131zM201 447q0 26 17.5 43t42.5 17 t42.5 -17t17.5 -43t-17.5 -43t-42.5 -17t-42.5 17t-17.5 43z" />
<glyph unicode="&#xc0;" horiz-adv-x="626" d="M10 0l250 700h90l266 -700h-95l-72 198h-289l-66 -198h-84zM149 891h117l132 -138h-80zM183 264h242l-86 237l-40 114l-37 -114z" />
<glyph unicode="&#xc1;" horiz-adv-x="626" d="M10 0l250 700h90l266 -700h-95l-72 198h-289l-66 -198h-84zM183 264h242l-86 237l-40 114l-37 -114zM209 753l132 138h117l-169 -138h-80z" />
<glyph unicode="&#xc2;" horiz-adv-x="626" d="M10 0l250 700h90l266 -700h-95l-72 198h-289l-66 -198h-84zM119 753l147 138h75l147 -138h-80l-105 70l-104 -70h-80zM183 264h242l-86 237l-40 114l-37 -114z" />
<glyph unicode="&#xc3;" horiz-adv-x="626" d="M10 0l250 700h90l266 -700h-95l-72 198h-289l-66 -198h-84zM130 796q19 44 47.5 66.5t59.5 22.5q29 0 78 -23.5t62 -23.5q33 0 55 43l45 -23q-18 -44 -46.5 -66.5t-59.5 -22.5q-28 0 -77.5 23.5t-63.5 23.5q-32 0 -55 -43zM183 264h242l-86 237l-40 114l-37 -114z" />
<glyph unicode="&#xc4;" horiz-adv-x="626" d="M10 0l250 700h90l266 -700h-95l-72 198h-289l-66 -198h-84zM141 825q0 22 16.5 38.5t39.5 16.5t39.5 -16.5t16.5 -38.5t-16.5 -38.5t-39.5 -16.5t-39.5 16.5t-16.5 38.5zM183 264h242l-86 237l-40 114l-37 -114zM353 825q0 22 16.5 38.5t39.5 16.5t39.5 -16.5t16.5 -38.5 t-16.5 -38.5t-39.5 -16.5t-39.5 16.5t-16.5 38.5z" />
<glyph unicode="&#xc5;" horiz-adv-x="626" d="M10 0l250 700h90l266 -700h-95l-72 198h-289l-66 -198h-84zM183 264h242l-86 237l-40 114l-37 -114zM195 820q0 44 30.5 69.5t77.5 25.5t77.5 -25.5t30.5 -69.5t-30.5 -69.5t-77.5 -25.5t-77.5 25.5t-30.5 69.5zM255 820q0 -24 13 -36.5t35 -12.5t35 12.5t13 36.5 t-13 36.5t-35 12.5t-35 -12.5t-13 -36.5z" />
<glyph unicode="&#xc6;" horiz-adv-x="935" d="M10 0l470 700h405v-67h-319v-231h299v-67h-299v-268h319v-67h-405v198h-245l-131 -198h-94zM278 264h202v311l-72 -114z" />
<glyph unicode="&#xc7;" horiz-adv-x="668" d="M50 350q0 166 81.5 265.5t217.5 99.5q110 0 180.5 -59t88.5 -176h-99q-24 168 -170 168q-89 0 -147.5 -75t-58.5 -223q0 -151 55.5 -224.5t150.5 -73.5q146 0 170 168h99q-18 -115 -86.5 -174t-175.5 -61l-39 -52q47 4 79 -17.5t32 -65.5t-35 -71t-82 -27q-42 0 -71 14 v51q27 -13 65 -13q22 0 40 12t18 32t-17.5 31.5t-40.5 11.5q-26 0 -44 -6l-18 31l55 73q-118 18 -183 114t-65 247z" />
<glyph unicode="&#xc8;" horiz-adv-x="545" d="M90 0v700h405v-67h-319v-231h299v-67h-299v-268h319v-67h-405zM118 891h117l132 -138h-80z" />
<glyph unicode="&#xc9;" horiz-adv-x="545" d="M90 0v700h405v-67h-319v-231h299v-67h-299v-268h319v-67h-405zM188 753l132 138h117l-169 -138h-80z" />
<glyph unicode="&#xca;" horiz-adv-x="545" d="M90 0v700h405v-67h-319v-231h299v-67h-299v-268h319v-67h-405zM108 753l147 138h75l147 -138h-80l-105 70l-104 -70h-80z" />
<glyph unicode="&#xcb;" horiz-adv-x="545" d="M90 0v700h405v-67h-319v-231h299v-67h-299v-268h319v-67h-405zM130 825q0 22 16.5 38.5t39.5 16.5t39.5 -16.5t16.5 -38.5t-16.5 -38.5t-39.5 -16.5t-39.5 16.5t-16.5 38.5zM342 825q0 22 16.5 38.5t39.5 16.5t39.5 -16.5t16.5 -38.5t-16.5 -38.5t-39.5 -16.5t-39.5 16.5 t-16.5 38.5z" />
<glyph unicode="&#xcc;" horiz-adv-x="266" d="M-71 891h117l132 -138h-80zM90 0v700h86v-700h-86z" />
<glyph unicode="&#xcd;" horiz-adv-x="266" d="M49 753l132 138h117l-169 -138h-80zM90 0v700h86v-700h-86z" />
<glyph unicode="&#xce;" horiz-adv-x="266" d="M-51 753l147 138h75l147 -138h-80l-105 70l-104 -70h-80zM90 0v700h86v-700h-86z" />
<glyph unicode="&#xcf;" horiz-adv-x="266" d="M6 825q0 22 16.5 38.5t39.5 16.5t39.5 -16.5t16.5 -38.5t-16.5 -38.5t-39.5 -16.5t-39.5 16.5t-16.5 38.5zM90 0v700h86v-700h-86zM148 825q0 22 16.5 38.5t39.5 16.5t39.5 -16.5t16.5 -38.5t-16.5 -38.5t-39.5 -16.5t-39.5 16.5t-16.5 38.5z" />
<glyph unicode="&#xd0;" horiz-adv-x="703" d="M-20 314v67h110v319h204q166 0 262.5 -93t96.5 -257t-96.5 -257t-262.5 -93h-204v314h-110zM176 67h118q121 0 193.5 67.5t72.5 215.5t-72.5 215.5t-193.5 67.5h-118v-252h150v-67h-150v-247z" />
<glyph unicode="&#xd1;" horiz-adv-x="713" d="M90 0v700h98l359 -577l-2 110v467h78v-700h-98l-359 577l2 -110v-467h-78zM183 796q19 44 47.5 66.5t59.5 22.5q28 0 77 -23.5t63 -23.5q34 0 55 43l45 -23q-18 -44 -46.5 -66.5t-59.5 -22.5q-28 0 -77.5 23.5t-63.5 23.5q-32 0 -55 -43z" />
<glyph unicode="&#xd2;" horiz-adv-x="740" d="M50 350q0 166 87 265.5t233 99.5t233 -99.5t87 -265.5t-87 -265.5t-233 -99.5t-233 99.5t-87 265.5zM143 350q0 -149 63.5 -223.5t163.5 -74.5t163.5 74.5t63.5 223.5t-63.5 223.5t-163.5 74.5t-163.5 -74.5t-63.5 -223.5zM216 891h117l132 -138h-80z" />
<glyph unicode="&#xd3;" horiz-adv-x="740" d="M50 350q0 166 87 265.5t233 99.5t233 -99.5t87 -265.5t-87 -265.5t-233 -99.5t-233 99.5t-87 265.5zM143 350q0 -149 63.5 -223.5t163.5 -74.5t163.5 74.5t63.5 223.5t-63.5 223.5t-163.5 74.5t-163.5 -74.5t-63.5 -223.5zM276 753l132 138h117l-169 -138h-80z" />
<glyph unicode="&#xd4;" horiz-adv-x="740" d="M50 350q0 166 87 265.5t233 99.5t233 -99.5t87 -265.5t-87 -265.5t-233 -99.5t-233 99.5t-87 265.5zM143 350q0 -149 63.5 -223.5t163.5 -74.5t163.5 74.5t63.5 223.5t-63.5 223.5t-163.5 74.5t-163.5 -74.5t-63.5 -223.5zM186 753l147 138h75l147 -138h-80l-105 70 l-104 -70h-80z" />
<glyph unicode="&#xd5;" horiz-adv-x="740" d="M50 350q0 166 87 265.5t233 99.5t233 -99.5t87 -265.5t-87 -265.5t-233 -99.5t-233 99.5t-87 265.5zM143 350q0 -149 63.5 -223.5t163.5 -74.5t163.5 74.5t63.5 223.5t-63.5 223.5t-163.5 74.5t-163.5 -74.5t-63.5 -223.5zM197 796q19 44 47.5 66.5t59.5 22.5 q28 0 77 -23.5t63 -23.5q34 0 55 43l45 -23q-18 -44 -46.5 -66.5t-59.5 -22.5q-28 0 -77.5 23.5t-63.5 23.5q-32 0 -55 -43z" />
<glyph unicode="&#xd6;" horiz-adv-x="740" d="M50 350q0 166 87 265.5t233 99.5t233 -99.5t87 -265.5t-87 -265.5t-233 -99.5t-233 99.5t-87 265.5zM143 350q0 -149 63.5 -223.5t163.5 -74.5t163.5 74.5t63.5 223.5t-63.5 223.5t-163.5 74.5t-163.5 -74.5t-63.5 -223.5zM208 825q0 22 16.5 38.5t39.5 16.5t39.5 -16.5 t16.5 -38.5t-16.5 -38.5t-39.5 -16.5t-39.5 16.5t-16.5 38.5zM420 825q0 22 16.5 38.5t39.5 16.5t39.5 -16.5t16.5 -38.5t-16.5 -38.5t-39.5 -16.5t-39.5 16.5t-16.5 38.5z" />
<glyph unicode="&#xd7;" horiz-adv-x="512" d="M72 205l160 160l-160 160l47 47l160 -160l161 161l47 -47l-161 -161l161 -161l-47 -47l-161 161l-160 -160z" />
<glyph unicode="&#xd8;" horiz-adv-x="740" d="M50 350q0 166 87 265.5t233 99.5q77 0 140 -29l57 104h86l-79 -145q116 -100 116 -295q0 -166 -87 -265.5t-233 -99.5q-77 0 -140 29l-57 -104h-86l79 145q-116 100 -116 295zM143 350q0 -144 63 -222l269 494q-45 26 -105 26q-100 0 -163.5 -74.5t-63.5 -223.5zM265 78 q45 -26 105 -26q100 0 163.5 74.5t63.5 223.5q0 144 -63 222z" />
<glyph unicode="&#xd9;" horiz-adv-x="704" d="M80 227v473h86v-453q0 -96 41.5 -145.5t139.5 -49.5q97 0 143 47t46 128v473h78v-453q0 -122 -71.5 -192t-195.5 -70q-125 0 -196 64t-71 178zM203 891h117l132 -138h-80z" />
<glyph unicode="&#xda;" horiz-adv-x="704" d="M80 227v473h86v-453q0 -96 41.5 -145.5t139.5 -49.5q97 0 143 47t46 128v473h78v-453q0 -122 -71.5 -192t-195.5 -70q-125 0 -196 64t-71 178zM243 753l132 138h117l-169 -138h-80z" />
<glyph unicode="&#xdb;" horiz-adv-x="704" d="M80 227v473h86v-453q0 -96 41.5 -145.5t139.5 -49.5q97 0 143 47t46 128v473h78v-453q0 -122 -71.5 -192t-195.5 -70q-125 0 -196 64t-71 178zM163 753l147 138h75l147 -138h-80l-105 70l-104 -70h-80z" />
<glyph unicode="&#xdc;" horiz-adv-x="704" d="M80 227v473h86v-453q0 -96 41.5 -145.5t139.5 -49.5q97 0 143 47t46 128v473h78v-453q0 -122 -71.5 -192t-195.5 -70q-125 0 -196 64t-71 178zM185 825q0 22 16.5 38.5t39.5 16.5t39.5 -16.5t16.5 -38.5t-16.5 -38.5t-39.5 -16.5t-39.5 16.5t-16.5 38.5zM397 825 q0 22 16.5 38.5t39.5 16.5t39.5 -16.5t16.5 -38.5t-16.5 -38.5t-39.5 -16.5t-39.5 16.5t-16.5 38.5z" />
<glyph unicode="&#xdd;" horiz-adv-x="590" d="M30 700h95l183 -373l169 373h83l-216 -445v-255h-86v255zM191 753l132 138h117l-169 -138h-80z" />
<glyph unicode="&#xde;" horiz-adv-x="588" d="M90 0v700h86v-120h126q102 0 174 -57t72 -163t-72 -163t-174 -57h-126v-140h-86zM176 207h126q72 0 114 38.5t42 114.5t-42 114.5t-114 38.5h-126v-306z" />
<glyph unicode="&#xdf;" horiz-adv-x="618" d="M80 0v505q0 120 69 187t166 67q81 0 134.5 -34t53.5 -105q0 -34 -18.5 -66t-40 -52t-40 -45t-18.5 -46q0 -25 21 -46t50.5 -38.5t59 -38.5t50.5 -55t21 -79q0 -72 -52 -120.5t-124 -48.5q-91 0 -135 43t-45 116h87q3 -49 25.5 -74.5t72.5 -25.5q37 0 65 25.5t28 69.5 q0 39 -21 67.5t-50.5 47l-59 37t-50.5 47.5t-21 68q0 28 18.5 56.5t40 49t40 47.5t18.5 51q0 42 -28 66t-82 24q-64 0 -109.5 -48.5t-45.5 -146.5v-505h-80z" />
<glyph unicode="&#xe0;" horiz-adv-x="546" d="M50 120q0 69 58.5 117.5t189.5 48.5q35 0 88 -5v64q0 127 -105 127q-61 0 -90.5 -29.5t-32.5 -96.5h-87q1 88 55.5 136.5t154.5 48.5q80 0 132.5 -40.5t52.5 -135.5v-355h-80v67q-84 -82 -179 -82q-71 0 -114 37.5t-43 97.5zM133 132q0 -82 108 -82q37 0 77 21.5t68 51.5 v104q-41 4 -82 4q-171 0 -171 -99zM144 729h107l102 -148h-70z" />
<glyph unicode="&#xe1;" horiz-adv-x="546" d="M50 120q0 69 58.5 117.5t189.5 48.5q35 0 88 -5v64q0 127 -105 127q-61 0 -90.5 -29.5t-32.5 -96.5h-87q1 88 55.5 136.5t154.5 48.5q80 0 132.5 -40.5t52.5 -135.5v-355h-80v67q-84 -82 -179 -82q-71 0 -114 37.5t-43 97.5zM133 132q0 -82 108 -82q37 0 77 21.5t68 51.5 v104q-41 4 -82 4q-171 0 -171 -99zM194 581l102 148h107l-139 -148h-70z" />
<glyph unicode="&#xe2;" horiz-adv-x="546" d="M50 120q0 69 58.5 117.5t189.5 48.5q35 0 88 -5v64q0 127 -105 127q-61 0 -90.5 -29.5t-32.5 -96.5h-87q1 88 55.5 136.5t154.5 48.5q80 0 132.5 -40.5t52.5 -135.5v-355h-80v67q-84 -82 -179 -82q-71 0 -114 37.5t-43 97.5zM119 581l107 148h94l107 -148h-70l-84 90 l-84 -90h-70zM133 132q0 -82 108 -82q37 0 77 21.5t68 51.5v104q-41 4 -82 4q-171 0 -171 -99z" />
<glyph unicode="&#xe3;" horiz-adv-x="546" d="M50 120q0 69 58.5 117.5t189.5 48.5q35 0 88 -5v64q0 127 -105 127q-61 0 -90.5 -29.5t-32.5 -96.5h-87q1 88 55.5 136.5t154.5 48.5q80 0 132.5 -40.5t52.5 -135.5v-355h-80v67q-84 -82 -179 -82q-71 0 -114 37.5t-43 97.5zM110 618q18 43 48.5 66t58.5 23 q29 0 69 -23.5t53 -23.5q31 0 53 43l45 -23q-17 -43 -47.5 -66t-58.5 -23t-68.5 23.5t-54.5 23.5q-30 0 -53 -43zM133 132q0 -82 108 -82q37 0 77 21.5t68 51.5v104q-41 4 -82 4q-171 0 -171 -99z" />
<glyph unicode="&#xe4;" horiz-adv-x="546" d="M50 120q0 69 58.5 117.5t189.5 48.5q35 0 88 -5v64q0 127 -105 127q-61 0 -90.5 -29.5t-32.5 -96.5h-87q1 88 55.5 136.5t154.5 48.5q80 0 132.5 -40.5t52.5 -135.5v-355h-80v67q-84 -82 -179 -82q-71 0 -114 37.5t-43 97.5zM126 660q0 22 16.5 38.5t39.5 16.5 t39.5 -16.5t16.5 -38.5t-16.5 -38.5t-39.5 -16.5t-39.5 16.5t-16.5 38.5zM133 132q0 -82 108 -82q37 0 77 21.5t68 51.5v104q-41 4 -82 4q-171 0 -171 -99zM308 660q0 22 16.5 38.5t39.5 16.5t39.5 -16.5t16.5 -38.5t-16.5 -38.5t-39.5 -16.5t-39.5 16.5t-16.5 38.5z" />
<glyph unicode="&#xe5;" horiz-adv-x="546" d="M50 120q0 69 58.5 117.5t189.5 48.5q35 0 88 -5v64q0 127 -105 127q-61 0 -90.5 -29.5t-32.5 -96.5h-87q1 88 55.5 136.5t154.5 48.5q80 0 132.5 -40.5t52.5 -135.5v-355h-80v67q-84 -82 -179 -82q-71 0 -114 37.5t-43 97.5zM133 132q0 -82 108 -82q37 0 77 21.5t68 51.5 v104q-41 4 -82 4q-171 0 -171 -99zM165 655q0 44 30.5 69.5t77.5 25.5t77.5 -25.5t30.5 -69.5t-30.5 -69.5t-77.5 -25.5t-77.5 25.5t-30.5 69.5zM225 655q0 -24 13 -36.5t35 -12.5t35 12.5t13 36.5t-13 36.5t-35 12.5t-35 -12.5t-13 -36.5z" />
<glyph unicode="&#xe6;" horiz-adv-x="879" d="M50 120q0 69 58.5 117.5t189.5 48.5q35 0 88 -5v64q0 127 -105 127q-61 0 -90.5 -29.5t-32.5 -96.5h-87q1 88 55.5 136.5t154.5 48.5q120 0 163 -79q62 79 165 79q112 0 169.5 -74.5t49.5 -203.5h-356q1 -106 37 -157.5t100 -51.5q52 0 80.5 23t39.5 73h89 q-9 -67 -64.5 -111t-144.5 -44q-135 0 -189 110q-39 -49 -94 -79.5t-119 -30.5q-71 0 -114 37.5t-43 97.5zM133 132q0 -41 26 -61.5t72 -20.5q47 0 93 27.5t77 65.5q-11 33 -14 84q-41 4 -83 4q-171 0 -171 -99zM475 309h262q0 79 -34 121t-94 42q-52 0 -88.5 -41 t-45.5 -122z" />
<glyph unicode="&#xe7;" horiz-adv-x="532" d="M50 258q0 124 59 198.5t168 74.5q94 0 150.5 -47.5t64.5 -127.5h-89q-10 63 -39.5 89.5t-86.5 26.5q-63 0 -102 -53.5t-39 -160.5q0 -214 141 -214q57 0 86.5 26.5t39.5 89.5h89q-8 -77 -60 -124t-139 -51l-39 -52q47 4 79 -17.5t32 -65.5t-35 -71t-82 -27q-42 0 -71 14 v51q27 -13 65 -13q22 0 40 12t18 32t-17.5 31.5t-40.5 11.5q-26 0 -44 -6l-18 31l54 72q-93 14 -138.5 85t-45.5 185z" />
<glyph unicode="&#xe8;" horiz-adv-x="543" d="M50 258q0 122 60.5 197.5t162.5 75.5q112 0 169.5 -74.5t49.5 -203.5h-356q1 -105 37 -157t100 -52q52 0 80.5 23t39.5 73h89q-9 -67 -64.5 -111t-144.5 -44q-111 0 -167 73.5t-56 199.5zM127 729h107l102 -148h-70zM139 309h262q0 79 -34 121t-94 42q-53 0 -89 -41 t-45 -122z" />
<glyph unicode="&#xe9;" horiz-adv-x="543" d="M50 258q0 122 60.5 197.5t162.5 75.5q112 0 169.5 -74.5t49.5 -203.5h-356q1 -105 37 -157t100 -52q52 0 80.5 23t39.5 73h89q-9 -67 -64.5 -111t-144.5 -44q-111 0 -167 73.5t-56 199.5zM139 309h262q0 79 -34 121t-94 42q-53 0 -89 -41t-45 -122zM192 581l102 148h107 l-139 -148h-70z" />
<glyph unicode="&#xea;" horiz-adv-x="543" d="M50 258q0 122 60.5 197.5t162.5 75.5q112 0 169.5 -74.5t49.5 -203.5h-356q1 -105 37 -157t100 -52q52 0 80.5 23t39.5 73h89q-9 -67 -64.5 -111t-144.5 -44q-111 0 -167 73.5t-56 199.5zM122 581l107 148h94l107 -148h-70l-84 90l-84 -90h-70zM139 309h262q0 79 -34 121 t-94 42q-53 0 -89 -41t-45 -122z" />
<glyph unicode="&#xeb;" horiz-adv-x="543" d="M50 258q0 122 60.5 197.5t162.5 75.5q112 0 169.5 -74.5t49.5 -203.5h-356q1 -105 37 -157t100 -52q52 0 80.5 23t39.5 73h89q-9 -67 -64.5 -111t-144.5 -44q-111 0 -167 73.5t-56 199.5zM129 660q0 22 16.5 38.5t39.5 16.5t39.5 -16.5t16.5 -38.5t-16.5 -38.5 t-39.5 -16.5t-39.5 16.5t-16.5 38.5zM139 309h262q0 79 -34 121t-94 42q-53 0 -89 -41t-45 -122zM311 660q0 22 16.5 38.5t39.5 16.5t39.5 -16.5t16.5 -38.5t-16.5 -38.5t-39.5 -16.5t-39.5 16.5t-16.5 38.5z" />
<glyph unicode="&#xec;" horiz-adv-x="240" d="M-54 729h107l102 -148h-70zM80 0v516h80v-516h-80z" />
<glyph unicode="&#xed;" horiz-adv-x="240" d="M76 581l102 148h107l-139 -148h-70zM80 0v516h80v-516h-80z" />
<glyph unicode="&#xee;" horiz-adv-x="240" d="M-34 581l107 148h94l107 -148h-70l-84 90l-84 -90h-70zM80 0v516h80v-516h-80z" />
<glyph unicode="&#xef;" horiz-adv-x="240" d="M-7 660q0 22 16.5 38.5t39.5 16.5t39.5 -16.5t16.5 -38.5t-16.5 -38.5t-39.5 -16.5t-39.5 16.5t-16.5 38.5zM80 0v516h80v-516h-80zM135 660q0 22 16.5 38.5t39.5 16.5t39.5 -16.5t16.5 -38.5t-16.5 -38.5t-39.5 -16.5t-39.5 16.5t-16.5 38.5z" />
<glyph unicode="&#xf0;" horiz-adv-x="577" d="M50 244q0 115 62.5 191t171.5 76q60 0 111 -35q-37 73 -104 140l-134 -53l-34 49l121 48q-51 42 -116 84h110q37 -24 76 -57l119 47l34 -49l-105 -41q165 -167 165 -370q0 -129 -61 -209t-171 -80q-113 0 -179 70.5t-66 188.5zM136 245q0 -52 13.5 -95t50.5 -74.5 t94 -31.5q69 0 110 53t41 161q0 73 -18 136q-57 59 -139 59q-67 0 -109.5 -55.5t-42.5 -152.5z" />
<glyph unicode="&#xf1;" horiz-adv-x="586" d="M80 0v516h80v-67q35 36 83.5 59t96.5 23q73 0 119.5 -42t46.5 -127v-362h-80v342q0 122 -109 122q-41 0 -85.5 -21t-71.5 -50v-393h-80zM120 618q18 43 48.5 66t58.5 23q29 0 69 -23.5t53 -23.5q31 0 53 43l45 -23q-17 -43 -47.5 -66t-58.5 -23t-68.5 23.5t-54.5 23.5 q-30 0 -53 -43z" />
<glyph unicode="&#xf2;" horiz-adv-x="582" d="M50 258q0 123 64 198t177 75t177 -75t64 -198t-64 -198t-177 -75t-177 75t-64 198zM136 258q0 -107 42.5 -160.5t112.5 -53.5t112.5 53.5t42.5 160.5t-42.5 160.5t-112.5 53.5t-112.5 -53.5t-42.5 -160.5zM167 729h107l102 -148h-70z" />
<glyph unicode="&#xf3;" horiz-adv-x="582" d="M50 258q0 123 64 198t177 75t177 -75t64 -198t-64 -198t-177 -75t-177 75t-64 198zM136 258q0 -107 42.5 -160.5t112.5 -53.5t112.5 53.5t42.5 160.5t-42.5 160.5t-112.5 53.5t-112.5 -53.5t-42.5 -160.5zM207 581l102 148h107l-139 -148h-70z" />
<glyph unicode="&#xf4;" horiz-adv-x="582" d="M50 258q0 123 64 198t177 75t177 -75t64 -198t-64 -198t-177 -75t-177 75t-64 198zM136 258q0 -107 42.5 -160.5t112.5 -53.5t112.5 53.5t42.5 160.5t-42.5 160.5t-112.5 53.5t-112.5 -53.5t-42.5 -160.5zM137 581l107 148h94l107 -148h-70l-84 90l-84 -90h-70z" />
<glyph unicode="&#xf5;" horiz-adv-x="582" d="M50 258q0 123 64 198t177 75t177 -75t64 -198t-64 -198t-177 -75t-177 75t-64 198zM128 618q18 43 48.5 66t58.5 23q29 0 69 -23.5t53 -23.5q31 0 53 43l45 -23q-17 -43 -47.5 -66t-58.5 -23t-68.5 23.5t-54.5 23.5q-30 0 -53 -43zM136 258q0 -107 42.5 -160.5 t112.5 -53.5t112.5 53.5t42.5 160.5t-42.5 160.5t-112.5 53.5t-112.5 -53.5t-42.5 -160.5z" />
<glyph unicode="&#xf6;" horiz-adv-x="582" d="M50 258q0 123 64 198t177 75t177 -75t64 -198t-64 -198t-177 -75t-177 75t-64 198zM136 258q0 -107 42.5 -160.5t112.5 -53.5t112.5 53.5t42.5 160.5t-42.5 160.5t-112.5 53.5t-112.5 -53.5t-42.5 -160.5zM144 660q0 22 16.5 38.5t39.5 16.5t39.5 -16.5t16.5 -38.5 t-16.5 -38.5t-39.5 -16.5t-39.5 16.5t-16.5 38.5zM326 660q0 22 16.5 38.5t39.5 16.5t39.5 -16.5t16.5 -38.5t-16.5 -38.5t-39.5 -16.5t-39.5 16.5t-16.5 38.5z" />
<glyph unicode="&#xf7;" horiz-adv-x="560" d="M50 332v67h460v-67h-460zM224 177q0 22 16.5 38.5t39.5 16.5t39.5 -16.5t16.5 -38.5t-16.5 -38.5t-39.5 -16.5t-39.5 16.5t-16.5 38.5zM224 554q0 22 16.5 38.5t39.5 16.5t39.5 -16.5t16.5 -38.5t-16.5 -38.5t-39.5 -16.5t-39.5 16.5t-16.5 38.5z" />
<glyph unicode="&#xf8;" horiz-adv-x="582" d="M50 258q0 123 64 198t177 75q61 0 109 -23l51 88h74l-72 -124q79 -74 79 -214q0 -123 -64 -198t-177 -75q-61 0 -109 23l-51 -88h-74l72 124q-79 74 -79 214zM136 258q0 -93 33 -146l198 340q-31 20 -76 20q-70 0 -112.5 -53.5t-42.5 -160.5zM215 64q31 -20 76 -20 q70 0 112.5 53.5t42.5 160.5q0 93 -33 146z" />
<glyph unicode="&#xf9;" horiz-adv-x="582" d="M80 154v362h80v-342q0 -122 107 -122q41 0 84.5 21t70.5 50v393h80v-516h-80v67q-80 -82 -178 -82q-73 0 -118.5 42t-45.5 127zM157 729h107l102 -148h-70z" />
<glyph unicode="&#xfa;" horiz-adv-x="582" d="M80 154v362h80v-342q0 -122 107 -122q41 0 84.5 21t70.5 50v393h80v-516h-80v67q-80 -82 -178 -82q-73 0 -118.5 42t-45.5 127zM217 581l102 148h107l-139 -148h-70z" />
<glyph unicode="&#xfb;" horiz-adv-x="582" d="M80 154v362h80v-342q0 -122 107 -122q41 0 84.5 21t70.5 50v393h80v-516h-80v67q-80 -82 -178 -82q-73 0 -118.5 42t-45.5 127zM137 581l107 148h94l107 -148h-70l-84 90l-84 -90h-70z" />
<glyph unicode="&#xfc;" horiz-adv-x="582" d="M80 154v362h80v-342q0 -122 107 -122q41 0 84.5 21t70.5 50v393h80v-516h-80v67q-80 -82 -178 -82q-73 0 -118.5 42t-45.5 127zM144 660q0 22 16.5 38.5t39.5 16.5t39.5 -16.5t16.5 -38.5t-16.5 -38.5t-39.5 -16.5t-39.5 16.5t-16.5 38.5zM326 660q0 22 16.5 38.5 t39.5 16.5t39.5 -16.5t16.5 -38.5t-16.5 -38.5t-39.5 -16.5t-39.5 16.5t-16.5 38.5z" />
<glyph unicode="&#xfd;" horiz-adv-x="505" d="M20 516h92l108 -295l41 -114l40 114l106 295h78l-274 -724h-78l85 214zM178 581l102 148h107l-139 -148h-70z" />
<glyph unicode="&#xfe;" horiz-adv-x="579" d="M80 -208v952h80v-285q70 72 168 72q83 0 142 -68.5t59 -204.5q0 -70 -20.5 -124.5t-54 -86t-73.5 -47t-83 -15.5q-86 0 -138 61v-254h-80zM160 108q53 -56 135 -56q59 0 103.5 50.5t44.5 155.5q0 106 -40 156t-98 50q-87 0 -145 -61v-295z" />
<glyph unicode="&#xff;" horiz-adv-x="505" d="M20 516h92l108 -295l41 -114l40 114l106 295h78l-274 -724h-78l85 214zM115 660q0 22 16.5 38.5t39.5 16.5t39.5 -16.5t16.5 -38.5t-16.5 -38.5t-39.5 -16.5t-39.5 16.5t-16.5 38.5zM297 660q0 22 16.5 38.5t39.5 16.5t39.5 -16.5t16.5 -38.5t-16.5 -38.5t-39.5 -16.5 t-39.5 16.5t-16.5 38.5z" />
<glyph unicode="&#x100;" horiz-adv-x="626" d="M10 0l250 700h90l266 -700h-95l-72 198h-289l-66 -198h-84zM148 787v63h310v-63h-310zM183 264h242l-86 237l-40 114l-37 -114z" />
<glyph unicode="&#x101;" horiz-adv-x="546" d="M50 120q0 69 58.5 117.5t189.5 48.5q35 0 88 -5v64q0 127 -105 127q-61 0 -90.5 -29.5t-32.5 -96.5h-87q1 88 55.5 136.5t154.5 48.5q80 0 132.5 -40.5t52.5 -135.5v-355h-80v67q-84 -82 -179 -82q-71 0 -114 37.5t-43 97.5zM128 612v63h290v-63h-290zM133 132 q0 -82 108 -82q37 0 77 21.5t68 51.5v104q-41 4 -82 4q-171 0 -171 -99z" />
<glyph unicode="&#x102;" horiz-adv-x="626" d="M10 0l250 700h90l266 -700h-95l-72 198h-289l-66 -198h-84zM161 891h60q0 -34 21 -54.5t61 -20.5t61 20.5t21 54.5h60q0 -70 -37.5 -108t-104.5 -38t-104.5 38t-37.5 108zM183 264h242l-86 237l-40 114l-37 -114z" />
<glyph unicode="&#x103;" horiz-adv-x="546" d="M50 120q0 69 58.5 117.5t189.5 48.5q35 0 88 -5v64q0 127 -105 127q-61 0 -90.5 -29.5t-32.5 -96.5h-87q1 88 55.5 136.5t154.5 48.5q80 0 132.5 -40.5t52.5 -135.5v-355h-80v67q-84 -82 -179 -82q-71 0 -114 37.5t-43 97.5zM133 132q0 -82 108 -82q37 0 77 21.5t68 51.5 v104q-41 4 -82 4q-171 0 -171 -99zM141 729h58q0 -41 19 -65t55 -24t55 24t19 65h58q0 -76 -36 -116t-96 -40t-96 40t-36 116z" />
<glyph unicode="&#x104;" horiz-adv-x="626" d="M10 0l250 700h90l266 -700q-125 -62 -125 -140q0 -24 15 -38t37 -14q32 0 73 23v-55q-42 -24 -91 -24q-46 0 -74.5 27.5t-28.5 70.5q0 87 114 150h-15l-72 198h-289l-66 -198h-84zM183 264h242l-86 237l-40 114l-37 -114z" />
<glyph unicode="&#x105;" horiz-adv-x="546" d="M50 120q0 69 58.5 117.5t189.5 48.5q35 0 88 -5v64q0 127 -105 127q-61 0 -90.5 -29.5t-32.5 -96.5h-87q1 88 55.5 136.5t154.5 48.5q80 0 132.5 -40.5t52.5 -135.5v-355q-125 -62 -125 -140q0 -24 15 -38t37 -14q32 0 73 23v-55q-42 -24 -91 -24q-46 0 -74.5 27.5 t-28.5 70.5q0 87 114 150v67q-84 -82 -179 -82q-71 0 -114 37.5t-43 97.5zM133 132q0 -82 108 -82q37 0 77 21.5t68 51.5v104q-41 4 -82 4q-171 0 -171 -99z" />
<glyph unicode="&#x106;" horiz-adv-x="668" d="M50 350q0 166 81.5 265.5t217.5 99.5q110 0 180.5 -59t88.5 -176h-99q-24 168 -170 168q-89 0 -147.5 -75t-58.5 -223q0 -151 55.5 -224.5t150.5 -73.5q146 0 170 168h99q-18 -117 -88.5 -176t-180.5 -59q-141 0 -220 98.5t-79 266.5zM220 753l132 138h117l-169 -138h-80 z" />
<glyph unicode="&#x107;" horiz-adv-x="532" d="M50 258q0 124 59 198.5t168 74.5q94 0 150.5 -47.5t64.5 -127.5h-89q-10 63 -39.5 89.5t-86.5 26.5q-63 0 -102 -53.5t-39 -160.5q0 -214 141 -214q57 0 86.5 26.5t39.5 89.5h89q-8 -80 -64.5 -127.5t-150.5 -47.5q-115 0 -171 73t-56 200zM241 581l102 148h107 l-139 -148h-70z" />
<glyph unicode="&#x108;" horiz-adv-x="668" d="M50 350q0 166 81.5 265.5t217.5 99.5q110 0 180.5 -59t88.5 -176h-99q-24 168 -170 168q-89 0 -147.5 -75t-58.5 -223q0 -151 55.5 -224.5t150.5 -73.5q146 0 170 168h99q-18 -117 -88.5 -176t-180.5 -59q-141 0 -220 98.5t-79 266.5zM150 753l147 138h75l147 -138h-80 l-105 70l-104 -70h-80z" />
<glyph unicode="&#x109;" horiz-adv-x="532" d="M50 258q0 124 59 198.5t168 74.5q94 0 150.5 -47.5t64.5 -127.5h-89q-10 63 -39.5 89.5t-86.5 26.5q-63 0 -102 -53.5t-39 -160.5q0 -214 141 -214q57 0 86.5 26.5t39.5 89.5h89q-8 -80 -64.5 -127.5t-150.5 -47.5q-115 0 -171 73t-56 200zM117 581l107 148h94l107 -148 h-70l-84 90l-84 -90h-70z" />
<glyph unicode="&#x10a;" horiz-adv-x="668" d="M50 350q0 166 81.5 265.5t217.5 99.5q110 0 180.5 -59t88.5 -176h-99q-24 168 -170 168q-89 0 -147.5 -75t-58.5 -223q0 -151 55.5 -224.5t150.5 -73.5q146 0 170 168h99q-18 -117 -88.5 -176t-180.5 -59q-141 0 -220 98.5t-79 266.5zM278 825q0 22 16.5 38.5t39.5 16.5 t39.5 -16.5t16.5 -38.5t-16.5 -38.5t-39.5 -16.5t-39.5 16.5t-16.5 38.5z" />
<glyph unicode="&#x10b;" horiz-adv-x="532" d="M50 258q0 124 59 198.5t168 74.5q94 0 150.5 -47.5t64.5 -127.5h-89q-10 63 -39.5 89.5t-86.5 26.5q-63 0 -102 -53.5t-39 -160.5q0 -214 141 -214q57 0 86.5 26.5t39.5 89.5h89q-8 -80 -64.5 -127.5t-150.5 -47.5q-115 0 -171 73t-56 200zM215 660q0 22 16.5 38.5 t39.5 16.5t39.5 -16.5t16.5 -38.5t-16.5 -38.5t-39.5 -16.5t-39.5 16.5t-16.5 38.5z" />
<glyph unicode="&#x10c;" horiz-adv-x="668" d="M50 350q0 166 81.5 265.5t217.5 99.5q110 0 180.5 -59t88.5 -176h-99q-24 168 -170 168q-89 0 -147.5 -75t-58.5 -223q0 -151 55.5 -224.5t150.5 -73.5q146 0 170 168h99q-18 -117 -88.5 -176t-180.5 -59q-141 0 -220 98.5t-79 266.5zM150 891h80l104 -70l105 70h80 l-147 -138h-75z" />
<glyph unicode="&#x10d;" horiz-adv-x="532" d="M50 258q0 124 59 198.5t168 74.5q94 0 150.5 -47.5t64.5 -127.5h-89q-10 63 -39.5 89.5t-86.5 26.5q-63 0 -102 -53.5t-39 -160.5q0 -214 141 -214q57 0 86.5 26.5t39.5 89.5h89q-8 -80 -64.5 -127.5t-150.5 -47.5q-115 0 -171 73t-56 200zM117 729h70l84 -90l84 90h70 l-107 -148h-94z" />
<glyph unicode="&#x10e;" horiz-adv-x="703" d="M90 0v700h204q166 0 262.5 -93t96.5 -257t-96.5 -257t-262.5 -93h-204zM117 891h80l104 -70l105 70h80l-147 -138h-75zM176 67h118q121 0 193.5 67.5t72.5 215.5t-72.5 215.5t-193.5 67.5h-118v-566z" />
<glyph unicode="&#x10f;" horiz-adv-x="616" d="M50 258q0 70 20.5 124.5t54 86t73.5 47t83 15.5q86 0 138 -61v274h80v-744h-80v57q-70 -72 -168 -72q-83 0 -142 68.5t-59 204.5zM136 258q0 -106 40 -156t98 -50q87 0 145 61v295q-53 56 -135 56q-59 0 -103.5 -50.5t-44.5 -155.5zM559 583v220h77l-19 -220h-58z" />
<glyph unicode="&#x110;" horiz-adv-x="703" d="M-20 314v67h110v319h204q166 0 262.5 -93t96.5 -257t-96.5 -257t-262.5 -93h-204v314h-110zM176 67h118q121 0 193.5 67.5t72.5 215.5t-72.5 215.5t-193.5 67.5h-118v-252h150v-67h-150v-247z" />
<glyph unicode="&#x111;" horiz-adv-x="579" d="M50 258q0 70 20.5 124.5t54 86t73.5 47t83 15.5q86 0 138 -61v142h-130v63h130v69h80v-69h80v-63h-80v-612h-80v57q-70 -72 -168 -72q-83 0 -142 68.5t-59 204.5zM136 258q0 -106 40 -156t98 -50q87 0 145 61v295q-53 56 -135 56q-59 0 -103.5 -50.5t-44.5 -155.5z" />
<glyph unicode="&#x112;" horiz-adv-x="545" d="M90 0v700h405v-67h-319v-231h299v-67h-299v-268h319v-67h-405zM137 787v63h310v-63h-310z" />
<glyph unicode="&#x113;" horiz-adv-x="543" d="M50 258q0 122 60.5 197.5t162.5 75.5q112 0 169.5 -74.5t49.5 -203.5h-356q1 -105 37 -157t100 -52q52 0 80.5 23t39.5 73h89q-9 -67 -64.5 -111t-144.5 -44q-111 0 -167 73.5t-56 199.5zM126 612v63h290v-63h-290zM139 309h262q0 79 -34 121t-94 42q-53 0 -89 -41 t-45 -122z" />
<glyph unicode="&#x114;" horiz-adv-x="545" d="M90 0v700h405v-67h-319v-231h299v-67h-299v-268h319v-67h-405zM150 891h60q0 -34 21 -54.5t61 -20.5t61 20.5t21 54.5h60q0 -70 -37.5 -108t-104.5 -38t-104.5 38t-37.5 108z" />
<glyph unicode="&#x115;" horiz-adv-x="543" d="M50 258q0 122 60.5 197.5t162.5 75.5q112 0 169.5 -74.5t49.5 -203.5h-356q1 -105 37 -157t100 -52q52 0 80.5 23t39.5 73h89q-9 -67 -64.5 -111t-144.5 -44q-111 0 -167 73.5t-56 199.5zM139 309h262q0 79 -34 121t-94 42q-53 0 -89 -41t-45 -122zM144 729h58 q0 -41 19 -65t55 -24t55 24t19 65h58q0 -76 -36 -116t-96 -40t-96 40t-36 116z" />
<glyph unicode="&#x116;" horiz-adv-x="545" d="M90 0v700h405v-67h-319v-231h299v-67h-299v-268h319v-67h-405zM236 825q0 22 16.5 38.5t39.5 16.5t39.5 -16.5t16.5 -38.5t-16.5 -38.5t-39.5 -16.5t-39.5 16.5t-16.5 38.5z" />
<glyph unicode="&#x117;" horiz-adv-x="543" d="M50 258q0 122 60.5 197.5t162.5 75.5q112 0 169.5 -74.5t49.5 -203.5h-356q1 -105 37 -157t100 -52q52 0 80.5 23t39.5 73h89q-9 -67 -64.5 -111t-144.5 -44q-111 0 -167 73.5t-56 199.5zM139 309h262q0 79 -34 121t-94 42q-53 0 -89 -41t-45 -122zM210 660 q0 22 16.5 38.5t39.5 16.5t39.5 -16.5t16.5 -38.5t-16.5 -38.5t-39.5 -16.5t-39.5 16.5t-16.5 38.5z" />
<glyph unicode="&#x118;" horiz-adv-x="545" d="M90 0v700h405v-67h-319v-231h299v-67h-299v-268h319v-67q-125 -62 -125 -140q0 -24 15 -38t37 -14q32 0 73 23v-55q-42 -24 -91 -24q-46 0 -74.5 27.5t-28.5 70.5q0 87 114 150h-325z" />
<glyph unicode="&#x119;" horiz-adv-x="543" d="M50 258q0 122 60.5 197.5t162.5 75.5q112 0 169.5 -74.5t49.5 -203.5h-356q1 -105 37 -157t100 -52q52 0 80.5 23t39.5 73h89q-4 -38 -27 -72q-70 -113 -86 -152q-12 -32 -12 -56t15 -38t37 -14q32 0 73 23v-55q-42 -24 -91 -24q-46 0 -74.5 27.5t-28.5 70.5q0 57 56 144 q-32 -9 -71 -9q-111 0 -167 73.5t-56 199.5zM139 309h262q0 79 -34 121t-94 42q-53 0 -89 -41t-45 -122z" />
<glyph unicode="&#x11a;" horiz-adv-x="545" d="M90 0v700h405v-67h-319v-231h299v-67h-299v-268h319v-67h-405zM108 891h80l104 -70l105 70h80l-147 -138h-75z" />
<glyph unicode="&#x11b;" horiz-adv-x="543" d="M50 258q0 122 60.5 197.5t162.5 75.5q112 0 169.5 -74.5t49.5 -203.5h-356q1 -105 37 -157t100 -52q52 0 80.5 23t39.5 73h89q-9 -67 -64.5 -111t-144.5 -44q-111 0 -167 73.5t-56 199.5zM122 729h70l84 -90l84 90h70l-107 -148h-94zM139 309h262q0 79 -34 121t-94 42 q-53 0 -89 -41t-45 -122z" />
<glyph unicode="&#x11c;" horiz-adv-x="674" d="M50 350q0 166 81.5 265.5t217.5 99.5q109 0 177.5 -57t86.5 -168h-99q-25 158 -165 158q-89 0 -147.5 -75t-58.5 -223q0 -147 58 -222.5t140 -75.5q105 0 187 86v145h-174v67h260v-350h-86v71q-35 -37 -89.5 -61.5t-109.5 -24.5q-134 0 -206.5 98t-72.5 267zM148 753 l147 138h75l147 -138h-80l-105 70l-104 -70h-80z" />
<glyph unicode="&#x11d;" horiz-adv-x="573" d="M50 258q0 70 20.5 124.5t54 86t73.5 47t83 15.5q86 0 138 -61v46h80v-508q0 -112 -63.5 -171.5t-158.5 -59.5q-107 0 -161.5 44.5t-55.5 120.5h87q3 -54 33 -80t97 -26q142 0 142 162v59q-70 -72 -168 -72q-83 0 -142 68.5t-59 204.5zM136 258q0 -106 40 -156t98 -50 q87 0 145 61v295q-53 56 -135 56q-59 0 -103.5 -50.5t-44.5 -155.5zM140 581l107 148h94l107 -148h-70l-84 90l-84 -90h-70z" />
<glyph unicode="&#x11e;" horiz-adv-x="674" d="M50 350q0 166 81.5 265.5t217.5 99.5q109 0 177.5 -57t86.5 -168h-99q-25 158 -165 158q-89 0 -147.5 -75t-58.5 -223q0 -147 58 -222.5t140 -75.5q105 0 187 86v145h-174v67h260v-350h-86v71q-35 -37 -89.5 -61.5t-109.5 -24.5q-134 0 -206.5 98t-72.5 267zM190 891h60 q0 -34 21 -54.5t61 -20.5t61 20.5t21 54.5h60q0 -70 -37.5 -108t-104.5 -38t-104.5 38t-37.5 108z" />
<glyph unicode="&#x11f;" horiz-adv-x="573" d="M50 258q0 70 20.5 124.5t54 86t73.5 47t83 15.5q86 0 138 -61v46h80v-508q0 -112 -63.5 -171.5t-158.5 -59.5q-107 0 -161.5 44.5t-55.5 120.5h87q3 -54 33 -80t97 -26q142 0 142 162v59q-70 -72 -168 -72q-83 0 -142 68.5t-59 204.5zM136 258q0 -106 40 -156t98 -50 q87 0 145 61v295q-53 56 -135 56q-59 0 -103.5 -50.5t-44.5 -155.5zM162 729h58q0 -41 19 -65t55 -24t55 24t19 65h58q0 -76 -36 -116t-96 -40t-96 40t-36 116z" />
<glyph unicode="&#x120;" horiz-adv-x="674" d="M50 350q0 166 81.5 265.5t217.5 99.5q109 0 177.5 -57t86.5 -168h-99q-25 158 -165 158q-89 0 -147.5 -75t-58.5 -223q0 -147 58 -222.5t140 -75.5q105 0 187 86v145h-174v67h260v-350h-86v71q-35 -37 -89.5 -61.5t-109.5 -24.5q-134 0 -206.5 98t-72.5 267zM276 825 q0 22 16.5 38.5t39.5 16.5t39.5 -16.5t16.5 -38.5t-16.5 -38.5t-39.5 -16.5t-39.5 16.5t-16.5 38.5z" />
<glyph unicode="&#x121;" horiz-adv-x="573" d="M50 258q0 70 20.5 124.5t54 86t73.5 47t83 15.5q86 0 138 -61v46h80v-508q0 -112 -63.5 -171.5t-158.5 -59.5q-107 0 -161.5 44.5t-55.5 120.5h87q3 -54 33 -80t97 -26q142 0 142 162v59q-70 -72 -168 -72q-83 0 -142 68.5t-59 204.5zM136 258q0 -106 40 -156t98 -50 q87 0 145 61v295q-53 56 -135 56q-59 0 -103.5 -50.5t-44.5 -155.5zM210 660q0 22 16.5 38.5t39.5 16.5t39.5 -16.5t16.5 -38.5t-16.5 -38.5t-39.5 -16.5t-39.5 16.5t-16.5 38.5z" />
<glyph unicode="&#x122;" horiz-adv-x="674" d="M50 350q0 166 81.5 265.5t217.5 99.5q109 0 177.5 -57t86.5 -168h-99q-25 158 -165 158q-89 0 -147.5 -75t-58.5 -223q0 -147 58 -222.5t140 -75.5q105 0 187 86v145h-174v67h260v-350h-86v71q-35 -37 -89.5 -61.5t-109.5 -24.5q-134 0 -206.5 98t-72.5 267zM293 -248 l20 180h79l-39 -180h-60z" />
<glyph unicode="&#x123;" horiz-adv-x="573" d="M50 258q0 70 20.5 124.5t54 86t73.5 47t83 15.5q86 0 138 -61v46h80v-508q0 -112 -63.5 -171.5t-158.5 -59.5q-107 0 -161.5 44.5t-55.5 120.5h87q3 -54 33 -80t97 -26q142 0 142 162v59q-70 -72 -168 -72q-83 0 -142 68.5t-59 204.5zM136 258q0 -106 40 -156t98 -50 q87 0 145 61v295q-53 56 -135 56q-59 0 -103.5 -50.5t-44.5 -155.5zM235 585l39 180h60l-20 -180h-79z" />
<glyph unicode="&#x124;" horiz-adv-x="723" d="M90 0v700h86v-298h371v298h86v-700h-86v335h-371v-335h-86zM177 753l147 138h75l147 -138h-80l-105 70l-104 -70h-80z" />
<glyph unicode="&#x125;" horiz-adv-x="586" d="M-64 783l147 138h75l147 -138h-80l-105 70l-104 -70h-80zM80 0v744h80v-295q35 36 83.5 59t96.5 23q73 0 119.5 -42t46.5 -127v-362h-80v342q0 122 -109 122q-41 0 -85.5 -21t-71.5 -50v-393h-80z" />
<glyph unicode="&#x126;" horiz-adv-x="723" d="M10 524v67h80v109h86v-109h371v109h86v-109h80v-67h-80v-524h-86v335h-371v-335h-86v524h-80zM176 402h371v122h-371v-122z" />
<glyph unicode="&#x127;" horiz-adv-x="586" d="M0 612v63h80v69h80v-69h130v-63h-130v-163q35 36 83.5 59t96.5 23q73 0 119.5 -42t46.5 -127v-362h-80v342q0 122 -109 122q-41 0 -85.5 -21t-71.5 -50v-393h-80v612h-80z" />
<glyph unicode="&#x128;" horiz-adv-x="266" d="M-40 796q19 44 47.5 66.5t59.5 22.5q29 0 78 -23.5t62 -23.5q33 0 55 43l45 -23q-18 -44 -46.5 -66.5t-59.5 -22.5q-28 0 -77.5 23.5t-63.5 23.5q-32 0 -55 -43zM90 0v700h86v-700h-86z" />
<glyph unicode="&#x129;" horiz-adv-x="240" d="M-43 618q18 43 48.5 66t58.5 23t68 -23.5t54 -23.5q32 0 53 43l45 -23q-17 -43 -47.5 -66t-58.5 -23t-68.5 23.5t-54.5 23.5q-30 0 -53 -43zM80 0v516h80v-516h-80z" />
<glyph unicode="&#x12a;" horiz-adv-x="266" d="M18 787v63h230v-63h-230zM90 0v700h86v-700h-86z" />
<glyph unicode="&#x12b;" horiz-adv-x="240" d="M15 612v63h210v-63h-210zM80 0v516h80v-516h-80z" />
<glyph unicode="&#x12c;" horiz-adv-x="266" d="M-9 891h60q0 -34 21 -54.5t61 -20.5t61 20.5t21 54.5h60q0 -70 -37.5 -108t-104.5 -38t-104.5 38t-37.5 108zM90 0v700h86v-700h-86z" />
<glyph unicode="&#x12d;" horiz-adv-x="240" d="M-12 729h58q0 -41 19 -65t55 -24t55 24t19 65h58q0 -76 -36 -116t-96 -40t-96 40t-36 116zM80 0v516h80v-516h-80z" />
<glyph unicode="&#x12e;" horiz-adv-x="266" d="M-18 -150q0 87 114 150h-6v700h86v-700q-125 -62 -125 -140q0 -24 15 -38t37 -14q32 0 73 23v-55q-42 -24 -91 -24q-46 0 -74.5 27.5t-28.5 70.5z" />
<glyph unicode="&#x12f;" horiz-adv-x="240" d="M-34 -150q0 87 114 150v516h80v-516q-125 -62 -125 -140q0 -24 15 -38t37 -14q32 0 73 23v-55q-42 -24 -91 -24q-46 0 -74.5 27.5t-28.5 70.5zM64 660q0 22 16.5 38.5t39.5 16.5t39.5 -16.5t16.5 -38.5t-16.5 -38.5t-39.5 -16.5t-39.5 16.5t-16.5 38.5z" />
<glyph unicode="&#x130;" horiz-adv-x="266" d="M77 825q0 22 16.5 38.5t39.5 16.5t39.5 -16.5t16.5 -38.5t-16.5 -38.5t-39.5 -16.5t-39.5 16.5t-16.5 38.5zM90 0v700h86v-700h-86z" />
<glyph unicode="&#x131;" horiz-adv-x="240" d="M80 0v516h80v-516h-80z" />
<glyph unicode="&#x132;" horiz-adv-x="825" d="M90 0v700h86v-700h-86zM296 220h93q4 -91 36.5 -129.5t96.5 -38.5q137 0 137 130v518h86v-498q0 -107 -65.5 -162t-157.5 -55q-218 0 -226 235z" />
<glyph unicode="&#x133;" horiz-adv-x="480" d="M64 660q0 22 16.5 38.5t39.5 16.5t39.5 -16.5t16.5 -38.5t-16.5 -38.5t-39.5 -16.5t-39.5 16.5t-16.5 38.5zM80 0v516h80v-516h-80zM304 660q0 22 16.5 38.5t39.5 16.5t39.5 -16.5t16.5 -38.5t-16.5 -38.5t-39.5 -16.5t-39.5 16.5t-16.5 38.5zM320 -208v724h80v-724h-80z " />
<glyph unicode="&#x134;" horiz-adv-x="559" d="M30 220h93q4 -91 36.5 -129.5t96.5 -38.5q137 0 137 130v518h86v-498q0 -107 -65.5 -162t-157.5 -55q-218 0 -226 235zM252 753l147 138h75l147 -138h-80l-105 70l-104 -70h-80z" />
<glyph unicode="&#x135;" horiz-adv-x="240" d="M-34 581l107 148h94l107 -148h-70l-84 90l-84 -90h-70zM80 -208v724h80v-724h-80z" />
<glyph unicode="&#x136;" horiz-adv-x="607" d="M90 0v700h86v-700h-86zM176 365l266 335h97l-269 -325l307 -375h-113zM224 -248l20 180h79l-39 -180h-60z" />
<glyph unicode="&#x137;" horiz-adv-x="495" d="M80 0v744h80v-744h-80zM160 275l221 241h91l-224 -234l247 -282h-103zM174 -248l20 180h79l-39 -180h-60z" />
<glyph unicode="&#x138;" horiz-adv-x="495" d="M80 0v516h80v-516h-80zM160 275l221 241h91l-224 -234l247 -282h-103z" />
<glyph unicode="&#x139;" horiz-adv-x="520" d="M49 753l132 138h117l-169 -138h-80zM90 0v700h86v-633h284v-67h-370z" />
<glyph unicode="&#x13a;" horiz-adv-x="240" d="M80 0v744h80v-744h-80zM84 783l132 138h117l-169 -138h-80z" />
<glyph unicode="&#x13b;" horiz-adv-x="520" d="M90 0v700h86v-633h284v-67h-370zM206 -248l20 180h79l-39 -180h-60z" />
<glyph unicode="&#x13c;" horiz-adv-x="240" d="M67 -248l20 180h79l-39 -180h-60zM80 0v744h80v-744h-80z" />
<glyph unicode="&#x13d;" horiz-adv-x="520" d="M90 0v700h86v-633h284v-67h-370zM236 583v220h77l-19 -220h-58z" />
<glyph unicode="&#x13e;" horiz-adv-x="277" d="M80 0v744h80v-744h-80zM220 583v220h77l-19 -220h-58z" />
<glyph unicode="&#x13f;" horiz-adv-x="520" d="M90 0v700h86v-633h284v-67h-370zM266 365q0 26 17.5 43t42.5 17t42.5 -17t17.5 -43t-17.5 -43t-42.5 -17t-42.5 17t-17.5 43z" />
<glyph unicode="&#x140;" horiz-adv-x="328" d="M80 0v744h80v-744h-80zM228 365q0 26 17.5 43t42.5 17t42.5 -17t17.5 -43t-17.5 -43t-42.5 -17t-42.5 17t-17.5 43z" />
<glyph unicode="&#x141;" horiz-adv-x="520" d="M0 226v76l90 53v345h86v-295l144 84v-76l-144 -84v-262h284v-67h-370v279z" />
<glyph unicode="&#x142;" horiz-adv-x="240" d="M0 268v72l80 47v357h80v-311l80 47v-72l-80 -47v-361h-80v315z" />
<glyph unicode="&#x143;" horiz-adv-x="713" d="M90 0v700h98l359 -577l-2 110v467h78v-700h-98l-359 577l2 -110v-467h-78zM262 753l132 138h117l-169 -138h-80z" />
<glyph unicode="&#x144;" horiz-adv-x="586" d="M80 0v516h80v-67q35 36 83.5 59t96.5 23q73 0 119.5 -42t46.5 -127v-362h-80v342q0 122 -109 122q-41 0 -85.5 -21t-71.5 -50v-393h-80zM199 581l102 148h107l-139 -148h-70z" />
<glyph unicode="&#x145;" horiz-adv-x="713" d="M90 0v700h98l359 -577l-2 110v467h78v-700h-98l-359 577l2 -110v-467h-78zM297 -248l20 180h79l-39 -180h-60z" />
<glyph unicode="&#x146;" horiz-adv-x="586" d="M80 0v516h80v-67q35 36 83.5 59t96.5 23q73 0 119.5 -42t46.5 -127v-362h-80v342q0 122 -109 122q-41 0 -85.5 -21t-71.5 -50v-393h-80zM234 -248l20 180h79l-39 -180h-60z" />
<glyph unicode="&#x147;" horiz-adv-x="713" d="M90 0v700h98l359 -577l-2 110v467h78v-700h-98l-359 577l2 -110v-467h-78zM172 891h80l104 -70l105 70h80l-147 -138h-75z" />
<glyph unicode="&#x148;" horiz-adv-x="586" d="M80 0v516h80v-67q35 36 83.5 59t96.5 23q73 0 119.5 -42t46.5 -127v-362h-80v342q0 122 -109 122q-41 0 -85.5 -21t-71.5 -50v-393h-80zM129 729h70l84 -90l84 90h70l-107 -148h-94z" />
<glyph unicode="&#x14a;" horiz-adv-x="713" d="M90 0v700h98l359 -577l-2 110v467h78v-700q0 -119 -64 -171t-159 -52q-45 0 -76 16v62q44 -11 76 -11q68 0 102.5 29.5t34.5 107.5l-371 596l2 -110v-467h-78z" />
<glyph unicode="&#x14b;" horiz-adv-x="586" d="M80 0v516h80v-67q35 36 83.5 59t96.5 23q73 0 119.5 -42t46.5 -127v-570h-80v550q0 122 -109 122q-41 0 -85.5 -21t-71.5 -50v-393h-80z" />
<glyph unicode="&#x14c;" horiz-adv-x="740" d="M50 350q0 166 87 265.5t233 99.5t233 -99.5t87 -265.5t-87 -265.5t-233 -99.5t-233 99.5t-87 265.5zM143 350q0 -149 63.5 -223.5t163.5 -74.5t163.5 74.5t63.5 223.5t-63.5 223.5t-163.5 74.5t-163.5 -74.5t-63.5 -223.5zM215 787v63h310v-63h-310z" />
<glyph unicode="&#x14d;" horiz-adv-x="582" d="M50 258q0 123 64 198t177 75t177 -75t64 -198t-64 -198t-177 -75t-177 75t-64 198zM136 258q0 -107 42.5 -160.5t112.5 -53.5t112.5 53.5t42.5 160.5t-42.5 160.5t-112.5 53.5t-112.5 -53.5t-42.5 -160.5zM146 612v63h290v-63h-290z" />
<glyph unicode="&#x14e;" horiz-adv-x="740" d="M50 350q0 166 87 265.5t233 99.5t233 -99.5t87 -265.5t-87 -265.5t-233 -99.5t-233 99.5t-87 265.5zM143 350q0 -149 63.5 -223.5t163.5 -74.5t163.5 74.5t63.5 223.5t-63.5 223.5t-163.5 74.5t-163.5 -74.5t-63.5 -223.5zM228 891h60q0 -34 21 -54.5t61 -20.5t61 20.5 t21 54.5h60q0 -70 -37.5 -108t-104.5 -38t-104.5 38t-37.5 108z" />
<glyph unicode="&#x14f;" horiz-adv-x="582" d="M50 258q0 123 64 198t177 75t177 -75t64 -198t-64 -198t-177 -75t-177 75t-64 198zM136 258q0 -107 42.5 -160.5t112.5 -53.5t112.5 53.5t42.5 160.5t-42.5 160.5t-112.5 53.5t-112.5 -53.5t-42.5 -160.5zM159 729h58q0 -41 19 -65t55 -24t55 24t19 65h58q0 -76 -36 -116 t-96 -40t-96 40t-36 116z" />
<glyph unicode="&#x150;" horiz-adv-x="740" d="M50 350q0 166 87 265.5t233 99.5t233 -99.5t87 -265.5t-87 -265.5t-233 -99.5t-233 99.5t-87 265.5zM143 350q0 -149 63.5 -223.5t163.5 -74.5t163.5 74.5t63.5 223.5t-63.5 223.5t-163.5 74.5t-163.5 -74.5t-63.5 -223.5zM200 753l112 138h112l-149 -138h-75zM377 753 l112 138h112l-149 -138h-75z" />
<glyph unicode="&#x151;" horiz-adv-x="582" d="M50 258q0 123 64 198t177 75t177 -75t64 -198t-64 -198t-177 -75t-177 75t-64 198zM136 258q0 -107 42.5 -160.5t112.5 -53.5t112.5 53.5t42.5 160.5t-42.5 160.5t-112.5 53.5t-112.5 -53.5t-42.5 -160.5zM158 581l82 148h97l-111 -148h-68zM305 581l82 148h97l-111 -148 h-68z" />
<glyph unicode="&#x152;" horiz-adv-x="942" d="M50 350q0 164 96.5 257t262.5 93h483v-67h-319v-231h299v-67h-299v-268h319v-67h-483q-166 0 -262.5 93t-96.5 257zM143 350q0 -148 72.5 -215.5t193.5 -67.5h78v566h-78q-121 0 -193.5 -67.5t-72.5 -215.5z" />
<glyph unicode="&#x153;" horiz-adv-x="939" d="M50 258q0 123 64 198t177 75q134 0 197 -112q28 54 77 83t104 29q112 0 169.5 -74.5t49.5 -203.5h-356q1 -105 37 -157t100 -52q52 0 80.5 23t39.5 73h89q-9 -67 -64.5 -111t-144.5 -44q-130 0 -184 108q-60 -108 -194 -108q-113 0 -177 75t-64 198zM136 258 q0 -107 42.5 -160.5t112.5 -53.5t112.5 53.5t42.5 160.5t-42.5 160.5t-112.5 53.5t-112.5 -53.5t-42.5 -160.5zM535 309h262q0 79 -34 121t-94 42q-53 0 -89 -41t-45 -122z" />
<glyph unicode="&#x154;" horiz-adv-x="610" d="M90 0v700h207q104 0 175 -52.5t71 -157.5q0 -85 -47.5 -135.5t-124.5 -66.5l209 -288h-108l-192 280h-104v-280h-86zM176 347h121q156 0 156 143t-156 143h-121v-286zM181 753l132 138h117l-169 -138h-80z" />
<glyph unicode="&#x155;" horiz-adv-x="391" d="M80 0v516h80v-89q66 104 149 104q38 0 62 -27v-64q-38 16 -68 16q-43 0 -81.5 -29.5t-61.5 -70.5v-356h-80zM121 581l102 148h107l-139 -148h-70z" />
<glyph unicode="&#x156;" horiz-adv-x="610" d="M90 0v700h207q104 0 175 -52.5t71 -157.5q0 -85 -47.5 -135.5t-124.5 -66.5l209 -288h-108l-192 280h-104v-280h-86zM176 347h121q156 0 156 143t-156 143h-121v-286zM236 -248l20 180h79l-39 -180h-60z" />
<glyph unicode="&#x157;" horiz-adv-x="391" d="M66 -248l20 180h79l-39 -180h-60zM80 0v516h80v-89q66 104 149 104q38 0 62 -27v-64q-38 16 -68 16q-43 0 -81.5 -29.5t-61.5 -70.5v-356h-80z" />
<glyph unicode="&#x158;" horiz-adv-x="610" d="M90 0v700h207q104 0 175 -52.5t71 -157.5q0 -85 -47.5 -135.5t-124.5 -66.5l209 -288h-108l-192 280h-104v-280h-86zM91 891h80l104 -70l105 70h80l-147 -138h-75zM176 347h121q156 0 156 143t-156 143h-121v-286z" />
<glyph unicode="&#x159;" horiz-adv-x="391" d="M51 729h70l84 -90l84 90h70l-107 -148h-94zM80 0v516h80v-89q66 104 149 104q38 0 62 -27v-64q-38 16 -68 16q-43 0 -81.5 -29.5t-61.5 -70.5v-356h-80z" />
<glyph unicode="&#x15a;" d="M50 205h93q12 -153 164 -153q66 0 111 35.5t45 99.5q0 29 -10.5 50.5t-24 34.5t-40.5 23.5t-44.5 15t-51.5 11.5q-33 7 -46.5 10t-44 12t-45 17.5t-37 23.5t-32.5 33t-18.5 44t-8.5 57q0 87 66.5 141.5t168.5 54.5q116 0 180.5 -54.5t68.5 -155.5h-93q-6 76 -45.5 109.5 t-110.5 33.5q-66 0 -107 -29t-41 -88q0 -29 10 -50.5t23 -34t39 -23t43 -15t51 -11.5q33 -7 46.5 -10t45 -12.5t46.5 -17.5t37.5 -23.5t33.5 -33t19.5 -44t8.5 -57.5q0 -92 -71 -153t-172 -61q-117 0 -185 56.5t-72 163.5zM186 753l132 138h117l-169 -138h-80z" />
<glyph unicode="&#x15b;" horiz-adv-x="508" d="M50 144h87q3 -49 31.5 -74.5t96.5 -25.5q51 0 83 25t32 70q0 23 -11 39t-35 26t-40 14.5t-49 10.5q-22 4 -28.5 5t-28 6t-30 8.5t-26.5 10.5t-26 13.5t-20.5 17.5t-17.5 23t-9.5 28t-4.5 35q0 72 54 113.5t144 41.5q95 0 144 -38t50 -106h-87q-3 45 -29 65t-83 20 q-52 0 -83.5 -21t-31.5 -60q0 -19 8 -34t17.5 -23t31 -15.5t32.5 -10t38 -7.5q32 -6 44.5 -8.5t42.5 -10.5t44.5 -17.5t33 -24.5t26.5 -37t8 -49q0 -74 -55.5 -121.5t-142.5 -47.5q-107 0 -158 43t-52 116zM159 581l102 148h107l-139 -148h-70z" />
<glyph unicode="&#x15c;" d="M50 205h93q12 -153 164 -153q66 0 111 35.5t45 99.5q0 29 -10.5 50.5t-24 34.5t-40.5 23.5t-44.5 15t-51.5 11.5q-33 7 -46.5 10t-44 12t-45 17.5t-37 23.5t-32.5 33t-18.5 44t-8.5 57q0 87 66.5 141.5t168.5 54.5q116 0 180.5 -54.5t68.5 -155.5h-93q-6 76 -45.5 109.5 t-110.5 33.5q-66 0 -107 -29t-41 -88q0 -29 10 -50.5t23 -34t39 -23t43 -15t51 -11.5q33 -7 46.5 -10t45 -12.5t46.5 -17.5t37.5 -23.5t33.5 -33t19.5 -44t8.5 -57.5q0 -92 -71 -153t-172 -61q-117 0 -185 56.5t-72 163.5zM116 753l147 138h75l147 -138h-80l-105 70 l-104 -70h-80z" />
<glyph unicode="&#x15d;" horiz-adv-x="508" d="M50 144h87q3 -49 31.5 -74.5t96.5 -25.5q51 0 83 25t32 70q0 23 -11 39t-35 26t-40 14.5t-49 10.5q-22 4 -28.5 5t-28 6t-30 8.5t-26.5 10.5t-26 13.5t-20.5 17.5t-17.5 23t-9.5 28t-4.5 35q0 72 54 113.5t144 41.5q95 0 144 -38t50 -106h-87q-3 45 -29 65t-83 20 q-52 0 -83.5 -21t-31.5 -60q0 -19 8 -34t17.5 -23t31 -15.5t32.5 -10t38 -7.5q32 -6 44.5 -8.5t42.5 -10.5t44.5 -17.5t33 -24.5t26.5 -37t8 -49q0 -74 -55.5 -121.5t-142.5 -47.5q-107 0 -158 43t-52 116zM100 581l107 148h94l107 -148h-70l-84 90l-84 -90h-70z" />
<glyph unicode="&#x15e;" d="M50 205h93q12 -153 164 -153q66 0 111 35.5t45 99.5q0 29 -10.5 50.5t-24 34.5t-40.5 23.5t-44.5 15t-51.5 11.5q-33 7 -46.5 10t-44 12t-45 17.5t-37 23.5t-32.5 33t-18.5 44t-8.5 57q0 87 66.5 141.5t168.5 54.5q116 0 180.5 -54.5t68.5 -155.5h-93q-6 76 -45.5 109.5 t-110.5 33.5q-66 0 -107 -29t-41 -88q0 -29 10 -50.5t23 -34t39 -23t43 -15t51 -11.5q33 -7 46.5 -10t45 -12.5t46.5 -17.5t37.5 -23.5t33.5 -33t19.5 -44t8.5 -57.5q0 -88 -66 -148.5t-162 -65.5l-39 -52q47 4 79 -17.5t32 -65.5t-35 -71t-82 -27q-42 0 -71 14v51 q27 -13 65 -13q22 0 40 12t18 32t-17.5 31.5t-40.5 11.5q-26 0 -44 -6l-18 31l53 71q-97 11 -152.5 66.5t-59.5 151.5z" />
<glyph unicode="&#x15f;" horiz-adv-x="508" d="M50 144h87q3 -49 31.5 -74.5t96.5 -25.5q51 0 83 25t32 70q0 23 -11 39t-35 26t-40 14.5t-49 10.5q-22 4 -28.5 5t-28 6t-30 8.5t-26.5 10.5t-26 13.5t-20.5 17.5t-17.5 23t-9.5 28t-4.5 35q0 72 54 113.5t144 41.5q95 0 144 -38t50 -106h-87q-3 45 -29 65t-83 20 q-52 0 -83.5 -21t-31.5 -60q0 -19 8 -34t17.5 -23t31 -15.5t32.5 -10t38 -7.5q32 -6 44.5 -8.5t42.5 -10.5t44.5 -17.5t33 -24.5t26.5 -37t8 -49q0 -70 -50.5 -117t-131.5 -52l-39 -52q47 4 79 -17.5t32 -65.5t-35 -71t-82 -27q-42 0 -71 14v51q27 -13 65 -13q22 0 40 12 t18 32t-17.5 31.5t-40.5 11.5q-26 0 -44 -6l-18 31l53 71q-164 17 -166 157z" />
<glyph unicode="&#x160;" d="M50 205h93q12 -153 164 -153q66 0 111 35.5t45 99.5q0 29 -10.5 50.5t-24 34.5t-40.5 23.5t-44.5 15t-51.5 11.5q-33 7 -46.5 10t-44 12t-45 17.5t-37 23.5t-32.5 33t-18.5 44t-8.5 57q0 87 66.5 141.5t168.5 54.5q116 0 180.5 -54.5t68.5 -155.5h-93q-6 76 -45.5 109.5 t-110.5 33.5q-66 0 -107 -29t-41 -88q0 -29 10 -50.5t23 -34t39 -23t43 -15t51 -11.5q33 -7 46.5 -10t45 -12.5t46.5 -17.5t37.5 -23.5t33.5 -33t19.5 -44t8.5 -57.5q0 -92 -71 -153t-172 -61q-117 0 -185 56.5t-72 163.5zM106 891h80l104 -70l105 70h80l-147 -138h-75z" />
<glyph unicode="&#x161;" horiz-adv-x="508" d="M50 144h87q3 -49 31.5 -74.5t96.5 -25.5q51 0 83 25t32 70q0 23 -11 39t-35 26t-40 14.5t-49 10.5q-22 4 -28.5 5t-28 6t-30 8.5t-26.5 10.5t-26 13.5t-20.5 17.5t-17.5 23t-9.5 28t-4.5 35q0 72 54 113.5t144 41.5q95 0 144 -38t50 -106h-87q-3 45 -29 65t-83 20 q-52 0 -83.5 -21t-31.5 -60q0 -19 8 -34t17.5 -23t31 -15.5t32.5 -10t38 -7.5q32 -6 44.5 -8.5t42.5 -10.5t44.5 -17.5t33 -24.5t26.5 -37t8 -49q0 -74 -55.5 -121.5t-142.5 -47.5q-107 0 -158 43t-52 116zM90 729h70l84 -90l84 90h70l-107 -148h-94z" />
<glyph unicode="&#x162;" horiz-adv-x="542" d="M30 633v67h482v-67h-198v-633l-50 -67q47 4 79 -17.5t32 -65.5t-35 -71t-82 -27q-42 0 -71 14v51q27 -13 65 -13q22 0 40 12t18 32t-17.5 31.5t-40.5 11.5q-26 0 -44 -6l-18 31l63 84h-25v633h-198z" />
<glyph unicode="&#x163;" horiz-adv-x="380" d="M20 458v58h90v144h80v-144h150v-58h-150v-324q0 -86 72 -86q35 0 88 17v-57q-46 -23 -113 -23l-39 -52q47 4 79 -17.5t32 -65.5t-35 -71t-82 -27q-42 0 -71 14v51q27 -13 65 -13q22 0 40 12t18 32t-17.5 31.5t-40.5 11.5q-26 0 -44 -6l-18 31l59 79q-73 29 -73 119v344 h-90z" />
<glyph unicode="&#x164;" horiz-adv-x="542" d="M30 633v67h482v-67h-198v-633h-86v633h-198zM87 891h80l104 -70l105 70h80l-147 -138h-75z" />
<glyph unicode="&#x165;" horiz-adv-x="380" d="M20 458v58h90v144h80v-144h150v-58h-150v-324q0 -86 72 -86q35 0 88 17v-57q-46 -23 -113 -23q-56 0 -91.5 33.5t-35.5 95.5v344h-90zM240 583v220h77l-19 -220h-58z" />
<glyph unicode="&#x166;" horiz-adv-x="542" d="M30 633v67h482v-67h-198v-252h140v-67h-140v-314h-86v314h-140v67h140v252h-198z" />
<glyph unicode="&#x167;" horiz-adv-x="380" d="M20 275v63h90v120h-90v58h90v144h80v-144h150v-58h-150v-120h120v-63h-120v-141q0 -86 72 -86q35 0 88 17v-57q-46 -23 -113 -23q-56 0 -91.5 33.5t-35.5 95.5v161h-90z" />
<glyph unicode="&#x168;" horiz-adv-x="704" d="M80 227v473h86v-453q0 -96 41.5 -145.5t139.5 -49.5q97 0 143 47t46 128v473h78v-453q0 -122 -71.5 -192t-195.5 -70q-125 0 -196 64t-71 178zM174 796q19 44 47.5 66.5t59.5 22.5q29 0 78 -23.5t62 -23.5q33 0 55 43l45 -23q-18 -44 -46.5 -66.5t-59.5 -22.5 q-28 0 -77.5 23.5t-63.5 23.5q-32 0 -55 -43z" />
<glyph unicode="&#x169;" horiz-adv-x="582" d="M80 154v362h80v-342q0 -122 107 -122q41 0 84.5 21t70.5 50v393h80v-516h-80v67q-80 -82 -178 -82q-73 0 -118.5 42t-45.5 127zM128 618q18 43 48.5 66t58.5 23q29 0 69 -23.5t53 -23.5q31 0 53 43l45 -23q-17 -43 -47.5 -66t-58.5 -23t-68.5 23.5t-54.5 23.5 q-30 0 -53 -43z" />
<glyph unicode="&#x16a;" horiz-adv-x="704" d="M80 227v473h86v-453q0 -96 41.5 -145.5t139.5 -49.5q97 0 143 47t46 128v473h78v-453q0 -122 -71.5 -192t-195.5 -70q-125 0 -196 64t-71 178zM192 787v63h310v-63h-310z" />
<glyph unicode="&#x16b;" horiz-adv-x="582" d="M80 154v362h80v-342q0 -122 107 -122q41 0 84.5 21t70.5 50v393h80v-516h-80v67q-80 -82 -178 -82q-73 0 -118.5 42t-45.5 127zM146 612v63h290v-63h-290z" />
<glyph unicode="&#x16c;" horiz-adv-x="704" d="M80 227v473h86v-453q0 -96 41.5 -145.5t139.5 -49.5q97 0 143 47t46 128v473h78v-453q0 -122 -71.5 -192t-195.5 -70q-125 0 -196 64t-71 178zM205 891h60q0 -34 21 -54.5t61 -20.5t61 20.5t21 54.5h60q0 -70 -37.5 -108t-104.5 -38t-104.5 38t-37.5 108z" />
<glyph unicode="&#x16d;" horiz-adv-x="582" d="M80 154v362h80v-342q0 -122 107 -122q41 0 84.5 21t70.5 50v393h80v-516h-80v67q-80 -82 -178 -82q-73 0 -118.5 42t-45.5 127zM159 729h58q0 -41 19 -65t55 -24t55 24t19 65h58q0 -76 -36 -116t-96 -40t-96 40t-36 116z" />
<glyph unicode="&#x16e;" horiz-adv-x="704" d="M80 227v473h86v-453q0 -96 41.5 -145.5t139.5 -49.5q97 0 143 47t46 128v473h78v-453q0 -122 -71.5 -192t-195.5 -70q-125 0 -196 64t-71 178zM239 820q0 44 30.5 69.5t77.5 25.5t77.5 -25.5t30.5 -69.5t-30.5 -69.5t-77.5 -25.5t-77.5 25.5t-30.5 69.5zM299 820 q0 -24 13 -36.5t35 -12.5t35 12.5t13 36.5t-13 36.5t-35 12.5t-35 -12.5t-13 -36.5z" />
<glyph unicode="&#x16f;" horiz-adv-x="582" d="M80 154v362h80v-342q0 -122 107 -122q41 0 84.5 21t70.5 50v393h80v-516h-80v67q-80 -82 -178 -82q-73 0 -118.5 42t-45.5 127zM183 655q0 44 30.5 69.5t77.5 25.5t77.5 -25.5t30.5 -69.5t-30.5 -69.5t-77.5 -25.5t-77.5 25.5t-30.5 69.5zM243 655q0 -24 13 -36.5 t35 -12.5t35 12.5t13 36.5t-13 36.5t-35 12.5t-35 -12.5t-13 -36.5z" />
<glyph unicode="&#x170;" horiz-adv-x="704" d="M80 227v473h86v-453q0 -96 41.5 -145.5t139.5 -49.5q97 0 143 47t46 128v473h78v-453q0 -122 -71.5 -192t-195.5 -70q-125 0 -196 64t-71 178zM177 753l112 138h112l-149 -138h-75zM354 753l112 138h112l-149 -138h-75z" />
<glyph unicode="&#x171;" horiz-adv-x="582" d="M80 154v362h80v-342q0 -122 107 -122q41 0 84.5 21t70.5 50v393h80v-516h-80v67q-80 -82 -178 -82q-73 0 -118.5 42t-45.5 127zM158 581l82 148h97l-111 -148h-68zM305 581l82 148h97l-111 -148h-68z" />
<glyph unicode="&#x172;" horiz-adv-x="704" d="M80 227v473h86v-453q0 -96 41.5 -145.5t139.5 -49.5q97 0 143 47t46 128v473h78v-453q0 -97 -46.5 -162.5t-131.5 -88.5q-117 -61 -117 -136q0 -24 15 -38t37 -14q32 0 73 23v-55q-42 -24 -91 -24q-46 0 -74.5 27.5t-28.5 70.5q0 77 89 135q-121 2 -190 66t-69 176z" />
<glyph unicode="&#x173;" horiz-adv-x="582" d="M80 154v362h80v-342q0 -122 107 -122q41 0 84.5 21t70.5 50v393h80v-516q-125 -62 -125 -140q0 -24 15 -38t37 -14q32 0 73 23v-55q-42 -24 -91 -24q-46 0 -74.5 27.5t-28.5 70.5q0 87 114 150v67q-80 -82 -178 -82q-73 0 -118.5 42t-45.5 127z" />
<glyph unicode="&#x174;" horiz-adv-x="910" d="M10 700h95l125 -478l29 -114l30 114l129 478h95l135 -478l32 -118l27 118l111 478h82l-180 -700h-90l-138 476l-33 118l-31 -118l-132 -476h-90zM271 753l147 138h75l147 -138h-80l-105 70l-104 -70h-80z" />
<glyph unicode="&#x175;" horiz-adv-x="788" d="M20 516h90l96 -313l34 -114l31 114l89 313h76l95 -313l34 -114l32 114l93 313h78l-170 -516h-75l-93 295l-35 114l-33 -114l-87 -295h-77zM240 581l107 148h94l107 -148h-70l-84 90l-84 -90h-70z" />
<glyph unicode="&#x176;" horiz-adv-x="590" d="M30 700h95l183 -373l169 373h83l-216 -445v-255h-86v255zM111 753l147 138h75l147 -138h-80l-105 70l-104 -70h-80z" />
<glyph unicode="&#x177;" horiz-adv-x="505" d="M20 516h92l108 -295l41 -114l40 114l106 295h78l-274 -724h-78l85 214zM108 581l107 148h94l107 -148h-70l-84 90l-84 -90h-70z" />
<glyph unicode="&#x178;" horiz-adv-x="590" d="M30 700h95l183 -373l169 373h83l-216 -445v-255h-86v255zM133 825q0 22 16.5 38.5t39.5 16.5t39.5 -16.5t16.5 -38.5t-16.5 -38.5t-39.5 -16.5t-39.5 16.5t-16.5 38.5zM345 825q0 22 16.5 38.5t39.5 16.5t39.5 -16.5t16.5 -38.5t-16.5 -38.5t-39.5 -16.5t-39.5 16.5 t-16.5 38.5z" />
<glyph unicode="&#x179;" horiz-adv-x="532" d="M40 0v67l357 566h-347v67h442v-67l-357 -566h357v-67h-452zM182 753l132 138h117l-169 -138h-80z" />
<glyph unicode="&#x17a;" horiz-adv-x="440" d="M40 0v58l273 400h-263v58h350v-58l-273 -400h273v-58h-360zM146 581l102 148h107l-139 -148h-70z" />
<glyph unicode="&#x17b;" horiz-adv-x="532" d="M40 0v67l357 566h-347v67h442v-67l-357 -566h357v-67h-452zM210 825q0 22 16.5 38.5t39.5 16.5t39.5 -16.5t16.5 -38.5t-16.5 -38.5t-39.5 -16.5t-39.5 16.5t-16.5 38.5z" />
<glyph unicode="&#x17c;" horiz-adv-x="440" d="M40 0v58l273 400h-263v58h350v-58l-273 -400h273v-58h-360zM164 660q0 22 16.5 38.5t39.5 16.5t39.5 -16.5t16.5 -38.5t-16.5 -38.5t-39.5 -16.5t-39.5 16.5t-16.5 38.5z" />
<glyph unicode="&#x17d;" horiz-adv-x="532" d="M40 0v67l357 566h-347v67h442v-67l-357 -566h357v-67h-452zM82 891h80l104 -70l105 70h80l-147 -138h-75z" />
<glyph unicode="&#x17e;" horiz-adv-x="440" d="M40 0v58l273 400h-263v58h350v-58l-273 -400h273v-58h-360zM66 729h70l84 -90l84 90h70l-107 -148h-94z" />
<glyph unicode="&#x17f;" horiz-adv-x="300" d="M110 0v615q0 144 154 144q45 0 76 -16v-57q-44 11 -65 11q-85 0 -85 -82v-615h-80z" />
<glyph unicode="&#x192;" horiz-adv-x="602" d="M-40 -43h93q12 -113 101 -113q43 0 73.5 30t30.5 97v243h-160v67h160v228q0 96 54 151t136 55q86 0 138 -47t56 -133h-93q-12 113 -101 113q-43 0 -73.5 -30t-30.5 -97v-240h160v-67h-160v-231q0 -96 -54 -151t-136 -55q-86 0 -138 47t-56 133z" />
<glyph unicode="&#x1fc;" horiz-adv-x="935" d="M10 0l470 700h405v-67h-319v-231h299v-67h-299v-268h319v-67h-405v198h-245l-131 -198h-94zM278 264h202v311l-72 -114zM513 753l132 138h117l-169 -138h-80z" />
<glyph unicode="&#x1fd;" horiz-adv-x="879" d="M50 120q0 69 58.5 117.5t189.5 48.5q35 0 88 -5v64q0 127 -105 127q-61 0 -90.5 -29.5t-32.5 -96.5h-87q1 88 55.5 136.5t154.5 48.5q120 0 163 -79q62 79 165 79q112 0 169.5 -74.5t49.5 -203.5h-356q1 -106 37 -157.5t100 -51.5q52 0 80.5 23t39.5 73h89 q-9 -67 -64.5 -111t-144.5 -44q-135 0 -189 110q-39 -49 -94 -79.5t-119 -30.5q-71 0 -114 37.5t-43 97.5zM133 132q0 -41 26 -61.5t72 -20.5q47 0 93 27.5t77 65.5q-11 33 -14 84q-41 4 -83 4q-171 0 -171 -99zM390 581l102 148h107l-139 -148h-70zM475 309h262 q0 79 -34 121t-94 42q-52 0 -88.5 -41t-45.5 -122z" />
<glyph unicode="&#x218;" d="M50 205h93q12 -153 164 -153q66 0 111 35.5t45 99.5q0 29 -10.5 50.5t-24 34.5t-40.5 23.5t-44.5 15t-51.5 11.5q-33 7 -46.5 10t-44 12t-45 17.5t-37 23.5t-32.5 33t-18.5 44t-8.5 57q0 87 66.5 141.5t168.5 54.5q116 0 180.5 -54.5t68.5 -155.5h-93q-6 76 -45.5 109.5 t-110.5 33.5q-66 0 -107 -29t-41 -88q0 -29 10 -50.5t23 -34t39 -23t43 -15t51 -11.5q33 -7 46.5 -10t45 -12.5t46.5 -17.5t37.5 -23.5t33.5 -33t19.5 -44t8.5 -57.5q0 -92 -71 -153t-172 -61q-117 0 -185 56.5t-72 163.5zM241 -248l20 180h79l-39 -180h-60z" />
<glyph unicode="&#x219;" horiz-adv-x="508" d="M50 144h87q3 -49 31.5 -74.5t96.5 -25.5q51 0 83 25t32 70q0 23 -11 39t-35 26t-40 14.5t-49 10.5q-22 4 -28.5 5t-28 6t-30 8.5t-26.5 10.5t-26 13.5t-20.5 17.5t-17.5 23t-9.5 28t-4.5 35q0 72 54 113.5t144 41.5q95 0 144 -38t50 -106h-87q-3 45 -29 65t-83 20 q-52 0 -83.5 -21t-31.5 -60q0 -19 8 -34t17.5 -23t31 -15.5t32.5 -10t38 -7.5q32 -6 44.5 -8.5t42.5 -10.5t44.5 -17.5t33 -24.5t26.5 -37t8 -49q0 -74 -55.5 -121.5t-142.5 -47.5q-107 0 -158 43t-52 116zM205 -248l20 180h79l-39 -180h-60z" />
<glyph unicode="&#x21a;" horiz-adv-x="542" d="M30 633v67h482v-67h-198v-633h-86v633h-198zM212 -248l20 180h79l-39 -180h-60z" />
<glyph unicode="&#x21b;" horiz-adv-x="380" d="M20 458v58h90v144h80v-144h150v-58h-150v-324q0 -86 72 -86q35 0 88 17v-57q-46 -23 -113 -23q-56 0 -91.5 33.5t-35.5 95.5v344h-90zM136 -248l20 180h79l-39 -180h-60z" />
<glyph unicode="&#x2c6;" horiz-adv-x="408" d="M50 581l107 148h94l107 -148h-70l-84 90l-84 -90h-70z" />
<glyph unicode="&#x2c7;" horiz-adv-x="408" d="M50 729h70l84 -90l84 90h70l-107 -148h-94z" />
<glyph unicode="&#x2d8;" horiz-adv-x="364" d="M50 729h58q0 -41 19 -65t55 -24t55 24t19 65h58q0 -76 -36 -116t-96 -40t-96 40t-36 116z" />
<glyph unicode="&#x2d9;" horiz-adv-x="212" d="M50 660q0 22 16.5 38.5t39.5 16.5t39.5 -16.5t16.5 -38.5t-16.5 -38.5t-39.5 -16.5t-39.5 16.5t-16.5 38.5z" />
<glyph unicode="&#x2da;" horiz-adv-x="316" d="M50 655q0 44 31 69.5t77 25.5t77 -25.5t31 -69.5t-31 -69.5t-77 -25.5t-77 25.5t-31 69.5zM110 655q0 -24 13 -36.5t35 -12.5t35 12.5t13 36.5t-13 36.5t-35 12.5t-35 -12.5t-13 -36.5z" />
<glyph unicode="&#x2db;" horiz-adv-x="294" d="M50 -150q0 87 114 150h80q-125 -62 -125 -140q0 -24 15 -38t37 -14q32 0 73 23v-55q-42 -24 -91 -24q-46 0 -74.5 27.5t-28.5 70.5z" />
<glyph unicode="&#x2dc;" horiz-adv-x="427" d="M50 618q18 43 48.5 66t58.5 23q29 0 69 -23.5t53 -23.5q31 0 53 43l45 -23q-17 -43 -47.5 -66t-58.5 -23t-68.5 23.5t-54.5 23.5q-30 0 -53 -43z" />
<glyph unicode="&#x2dd;" horiz-adv-x="426" d="M50 581l82 148h97l-111 -148h-68zM197 581l82 148h97l-111 -148h-68z" />
<glyph unicode="&#x326;" horiz-adv-x="0" d="M-149 -248l20 180h79l-39 -180h-60z" />
<glyph unicode="&#x3c0;" horiz-adv-x="586" d="M80 0v516h426v-516h-80v458h-266v-458h-80z" />
<glyph unicode="&#xe3f;" horiz-adv-x="623" d="M90 0v700h171v120h78v-121q89 -7 146.5 -49t57.5 -127q0 -56 -34 -102t-83 -59q61 -6 104 -44t43 -113q0 -93 -64 -147.5t-170 -57.5v-120h-78v120h-171zM176 67h85v252h-85v-252zM176 386h85v247h-85v-247zM339 67q144 6 144 138q0 109 -144 114v-252zM339 388 q54 8 84 42.5t30 90.5q0 100 -114 111v-244z" />
<glyph unicode="&#x1e80;" horiz-adv-x="910" d="M10 700h95l125 -478l29 -114l30 114l129 478h95l135 -478l32 -118l27 118l111 478h82l-180 -700h-90l-138 476l-33 118l-31 -118l-132 -476h-90zM311 891h117l132 -138h-80z" />
<glyph unicode="&#x1e81;" horiz-adv-x="788" d="M20 516h90l96 -313l34 -114l31 114l89 313h76l95 -313l34 -114l32 114l93 313h78l-170 -516h-75l-93 295l-35 114l-33 -114l-87 -295h-77zM221 729h107l102 -148h-70z" />
<glyph unicode="&#x1e82;" horiz-adv-x="910" d="M10 700h95l125 -478l29 -114l30 114l129 478h95l135 -478l32 -118l27 118l111 478h82l-180 -700h-90l-138 476l-33 118l-31 -118l-132 -476h-90zM351 753l132 138h117l-169 -138h-80z" />
<glyph unicode="&#x1e83;" horiz-adv-x="788" d="M20 516h90l96 -313l34 -114l31 114l89 313h76l95 -313l34 -114l32 114l93 313h78l-170 -516h-75l-93 295l-35 114l-33 -114l-87 -295h-77zM368 581l102 148h107l-139 -148h-70z" />
<glyph unicode="&#x1e84;" horiz-adv-x="910" d="M10 700h95l125 -478l29 -114l30 114l129 478h95l135 -478l32 -118l27 118l111 478h82l-180 -700h-90l-138 476l-33 118l-31 -118l-132 -476h-90zM293 825q0 22 16.5 38.5t39.5 16.5t39.5 -16.5t16.5 -38.5t-16.5 -38.5t-39.5 -16.5t-39.5 16.5t-16.5 38.5zM505 825 q0 22 16.5 38.5t39.5 16.5t39.5 -16.5t16.5 -38.5t-16.5 -38.5t-39.5 -16.5t-39.5 16.5t-16.5 38.5z" />
<glyph unicode="&#x1e85;" horiz-adv-x="788" d="M20 516h90l96 -313l34 -114l31 114l89 313h76l95 -313l34 -114l32 114l93 313h78l-170 -516h-75l-93 295l-35 114l-33 -114l-87 -295h-77zM247 660q0 22 16.5 38.5t39.5 16.5t39.5 -16.5t16.5 -38.5t-16.5 -38.5t-39.5 -16.5t-39.5 16.5t-16.5 38.5zM429 660 q0 22 16.5 38.5t39.5 16.5t39.5 -16.5t16.5 -38.5t-16.5 -38.5t-39.5 -16.5t-39.5 16.5t-16.5 38.5z" />
<glyph unicode="&#x1e9e;" horiz-adv-x="665" d="M90 0v402q0 152 70 225t193 73h232v-67l-170 -240q60 -8 104 -32t65.5 -56.5t31 -63t9.5 -61.5q0 -91 -62 -143t-143 -52q-80 0 -129.5 38t-50.5 100h93q6 -71 92 -71q49 0 79.5 31.5t30.5 96.5t-47.5 107.5t-133.5 42.5h-30v67l167 236h-138q-177 0 -177 -221v-412h-86z " />
<glyph unicode="&#x1ef2;" horiz-adv-x="590" d="M30 700h95l183 -373l169 373h83l-216 -445v-255h-86v255zM151 891h117l132 -138h-80z" />
<glyph unicode="&#x1ef3;" horiz-adv-x="505" d="M20 516h92l108 -295l41 -114l40 114l106 295h78l-274 -724h-78l85 214zM118 729h107l102 -148h-70z" />
<glyph unicode="&#x2000;" horiz-adv-x="467" />
<glyph unicode="&#x2001;" horiz-adv-x="935" />
<glyph unicode="&#x2002;" horiz-adv-x="467" />
<glyph unicode="&#x2003;" horiz-adv-x="935" />
<glyph unicode="&#x2004;" horiz-adv-x="311" />
<glyph unicode="&#x2005;" horiz-adv-x="233" />
<glyph unicode="&#x2006;" horiz-adv-x="155" />
<glyph unicode="&#x2007;" horiz-adv-x="155" />
<glyph unicode="&#x2008;" horiz-adv-x="116" />
<glyph unicode="&#x2009;" horiz-adv-x="187" />
<glyph unicode="&#x200a;" horiz-adv-x="51" />
<glyph unicode="&#x2010;" horiz-adv-x="340" d="M50 243v67h240v-67h-240z" />
<glyph unicode="&#x2011;" horiz-adv-x="340" d="M50 243v67h240v-67h-240z" />
<glyph unicode="&#x2012;" horiz-adv-x="340" d="M50 243v67h240v-67h-240z" />
<glyph unicode="&#x2013;" horiz-adv-x="500" d="M40 243v67h420v-67h-420z" />
<glyph unicode="&#x2014;" horiz-adv-x="1000" d="M40 243v67h920v-67h-920z" />
<glyph unicode="&#x2018;" horiz-adv-x="238" d="M40 610l85 250h73l-70 -250h-88z" />
<glyph unicode="&#x2019;" horiz-adv-x="238" d="M40 610l70 250h88l-85 -250h-73z" />
<glyph unicode="&#x201a;" horiz-adv-x="238" d="M40 -160l70 250h88l-85 -250h-73z" />
<glyph unicode="&#x201c;" horiz-adv-x="388" d="M40 610l85 250h73l-70 -250h-88zM190 610l85 250h73l-70 -250h-88z" />
<glyph unicode="&#x201d;" horiz-adv-x="388" d="M40 610l70 250h88l-85 -250h-73zM190 610l70 250h88l-85 -250h-73z" />
<glyph unicode="&#x201e;" horiz-adv-x="388" d="M40 -160l70 250h88l-85 -250h-73zM190 -160l70 250h88l-85 -250h-73z" />
<glyph unicode="&#x2020;" horiz-adv-x="482" d="M50 463v67h148v170h86v-170h148v-67h-148v-463h-86v463h-148z" />
<glyph unicode="&#x2021;" horiz-adv-x="482" d="M50 170v67h148v226h-148v67h148v170h86v-170h148v-67h-148v-226h148v-67h-148v-170h-86v170h-148z" />
<glyph unicode="&#x2022;" horiz-adv-x="336" d="M50 350q0 50 34.5 84t83.5 34t83.5 -34t34.5 -84q0 -51 -34.5 -84.5t-83.5 -33.5t-83.5 33.5t-34.5 84.5z" />
<glyph unicode="&#x2026;" horiz-adv-x="820" d="M60 45q0 26 17.5 43t42.5 17t42.5 -17t17.5 -43t-17.5 -43t-42.5 -17t-42.5 17t-17.5 43zM350 45q0 26 17.5 43t42.5 17t42.5 -17t17.5 -43t-17.5 -43t-42.5 -17t-42.5 17t-17.5 43zM640 45q0 26 17.5 43t42.5 17t42.5 -17t17.5 -43t-17.5 -43t-42.5 -17t-42.5 17 t-17.5 43z" />
<glyph unicode="&#x202f;" horiz-adv-x="187" />
<glyph unicode="&#x2030;" horiz-adv-x="1382" d="M50 490q0 99 50.5 159t131.5 60t131.5 -60t50.5 -159t-50.5 -159t-131.5 -60t-131.5 60t-50.5 159zM128 490q0 -82 29 -121.5t75 -39.5q45 0 74 39.5t29 121.5t-29 121.5t-74 39.5q-46 0 -75 -39.5t-29 -121.5zM225 0l435 700h83l-435 -700h-83zM560 210q0 99 50.5 159 t131.5 60t131.5 -60t50.5 -159t-50.5 -159t-131.5 -60t-131.5 60t-50.5 159zM638 210q0 -82 29 -121.5t75 -39.5q45 0 74 39.5t29 121.5t-29 121.5t-74 39.5q-46 0 -75 -39.5t-29 -121.5zM968 210q0 99 50.5 159t131.5 60t131.5 -60t50.5 -159t-50.5 -159t-131.5 -60 t-131.5 60t-50.5 159zM1046 210q0 -82 29 -121.5t75 -39.5q45 0 74 39.5t29 121.5t-29 121.5t-74 39.5q-46 0 -75 -39.5t-29 -121.5z" />
<glyph unicode="&#x2039;" horiz-adv-x="340" d="M50 232v71l240 200v-93l-170 -141l170 -140v-97z" />
<glyph unicode="&#x203a;" horiz-adv-x="340" d="M50 32v93l170 141l-170 140v97l240 -200v-71z" />
<glyph unicode="&#x2044;" horiz-adv-x="558" d="M20 0l435 700h83l-435 -700h-83z" />
<glyph unicode="&#x205f;" horiz-adv-x="233" />
<glyph unicode="&#x20a1;" horiz-adv-x="668" d="M40 -120l72 226q-62 94 -62 244q0 151 69 248t186 114l34 108h83l-34 -107q41 -5 72 -16l39 123h83l-52 -164q71 -61 88 -176h-99q-6 44 -21 76l-160 -504h11q146 0 170 168h99q-18 -117 -88.5 -176t-180.5 -59q-22 0 -32 1l-34 -106h-83l39 124q-37 14 -65 36l-51 -160 h-83zM143 350q0 -59 10 -114l127 399q-62 -25 -99.5 -96.5t-37.5 -188.5zM200 123q29 -36 61 -51l177 555q-30 17 -71 20z" />
<glyph unicode="&#x20a5;" horiz-adv-x="920" d="M80 0v516h80v-67q80 82 177 82q112 0 148 -87q66 68 152 83l78 109h83l-78 -109q55 -11 87.5 -52t32.5 -113v-362h-80v342q0 111 -86 121l-174 -243v-220h-80v109l-157 -219h-83l240 335v117q0 62 -25.5 92t-80.5 30q-41 0 -83.5 -21t-70.5 -50v-393h-80zM498 392 q2 -20 2 -30v-26l80 111q-45 -18 -82 -55z" />
<glyph unicode="&#x20a6;" horiz-adv-x="723" d="M10 220v67h100v133h-100v67h100v213h98l121 -213h206v213h78v-213h100v-67h-100v-133h100v-67h-100v-220h-98l-125 220h-202v-220h-78v220h-100zM186 577l2 -90h49zM188 287h163l-75 133h-88v-133zM368 420l75 -133h92v133h-167zM482 220l55 -97l-2 97h-53z" />
<glyph unicode="&#x20a8;" horiz-adv-x="587" d="M40 483v67h318q-29 83 -147 83h-171v67h111h376v-67h-135q42 -36 56 -83h79v-67h-70q-3 -102 -73.5 -152.5t-172.5 -50.5l288 -280h-113l-282 280v67h107q152 0 156 136h-327z" />
<glyph unicode="&#x20a9;" horiz-adv-x="930" d="M10 220v67h140l-36 133h-104v67h87l-57 213h95l49 -213h189l55 213h95l56 -213h184l45 213h82l-52 -213h82v-67h-98l-32 -133h130v-67h-147l-53 -220h-90l-57 220h-199l-58 -220h-90l-58 220h-158zM200 420l31 -133h91l34 133h-156zM247 220l28 -112l29 112h-57zM392 287 h163l-34 133h-94zM445 487h58l-30 107zM596 420l35 -133h90l28 133h-153zM649 220l31 -116l27 116h-58z" />
<glyph unicode="&#x20aa;" horiz-adv-x="727" d="M90 0v700h182q116 0 173.5 -58t57.5 -205q0 -100 -26 -240h-73q25 152 25 238q0 105 -38.5 151.5t-128.5 46.5h-94v-633h-78zM250 0v502h78v-435h94q89 0 130.5 66t41.5 210q0 145 -45 357h73q19 -79 32 -179t13 -168q0 -191 -60.5 -272t-174.5 -81h-182z" />
<glyph unicode="&#x20ab;" horiz-adv-x="569" d="M50 0v67h499v-67h-499zM50 348q0 109 61.5 166t144.5 57q42 0 78 -17t55 -44v102h-130v63h130v69h80v-69h80v-63h-80v-472h-80v57q-55 -72 -148 -72q-76 0 -133.5 57.5t-57.5 165.5zM136 348q0 -79 34.5 -117.5t83.5 -38.5q77 0 135 61v195q-53 56 -130 56 q-50 0 -86.5 -39t-36.5 -117z" />
<glyph unicode="&#x20ac;" horiz-adv-x="668" d="M20 214v67h73q-3 33 -3 69q0 32 3 64h-73v67h84q25 110 93 172t167 62q102 0 169.5 -59t84.5 -176h-99q-24 168 -155 168q-60 0 -104 -41.5t-64 -125.5h204v-67h-214q-3 -30 -3 -64q0 -38 3 -69h214v-67h-204q36 -162 168 -162q131 0 155 168h99q-17 -117 -84.5 -176 t-169.5 -59q-104 0 -169.5 60t-90.5 169h-84z" />
<glyph unicode="&#x20ad;" horiz-adv-x="582" d="M0 334v67h90v299h86v-299h4l237 299h97l-247 -299h253v-67h-242l274 -334h-113l-263 333v-333h-86v334h-90z" />
<glyph unicode="&#x20ae;" horiz-adv-x="542" d="M30 633v67h482v-67h-198v-154l130 60v-71l-130 -60v-94l130 60v-71l-130 -60v-243h-86v204l-130 -60v71l130 60v94l-130 -60v71l130 60v193h-198z" />
<glyph unicode="&#x20b1;" horiz-adv-x="608" d="M0 446v67h90v187h192q93 0 163 -48.5t81 -138.5h72v-67h-72q-12 -90 -81.5 -138t-162.5 -48h-106v-260h-86v446h-90zM176 327h106q63 0 104 30t50 89h-260v-119zM176 513h260q-9 60 -50 90t-104 30h-106v-120z" />
<glyph unicode="&#x20b4;" horiz-adv-x="619" d="M50 314v67h245q39 13 62 23t49 27t38 40t12 53q0 124 -142 124q-138 0 -151 -123h-93q5 88 68 139t176 51q109 0 169 -50.5t60 -133.5q0 -97 -82 -150h108v-67h-270q-72 -26 -109 -55t-37 -83q0 -124 142 -124q148 0 161 123h93q-5 -87 -72.5 -138.5t-181.5 -51.5 q-109 0 -169 50.5t-60 133.5q0 92 75 145h-91z" />
<glyph unicode="&#x20b5;" horiz-adv-x="668" d="M50 350q0 152 68.5 248.5t186.5 113.5v108h78v-106q96 -9 157.5 -67.5t77.5 -166.5h-99q-21 147 -136 166v-592q115 19 136 166h99q-16 -108 -77.5 -166.5t-157.5 -67.5v-106h-78v108q-122 15 -188.5 111.5t-66.5 250.5zM143 350q0 -131 43.5 -204t118.5 -90v587 q-72 -17 -117 -90.5t-45 -202.5z" />
<glyph unicode="&#x2113;" horiz-adv-x="460" d="M20 186v57q54 32 90 58v128q0 138 42 212t113 74q48 0 81.5 -29.5t33.5 -101.5q0 -67 -53 -144t-137 -146v-160q0 -86 72 -86q35 0 88 17v-57q-46 -23 -113 -23q-56 0 -91.5 33.5t-35.5 95.5v122q-44 -29 -90 -50zM190 367q110 108 110 217q0 72 -38 72 q-35 0 -53.5 -62.5t-18.5 -164.5v-62z" />
<glyph unicode="&#x2117;" horiz-adv-x="830" d="M50 350q0 152 105 258.5t260 106.5t260 -106.5t105 -258.5t-105 -258.5t-260 -106.5t-260 106.5t-105 258.5zM117 350q0 -127 86.5 -216t211.5 -89t211.5 89t86.5 216t-86.5 216t-211.5 89t-211.5 -89t-86.5 -216zM297 143v413h131q62 0 107 -33.5t45 -96.5 q0 -62 -45 -96t-107 -34h-68v-153h-63zM360 347h68q41 0 65 20.5t24 58.5q0 39 -23.5 59t-65.5 20h-68v-158z" />
<glyph unicode="&#x2120;" horiz-adv-x="700" d="M50 489h58q6 -48 62 -48q22 0 39 10.5t17 33.5q0 15 -11 24t-22 12.5t-36 8.5q-21 4 -29.5 6t-26 9t-25.5 15.5t-15 24.5t-7 37q0 39 30.5 62.5t79.5 23.5q51 0 82 -23.5t32 -66.5h-58q-5 42 -56 42q-54 0 -54 -35q0 -15 11 -24t22 -12.5t36 -8.5q21 -4 29.5 -6t26 -9 t25.5 -15.5t15 -24.5t7 -37q0 -43 -32 -69t-80 -26q-52 0 -85 24.5t-35 71.5zM336 401v299h58l102 -225l102 225h52v-299h-56v108l2 78l-84 -186h-36l-89 195l1 -87v-108h-52z" />
<glyph unicode="&#x2122;" horiz-adv-x="679" d="M50 654v46h219v-46h-83v-253h-55v253h-81zM315 401v299h58l102 -225l102 225h52v-299h-56v108l2 78l-84 -186h-36l-89 195l1 -87v-108h-52z" />
<glyph unicode="&#x2126;" horiz-adv-x="740" d="M40 0v67h172q-68 46 -115 132t-47 181q0 146 88 240.5t232 94.5t232 -94.5t88 -240.5q0 -95 -47.5 -181t-115.5 -132h173v-67h-250v67q63 46 105 123t42 180q0 135 -64 206.5t-163 71.5t-163 -71.5t-64 -206.5q0 -103 42 -180t105 -123v-67h-250z" />
<glyph unicode="&#x212e;" horiz-adv-x="774" d="M50 321q0 144 98 241t239 97t239 -97t98 -241h-523v-239q79 -65 186 -65q75 0 138 34t104 93h47q-45 -74 -121.5 -117t-167.5 -43q-141 0 -239 96.5t-98 240.5zM201 354h373l-1 206q-80 66 -186 66t-186 -66v-206z" />
<glyph unicode="&#x2153;" horiz-adv-x="854" d="M50 580v67l102 53h74v-420h-74v353zM119 0l435 700h83l-435 -700h-83zM478 111h78q8 -62 88 -62q84 0 84 70q0 33 -25 51.5t-73 18.5h-55v58h55q85 0 85 64q0 60 -75 60q-69 0 -80 -62h-79q5 56 48 88t111 32t109.5 -32t41.5 -86q0 -31 -22 -56.5t-62 -34.5q49 -6 73 -35 t24 -66q0 -56 -47.5 -92t-112.5 -36q-76 0 -120 32t-46 88z" />
<glyph unicode="&#x2154;" horiz-adv-x="961" d="M50 574q2 64 43.5 99.5t110.5 35.5q66 0 107.5 -33t41.5 -96q0 -51 -37 -94.5t-138 -131.5l-21 -18h198v-56h-296v56q23 21 60.5 53t55 47.5t41.5 38.5t34.5 38t18.5 32.5t8 34.5q0 71 -73 71q-67 0 -76 -77h-78zM226 0l435 700h83l-435 -700h-83zM585 111h78 q8 -62 88 -62q84 0 84 70q0 33 -25 51.5t-73 18.5h-55v58h55q85 0 85 64q0 60 -75 60q-69 0 -80 -62h-79q5 56 48 88t111 32t109.5 -32t41.5 -86q0 -31 -22 -56.5t-62 -34.5q49 -6 73 -35t24 -66q0 -56 -47.5 -92t-112.5 -36q-76 0 -120 32t-46 88z" />
<glyph unicode="&#x215b;" horiz-adv-x="854" d="M50 580v67l102 53h74v-420h-74v353zM119 0l435 700h83l-435 -700h-83zM474 112q0 39 25 68t67 38q-79 25 -79 97q0 52 42 83t110 31t110 -31t42 -83q0 -72 -79 -97q42 -9 67 -38t25 -68q0 -61 -46.5 -91t-118.5 -30t-118.5 30t-46.5 91zM551 120q0 -71 88 -71t88 71 q0 67 -88 67t-88 -67zM564 307q0 -62 75 -62t75 62q0 34 -21.5 49t-53.5 15t-53.5 -15t-21.5 -49z" />
<glyph unicode="&#x215c;" horiz-adv-x="947" d="M50 391h78q8 -62 88 -62q84 0 84 70q0 33 -25 51.5t-73 18.5h-55v58h55q85 0 85 64q0 60 -75 60q-69 0 -80 -62h-79q5 56 48 88t111 32t109.5 -32t41.5 -86q0 -31 -22 -56.5t-62 -34.5q49 -6 73 -35t24 -66q0 -56 -47.5 -92t-112.5 -36q-76 0 -120 32t-46 88zM212 0 l435 700h83l-435 -700h-83zM567 112q0 39 25 68t67 38q-79 25 -79 97q0 52 42 83t110 31t110 -31t42 -83q0 -72 -79 -97q42 -9 67 -38t25 -68q0 -61 -46.5 -91t-118.5 -30t-118.5 30t-46.5 91zM644 120q0 -71 88 -71t88 71q0 67 -88 67t-88 -67zM657 307q0 -62 75 -62t75 62 q0 34 -21.5 49t-53.5 15t-53.5 -15t-21.5 -49z" />
<glyph unicode="&#x215d;" horiz-adv-x="927" d="M50 379h78q9 -50 72 -50q83 0 83 86q0 92 -78 92q-51 0 -77 -34h-67v227h269v-58h-202v-109q32 32 93 32q60 0 99.5 -39t39.5 -111q0 -67 -47.5 -105.5t-112.5 -38.5q-70 0 -109 28t-41 80zM192 0l435 700h83l-435 -700h-83zM547 112q0 39 25 68t67 38q-79 25 -79 97 q0 52 42 83t110 31t110 -31t42 -83q0 -72 -79 -97q42 -9 67 -38t25 -68q0 -61 -46.5 -91t-118.5 -30t-118.5 30t-46.5 91zM624 120q0 -71 88 -71t88 71q0 67 -88 67t-88 -67zM637 307q0 -62 75 -62t75 62q0 34 -21.5 49t-53.5 15t-53.5 -15t-21.5 -49z" />
<glyph unicode="&#x215e;" horiz-adv-x="815" d="M50 642v58h274v-58l-164 -362h-73l167 362h-204zM80 0l435 700h83l-435 -700h-83zM435 112q0 39 25 68t67 38q-79 25 -79 97q0 52 42 83t110 31t110 -31t42 -83q0 -72 -79 -97q42 -9 67 -38t25 -68q0 -61 -46.5 -91t-118.5 -30t-118.5 30t-46.5 91zM512 120q0 -71 88 -71 t88 71q0 67 -88 67t-88 -67zM525 307q0 -62 75 -62t75 62q0 34 -21.5 49t-53.5 15t-53.5 -15t-21.5 -49z" />
<glyph unicode="&#x2190;" horiz-adv-x="735" d="M40 273l297 297l48 -47l-216 -217h526v-67h-525l215 -215l-48 -48z" />
<glyph unicode="&#x2191;" horiz-adv-x="674" d="M40 303l297 297l297 -297l-48 -48l-215 215v-525h-67v526l-217 -216z" />
<glyph unicode="&#x2192;" horiz-adv-x="735" d="M40 239v67h526l-216 217l48 47l297 -297l-297 -297l-48 48l215 215h-525z" />
<glyph unicode="&#x2193;" horiz-adv-x="674" d="M40 242l47 48l217 -216v526h67v-525l215 215l48 -48l-297 -297z" />
<glyph unicode="&#x2196;" horiz-adv-x="605" d="M80 96v420h420v-67h-306l371 -372l-47 -47l-371 372v-306h-67z" />
<glyph unicode="&#x2197;" horiz-adv-x="605" d="M40 77l371 372h-306v67h420v-420h-67v306l-371 -372z" />
<glyph unicode="&#x2198;" horiz-adv-x="605" d="M40 469l47 47l371 -372v306h67v-420h-420v67h306z" />
<glyph unicode="&#x2199;" horiz-adv-x="605" d="M80 30v420h67v-306l371 372l47 -47l-371 -372h306v-67h-420z" />
<glyph unicode="&#x2202;" horiz-adv-x="620" d="M50 182q0 126 72.5 198.5t187.5 72.5q53 0 99 -24t72 -62q3 44 3 94q0 119 -40.5 179t-102.5 60q-97 0 -135 -101h-88q21 74 81 117t153 43q98 0 158 -84.5t60 -229.5q0 -215 -82.5 -337.5t-235.5 -122.5q-87 0 -144.5 54t-57.5 143zM136 184q0 -64 35.5 -102t92.5 -38 q80 0 134 62.5t74 189.5q-21 40 -64.5 65t-97.5 25q-82 0 -128 -54.5t-46 -147.5z" />
<glyph unicode="&#x2205;" horiz-adv-x="662" d="M50 366q0 121 81 201.5t200 80.5q67 0 125 -28l45 70l54 -32l-45 -71q102 -84 102 -221q0 -121 -81 -201.5t-200 -80.5q-64 0 -124 27l-44 -70l-54 33l45 70q-104 83 -104 222zM117 366q0 -105 73 -165l230 362q-41 18 -89 18q-91 0 -152.5 -60t-61.5 -155zM244 168 q40 -17 87 -17q91 0 152.5 60t61.5 155q0 103 -71 164z" />
<glyph unicode="&#x2206;" horiz-adv-x="618" d="M30 0v66l227 634h90l241 -634v-66h-558zM114 66h379l-157 435l-40 114l-37 -114z" />
<glyph unicode="&#x220f;" horiz-adv-x="723" d="M90 0v700h543v-700h-86v633h-371v-633h-86z" />
<glyph unicode="&#x2211;" horiz-adv-x="565" d="M90 0v67l227 287l-227 279v67h425v-67h-325l195 -241v-67l-204 -258h334v-67h-425z" />
<glyph unicode="&#x2212;" horiz-adv-x="560" d="M50 332v67h460v-67h-460z" />
<glyph unicode="&#x221a;" horiz-adv-x="652" d="M40 458v58h172l109 -313l37 -114l36 114l160 497h78l-241 -700h-77l-169 458h-105z" />
<glyph unicode="&#x221e;" horiz-adv-x="783" d="M50 353q0 75 48 126t119 51q87 0 174 -119q42 56 83 87.5t92 31.5q71 0 119 -51t48 -126t-48 -126t-119 -51q-51 0 -92 31.5t-83 87.5q-87 -119 -174 -119q-71 0 -119 51t-48 126zM117 353q0 -49 28 -81.5t72 -32.5q24 0 49 17.5t41.5 38t43.5 58.5q-27 38 -43.5 58.5 t-41.5 38t-49 17.5q-44 0 -72 -32.5t-28 -81.5zM432 353q39 -57 69 -85.5t65 -28.5q44 0 72 32.5t28 81.5t-28 81.5t-72 32.5q-35 0 -65 -28.5t-69 -85.5z" />
<glyph unicode="&#x222b;" horiz-adv-x="414" d="M60 -156q43 0 73.5 30t30.5 97v538q0 96 54 151t136 55v-67q-43 0 -73.5 -30t-30.5 -97v-538q0 -96 -54 -151t-136 -55v67z" />
<glyph unicode="&#x2248;" horiz-adv-x="560" d="M30 226q34 66 70.5 92t80.5 26q41 0 78 -22.5t68.5 -45t57.5 -22.5q46 0 89 83l56 -32q-34 -66 -70.5 -92t-80.5 -26q-41 0 -78 22.5t-68.5 45t-57.5 22.5q-46 0 -89 -83zM30 426q34 66 70.5 92t80.5 26q41 0 78 -22.5t68.5 -45t57.5 -22.5q46 0 89 83l56 -32 q-34 -66 -70.5 -92t-80.5 -26q-41 0 -78 22.5t-68.5 45t-57.5 22.5q-46 0 -89 -83z" />
<glyph unicode="&#x2260;" horiz-adv-x="560" d="M50 232v67h168l51 133h-219v67h244l67 176h72l-67 -176h144v-67h-169l-51 -133h220v-67h-245l-67 -177h-72l67 177h-143z" />
<glyph unicode="&#x2264;" horiz-adv-x="560" d="M50 0v67h460v-67h-460zM50 332v71l460 200v-69l-379 -165l379 -164v-73z" />
<glyph unicode="&#x2265;" horiz-adv-x="560" d="M50 0v67h460v-67h-460zM50 132v69l379 165l-379 164v73l460 -200v-71z" />
<glyph unicode="&#x25ca;" horiz-adv-x="578" d="M50 350l200 350h78l200 -350l-200 -350h-78zM128 350l161 -282l161 282l-161 281z" />
<glyph unicode="&#x25fc;" horiz-adv-x="515" d="M0 0v515h515v-515h-515z" />
<glyph unicode="&#x27f5;" horiz-adv-x="1356" d="M40 273l297 297l48 -47l-216 -217h1147v-67h-1146l215 -215l-48 -48z" />
<glyph unicode="&#x27f6;" horiz-adv-x="1356" d="M40 239v67h1147l-216 217l48 47l297 -297l-297 -297l-48 48l215 215h-1146z" />
<glyph unicode="&#x301a;" horiz-adv-x="344" d="M120 -125v950h204v-57h-70v-836h70v-57h-204zM170 -68h34v836h-34v-836z" />
<glyph unicode="&#x301b;" horiz-adv-x="344" d="M20 -68h70v836h-70v57h204v-950h-204v57zM140 -68h34v836h-34v-836z" />
<glyph horiz-adv-x="740" d="M50 350q0 166 87 265.5t233 99.5t233 -99.5t87 -265.5t-87 -265.5t-233 -99.5t-233 99.5t-87 265.5zM143 350q0 -149 63.5 -223.5t163.5 -74.5t163.5 74.5t63.5 223.5t-63.5 223.5t-163.5 74.5t-163.5 -74.5t-63.5 -223.5zM240 -63h360v-67h-360v67z" />
<glyph horiz-adv-x="579" d="M50 258q0 70 20.5 124.5t54 86t73.5 47t83 15.5q86 0 138 -61v46h80v-516h-80v57q-70 -72 -168 -72q-83 0 -142 68.5t-59 204.5zM136 258q0 -106 40 -156t98 -50q87 0 145 61v295q-53 56 -135 56q-59 0 -103.5 -50.5t-44.5 -155.5z" />
<glyph horiz-adv-x="573" d="M30 -67q0 71 67 130q-32 24 -32 78q0 46 45 100q-61 45 -61 123q0 80 61.5 123.5t156.5 43.5q55 0 100 -15h176v-58h-89q31 -39 31 -94q0 -80 -61.5 -123.5t-156.5 -43.5q-66 0 -117 21q-11 -28 -11 -53q0 -50 54 -50h158q78 0 126.5 -37t48.5 -99q0 -85 -79 -143.5 t-187 -58.5q-112 0 -171 42t-59 114zM109 -38q0 -127 166 -127q74 0 119.5 33t45.5 90q0 43 -29 64t-70 21h-176q-11 0 -27 2q-29 -38 -29 -83zM135 364q0 -110 132 -110t132 110t-132 110t-132 -110z" />
<glyph horiz-adv-x="240" d="M-70 -150q37 -11 71 -11q37 0 58 20.5t21 61.5v595h80v-595q0 -71 -41.5 -107.5t-117.5 -36.5q-39 0 -71 16v57zM64 660q0 22 16.5 38.5t39.5 16.5t39.5 -16.5t16.5 -38.5t-16.5 -38.5t-39.5 -16.5t-39.5 16.5t-16.5 38.5z" />
<glyph horiz-adv-x="360" d="M20 458v58h120v144h80v-144h120v-58h-120v-458h-80v458h-120z" />
<glyph horiz-adv-x="480" d="M64 660q0 22 16.5 38.5t39.5 16.5t39.5 -16.5t16.5 -38.5t-16.5 -38.5t-39.5 -16.5t-39.5 16.5t-16.5 38.5zM80 0v516h80v-516h-80zM170 -150q37 -11 71 -11q37 0 58 20.5t21 61.5v595h80v-595q0 -71 -41.5 -107.5t-117.5 -36.5q-39 0 -71 16v57zM304 660q0 22 16.5 38.5 t39.5 16.5t39.5 -16.5t16.5 -38.5t-16.5 -38.5t-39.5 -16.5t-39.5 16.5t-16.5 38.5z" />
<glyph horiz-adv-x="579" d="M50 258q0 70 20.5 124.5t54 86t73.5 47t83 15.5q86 0 138 -61v46h80v-516h-80v57q-70 -72 -168 -72q-83 0 -142 68.5t-59 204.5zM136 258q0 -106 40 -156t98 -50q87 0 145 61v295q-53 56 -135 56q-59 0 -103.5 -50.5t-44.5 -155.5zM200 581l102 148h107l-139 -148h-70z " />
<glyph horiz-adv-x="579" d="M50 258q0 70 20.5 124.5t54 86t73.5 47t83 15.5q86 0 138 -61v46h80v-516h-80v57q-70 -72 -168 -72q-83 0 -142 68.5t-59 204.5zM136 258q0 -106 40 -156t98 -50q87 0 145 61v295q-53 56 -135 56q-59 0 -103.5 -50.5t-44.5 -155.5zM162 729h58q0 -41 19 -65t55 -24t55 24 t19 65h58q0 -76 -36 -116t-96 -40t-96 40t-36 116z" />
<glyph horiz-adv-x="579" d="M50 258q0 70 20.5 124.5t54 86t73.5 47t83 15.5q86 0 138 -61v46h80v-516h-80v57q-70 -72 -168 -72q-83 0 -142 68.5t-59 204.5zM136 258q0 -106 40 -156t98 -50q87 0 145 61v295q-53 56 -135 56q-59 0 -103.5 -50.5t-44.5 -155.5zM140 581l107 148h94l107 -148h-70 l-84 90l-84 -90h-70z" />
<glyph horiz-adv-x="579" d="M50 258q0 70 20.5 124.5t54 86t73.5 47t83 15.5q86 0 138 -61v46h80v-516h-80v57q-70 -72 -168 -72q-83 0 -142 68.5t-59 204.5zM136 258q0 -106 40 -156t98 -50q87 0 145 61v295q-53 56 -135 56q-59 0 -103.5 -50.5t-44.5 -155.5zM147 660q0 22 16.5 38.5t39.5 16.5 t39.5 -16.5t16.5 -38.5t-16.5 -38.5t-39.5 -16.5t-39.5 16.5t-16.5 38.5zM329 660q0 22 16.5 38.5t39.5 16.5t39.5 -16.5t16.5 -38.5t-16.5 -38.5t-39.5 -16.5t-39.5 16.5t-16.5 38.5z" />
<glyph horiz-adv-x="579" d="M50 258q0 70 20.5 124.5t54 86t73.5 47t83 15.5q86 0 138 -61v46h80v-516h-80v57q-70 -72 -168 -72q-83 0 -142 68.5t-59 204.5zM136 258q0 -106 40 -156t98 -50q87 0 145 61v295q-53 56 -135 56q-59 0 -103.5 -50.5t-44.5 -155.5zM140 729h107l102 -148h-70z" />
<glyph horiz-adv-x="579" d="M50 258q0 70 20.5 124.5t54 86t73.5 47t83 15.5q86 0 138 -61v46h80v-516h-80v57q-70 -72 -168 -72q-83 0 -142 68.5t-59 204.5zM136 258q0 -106 40 -156t98 -50q87 0 145 61v295q-53 56 -135 56q-59 0 -103.5 -50.5t-44.5 -155.5zM149 612v63h290v-63h-290z" />
<glyph horiz-adv-x="579" d="M50 258q0 70 20.5 124.5t54 86t73.5 47t83 15.5q86 0 138 -61v46h80v-516q-125 -62 -125 -140q0 -24 15 -38t37 -14q32 0 73 23v-55q-42 -24 -91 -24q-46 0 -74.5 27.5t-28.5 70.5q0 87 114 150v57q-70 -72 -168 -72q-83 0 -142 68.5t-59 204.5zM136 258q0 -106 40 -156 t98 -50q87 0 145 61v295q-53 56 -135 56q-59 0 -103.5 -50.5t-44.5 -155.5z" />
<glyph horiz-adv-x="579" d="M50 258q0 70 20.5 124.5t54 86t73.5 47t83 15.5q86 0 138 -61v46h80v-516h-80v57q-70 -72 -168 -72q-83 0 -142 68.5t-59 204.5zM136 258q0 -106 40 -156t98 -50q87 0 145 61v295q-53 56 -135 56q-59 0 -103.5 -50.5t-44.5 -155.5zM186 655q0 44 31 69.5t77 25.5 t77 -25.5t31 -69.5t-31 -69.5t-77 -25.5t-77 25.5t-31 69.5zM246 655q0 -24 13 -36.5t35 -12.5t35 12.5t13 36.5t-13 36.5t-35 12.5t-35 -12.5t-13 -36.5z" />
<glyph horiz-adv-x="579" d="M50 258q0 70 20.5 124.5t54 86t73.5 47t83 15.5q86 0 138 -61v46h80v-516h-80v57q-70 -72 -168 -72q-83 0 -142 68.5t-59 204.5zM131 618q18 43 48.5 66t58.5 23t68 -23.5t54 -23.5q32 0 53 43l45 -23q-17 -43 -47.5 -66t-58.5 -23t-68.5 23.5t-54.5 23.5q-30 0 -53 -43z M136 258q0 -106 40 -156t98 -50q87 0 145 61v295q-53 56 -135 56q-59 0 -103.5 -50.5t-44.5 -155.5z" />
<glyph horiz-adv-x="573" d="M30 -67q0 71 67 130q-32 24 -32 78q0 46 45 100q-61 45 -61 123q0 80 61.5 123.5t156.5 43.5q55 0 100 -15h176v-58h-89q31 -39 31 -94q0 -80 -61.5 -123.5t-156.5 -43.5q-66 0 -117 21q-11 -28 -11 -53q0 -50 54 -50h158q78 0 126.5 -37t48.5 -99q0 -85 -79 -143.5 t-187 -58.5q-112 0 -171 42t-59 114zM109 -38q0 -127 166 -127q74 0 119.5 33t45.5 90q0 43 -29 64t-70 21h-176q-11 0 -27 2q-29 -38 -29 -83zM135 364q0 -110 132 -110t132 110t-132 110t-132 -110zM139 729h58q0 -41 19 -65t55 -24t55 24t19 65h58q0 -76 -36 -116 t-96 -40t-96 40t-36 116z" />
<glyph horiz-adv-x="573" d="M30 -67q0 71 67 130q-32 24 -32 78q0 46 45 100q-61 45 -61 123q0 80 61.5 123.5t156.5 43.5q55 0 100 -15h176v-58h-89q31 -39 31 -94q0 -80 -61.5 -123.5t-156.5 -43.5q-66 0 -117 21q-11 -28 -11 -53q0 -50 54 -50h158q78 0 126.5 -37t48.5 -99q0 -85 -79 -143.5 t-187 -58.5q-112 0 -171 42t-59 114zM109 -38q0 -127 166 -127q74 0 119.5 33t45.5 90q0 43 -29 64t-70 21h-176q-11 0 -27 2q-29 -38 -29 -83zM117 581l107 148h94l107 -148h-70l-84 90l-84 -90h-70zM135 364q0 -110 132 -110t132 110t-132 110t-132 -110z" />
<glyph horiz-adv-x="573" d="M30 -67q0 71 67 130q-32 24 -32 78q0 46 45 100q-61 45 -61 123q0 80 61.5 123.5t156.5 43.5q55 0 100 -15h176v-58h-89q31 -39 31 -94q0 -80 -61.5 -123.5t-156.5 -43.5q-66 0 -117 21q-11 -28 -11 -53q0 -50 54 -50h158q78 0 126.5 -37t48.5 -99q0 -85 -79 -143.5 t-187 -58.5q-112 0 -171 42t-59 114zM109 -38q0 -127 166 -127q74 0 119.5 33t45.5 90q0 43 -29 64t-70 21h-176q-11 0 -27 2q-29 -38 -29 -83zM135 364q0 -110 132 -110t132 110t-132 110t-132 -110zM227 585l39 180h60l-20 -180h-79z" />
<glyph horiz-adv-x="573" d="M30 -67q0 71 67 130q-32 24 -32 78q0 46 45 100q-61 45 -61 123q0 80 61.5 123.5t156.5 43.5q55 0 100 -15h176v-58h-89q31 -39 31 -94q0 -80 -61.5 -123.5t-156.5 -43.5q-66 0 -117 21q-11 -28 -11 -53q0 -50 54 -50h158q78 0 126.5 -37t48.5 -99q0 -85 -79 -143.5 t-187 -58.5q-112 0 -171 42t-59 114zM109 -38q0 -127 166 -127q74 0 119.5 33t45.5 90q0 43 -29 64t-70 21h-176q-11 0 -27 2q-29 -38 -29 -83zM135 364q0 -110 132 -110t132 110t-132 110t-132 -110zM215 660q0 22 16.5 38.5t39.5 16.5t39.5 -16.5t16.5 -38.5t-16.5 -38.5 t-39.5 -16.5t-39.5 16.5t-16.5 38.5z" />
<glyph horiz-adv-x="240" d="M64 660q0 22 16.5 38.5t39.5 16.5t39.5 -16.5t16.5 -38.5t-16.5 -38.5t-39.5 -16.5t-39.5 16.5t-16.5 38.5zM80 0v516h80v-516h-80z" />
<glyph horiz-adv-x="240" d="M-70 -150q37 -11 71 -11q37 0 58 20.5t21 61.5v595h80v-595q0 -71 -41.5 -107.5t-117.5 -36.5q-39 0 -71 16v57zM-34 581l107 148h94l107 -148h-70l-84 90l-84 -90h-70z" />
<glyph horiz-adv-x="360" d="M20 458v58h120v144h80v-144h120v-58h-120v-120h100v-63h-100v-275h-80v275h-100v63h100v120h-120z" />
<glyph horiz-adv-x="360" d="M20 458v58h120v144h80v-144h120v-58h-120v-458h-80v458h-120zM270 583v220h77l-19 -220h-58z" />
<glyph horiz-adv-x="360" d="M20 458v58h120v144h80v-144h120v-58h-120v-458l-50 -67q47 4 79 -17.5t32 -65.5t-35 -71t-82 -27q-42 0 -71 14v51q27 -13 65 -13q22 0 40 12t18 32t-17.5 31.5t-40.5 11.5q-26 0 -44 -6l-18 31l63 84h-19v458h-120z" />
<glyph horiz-adv-x="360" d="M20 458v58h120v144h80v-144h120v-58h-120v-458h-80v458h-120zM121 -248l20 180h79l-39 -180h-60z" />
<glyph horiz-adv-x="525" d="M10 0l210 543h72l223 -543h-91l-58 149h-220l-54 -149h-82zM167 209h175l-57 146l-34 88l-31 -88z" />
<glyph horiz-adv-x="550" d="M90 0v543h186q90 0 145 -36t55 -111q0 -43 -26.5 -74t-66.5 -41q48 -5 82.5 -38t34.5 -91q0 -74 -55.5 -113t-152.5 -39h-202zM170 60h122q67 0 95.5 21t28.5 71q0 91 -124 91h-122v-183zM170 303h106q116 0 116 93q0 47 -29.5 67t-86.5 20h-106v-180z" />
<glyph horiz-adv-x="569" d="M50 271q0 131 63.5 208.5t178.5 77.5q89 0 151 -47.5t76 -137.5h-91q-18 126 -136 126q-72 0 -114 -58t-42 -169t42 -169t114 -58q118 0 136 127h91q-14 -91 -76 -138.5t-151 -47.5q-115 0 -178.5 77.5t-63.5 208.5z" />
<glyph horiz-adv-x="602" d="M90 0v543h163q141 0 220 -71.5t79 -200.5q0 -128 -79 -199.5t-220 -71.5h-163zM170 60h83q213 0 213 211q0 212 -213 212h-83v-423z" />
<glyph horiz-adv-x="476" d="M90 0v543h336v-60h-256v-167h240v-60h-240v-196h256v-60h-336z" />
<glyph horiz-adv-x="458" d="M90 0v543h328v-60h-248v-184h232v-60h-232v-239h-80z" />
<glyph horiz-adv-x="579" d="M50 271q0 131 63.5 208.5t178.5 77.5q89 0 151 -46t76 -131h-91q-18 118 -136 118q-72 0 -114 -58t-42 -169q0 -113 38 -170t109 -57q82 0 150 70v97h-140v60h220v-271h-80v52q-29 -29 -72.5 -48t-87.5 -19q-107 0 -165 77t-58 209z" />
<glyph horiz-adv-x="626" d="M90 0v543h80v-227h286v227h80v-543h-80v256h-286v-256h-80z" />
<glyph horiz-adv-x="260" d="M90 0v543h80v-543h-80z" />
<glyph horiz-adv-x="481" d="M30 171h91q4 -69 28 -96.5t69 -27.5q48 0 75.5 26.5t27.5 77.5v392h80v-376q0 -86 -52 -134t-131 -48q-82 0 -133 45t-55 141z" />
<glyph horiz-adv-x="534" d="M90 0v543h80v-543h-80zM170 283l214 260h89l-216 -253l247 -290h-103z" />
<glyph horiz-adv-x="458" d="M90 0v543h80v-483h228v-60h-308z" />
<glyph horiz-adv-x="728" d="M90 0v543h91l188 -447l191 447h78v-543h-78v318l2 69l-162 -387h-68l-171 403l1 -85v-318h-72z" />
<glyph horiz-adv-x="616" d="M90 0v543h88l278 -433l-2 86v347h72v-543h-88l-277 432l1 -85v-347h-72z" />
<glyph horiz-adv-x="624" d="M50 271q0 129 72.5 207.5t189.5 78.5t189.5 -78.5t72.5 -207.5t-72.5 -207.5t-189.5 -78.5t-189.5 78.5t-72.5 207.5zM136 271q0 -110 49 -168.5t127 -58.5t127 58.5t49 168.5t-49 168.5t-127 58.5t-127 -58.5t-49 -168.5z" />
<glyph horiz-adv-x="508" d="M90 0v543h182q81 0 138.5 -45.5t57.5 -127.5t-57.5 -127t-138.5 -45h-102v-198h-80zM170 258h102q112 0 112 112q0 113 -112 113h-102v-225z" />
<glyph horiz-adv-x="624" d="M50 271q0 129 72.5 207.5t189.5 78.5t189.5 -78.5t72.5 -207.5q0 -94 -40 -163t-111 -100l135 -125h-104l-108 104q-22 -2 -34 -2q-117 0 -189.5 78.5t-72.5 207.5zM136 271q0 -110 49 -168.5t127 -58.5t127 58.5t49 168.5t-49 168.5t-127 58.5t-127 -58.5t-49 -168.5z " />
<glyph horiz-adv-x="624" d="M50 271q0 129 72.5 207.5t189.5 78.5t189.5 -78.5t72.5 -207.5t-72.5 -207.5t-189.5 -78.5t-189.5 78.5t-72.5 207.5zM136 271q0 -110 49 -168.5t127 -58.5t127 58.5t49 168.5t-49 168.5t-127 58.5t-127 -58.5t-49 -168.5zM207 -56h291v-60h-291v60z" />
<glyph horiz-adv-x="524" d="M90 0v543h178q81 0 138.5 -43t57.5 -122q0 -63 -37.5 -103.5t-97.5 -54.5l165 -220h-98l-150 213h-76v-213h-80zM170 273h98q112 0 112 105t-112 105h-98v-210z" />
<glyph horiz-adv-x="524" d="M50 159h86q6 -58 42.5 -86.5t93.5 -28.5q50 0 86 25.5t36 70.5t-37.5 68t-100.5 36q-37 8 -57.5 13t-51.5 17t-47.5 27t-29 41t-12.5 60q0 68 55 111.5t141 43.5q99 0 155 -43.5t60 -122.5h-86q-5 53 -39 80t-90 27q-49 0 -82.5 -23t-33.5 -63q0 -24 10.5 -41t32 -28 t41 -17t50.5 -12q34 -7 57.5 -13.5t53.5 -19.5t48 -29t30.5 -42.5t12.5 -60.5q0 -72 -58.5 -118t-143.5 -46q-101 0 -159.5 45.5t-62.5 128.5z" />
<glyph horiz-adv-x="444" d="M30 483v60h384v-60h-152v-483h-80v483h-152z" />
<glyph horiz-adv-x="607" d="M90 182v361h80v-346q0 -68 32 -109t102 -41q71 0 106 39t35 96v361h72v-346q0 -98 -57 -155t-156 -57q-100 0 -157 52t-57 145z" />
<glyph horiz-adv-x="525" d="M10 543h91l173 -447l31 88l128 359h82l-210 -543h-72z" />
<glyph horiz-adv-x="752" d="M10 543h91l95 -343l23 -88l24 88l103 343h76l108 -343l26 -89l22 89l83 343h81l-154 -543h-72l-110 346l-27 91l-25 -91l-105 -346h-72z" />
<glyph horiz-adv-x="491" d="M20 0l180 272l-177 271h91l127 -200l125 200h83l-169 -253l191 -290h-90l-141 220l-137 -220h-83z" />
<glyph horiz-adv-x="484" d="M20 543h91l141 -275l131 275h81l-177 -335v-208h-80v208z" />
<glyph horiz-adv-x="442" d="M40 0v60l281 423h-273v60h354v-60l-281 -423h281v-60h-362z" />
<glyph horiz-adv-x="782" d="M10 0l386 543h336v-60h-256v-167h240v-60h-240v-196h256v-60h-336v149h-193l-103 -149h-90zM244 209h152v225l-58 -89z" />
<glyph horiz-adv-x="602" d="M2 238v62h88v243h163q141 0 220 -71.5t79 -200.5q0 -128 -79 -199.5t-220 -71.5h-163v238h-88zM170 60h83q213 0 213 211q0 212 -213 212h-83v-183h109v-62h-109v-178z" />
<glyph horiz-adv-x="741" d="M90 0v543h80v-543h-80zM290 171h91q4 -69 28 -96.5t69 -27.5q48 0 75.5 26.5t27.5 77.5v392h80v-376q0 -86 -52 -134t-131 -48q-82 0 -133 45t-55 141z" />
<glyph horiz-adv-x="616" d="M90 0v543h88l278 -433l-2 86v347h72v-543q0 -93 -50.5 -133t-126.5 -40q-41 0 -66 13v58q34 -9 66 -9q100 0 100 94l-288 449l1 -85v-347h-72z" />
<glyph horiz-adv-x="624" d="M50 271q0 129 72.5 207.5t189.5 78.5q57 0 106 -20l42 75h85l-64 -114q93 -79 93 -227q0 -129 -72.5 -207.5t-189.5 -78.5q-57 0 -106 20l-42 -75h-85l64 114q-93 79 -93 227zM136 271q0 -103 44 -161l207 371q-36 17 -75 17q-78 0 -127 -58.5t-49 -168.5zM237 61 q36 -17 75 -17q78 0 127 58.5t49 168.5q0 103 -44 161z" />
<glyph horiz-adv-x="787" d="M50 272q0 128 79 199.5t220 71.5h388v-60h-256v-167h240v-60h-240v-196h256v-60h-388q-141 0 -220 71.5t-79 200.5zM136 272q0 -212 213 -212h52v423h-52q-213 0 -213 -211z" />
<glyph horiz-adv-x="508" d="M90 0v543h80v-90h102q81 0 138.5 -45.5t57.5 -127.5t-57.5 -127.5t-138.5 -45.5h-102v-107h-80zM170 167h102q112 0 112 113t-112 113h-102v-226z" />
<glyph horiz-adv-x="582" d="M90 0v303q0 120 62.5 180t169.5 60h176v-60l-125 -174q86 -15 122.5 -66.5t36.5 -105.5q0 -70 -50 -111t-114 -41q-65 0 -104 32.5t-40 87.5h74q6 -61 74 -61q34 0 55 23t21 70q0 49 -35.5 81.5t-97.5 32.5h-22v62l122 170h-93q-152 0 -152 -170v-313h-80z" />
<glyph horiz-adv-x="525" d="M10 0l210 543h72l223 -543h-91l-58 149h-220l-54 -149h-82zM167 209h175l-57 146l-34 88l-31 -88zM177 584l106 107h105l-135 -107h-76z" />
<glyph horiz-adv-x="525" d="M10 0l210 543h72l223 -543h-91l-58 149h-220l-54 -149h-82zM133 691h60q0 -49 60 -49q59 0 59 49h60q0 -54 -32.5 -84t-86.5 -30t-87 30t-33 84zM167 209h175l-57 146l-34 88l-31 -88z" />
<glyph horiz-adv-x="525" d="M10 0l210 543h72l223 -543h-91l-58 149h-220l-54 -149h-82zM99 584l124 107h60l123 -107h-76l-78 45l-77 -45h-76zM167 209h175l-57 146l-34 88l-31 -88z" />
<glyph horiz-adv-x="525" d="M10 0l210 543h72l223 -543h-91l-58 149h-220l-54 -149h-82zM118 640q0 20 15 34t35 14t35 -14t15 -34t-15 -34t-35 -14t-35 14t-15 34zM167 209h175l-57 146l-34 88l-31 -88zM287 640q0 20 15 34t35 14t35 -14t15 -34t-15 -34t-35 -14t-35 14t-15 34z" />
<glyph horiz-adv-x="525" d="M10 0l210 543h72l223 -543h-91l-58 149h-220l-54 -149h-82zM117 691h106l105 -107h-76zM167 209h175l-57 146l-34 88l-31 -88z" />
<glyph horiz-adv-x="525" d="M10 0l210 543h72l223 -543h-91l-58 149h-220l-54 -149h-82zM128 605v59h248v-59h-248zM167 209h175l-57 146l-34 88l-31 -88z" />
<glyph horiz-adv-x="525" d="M10 0l210 543h72l223 -543q-125 -62 -125 -140q0 -24 15 -38t37 -14q32 0 73 23v-55q-42 -24 -91 -24q-46 0 -74.5 27.5t-28.5 70.5q0 87 114 150h-11l-58 149h-220l-54 -149h-82zM167 209h175l-57 146l-34 88l-31 -88z" />
<glyph horiz-adv-x="525" d="M10 0l210 543h72l223 -543h-91l-58 149h-220l-54 -149h-82zM167 209h175l-57 146l-34 88l-31 -88zM171 638q0 34 24.5 53.5t61.5 19.5t61.5 -19.5t24.5 -53.5t-24.5 -53.5t-61.5 -19.5t-61.5 19.5t-24.5 53.5zM223 638q0 -34 34 -34t34 34t-34 34t-34 -34z" />
<glyph horiz-adv-x="525" d="M10 0l210 543h72l223 -543h-91l-58 149h-220l-54 -149h-82zM110 620q30 68 85 68q22 0 63.5 -16.5t52.5 -16.5q23 0 39 30l44 -23q-28 -68 -84 -68q-23 0 -64.5 16t-52.5 16q-23 0 -39 -29zM167 209h175l-57 146l-34 88l-31 -88z" />
<glyph horiz-adv-x="569" d="M50 271q0 131 63.5 208.5t178.5 77.5q89 0 151 -47.5t76 -137.5h-91q-18 126 -136 126q-72 0 -114 -58t-42 -169t42 -169t114 -58q118 0 136 127h91q-14 -91 -76 -138.5t-151 -47.5q-115 0 -178.5 77.5t-63.5 208.5zM199 584l106 107h105l-135 -107h-76z" />
<glyph horiz-adv-x="569" d="M50 271q0 131 63.5 208.5t178.5 77.5q89 0 151 -47.5t76 -137.5h-91q-18 126 -136 126q-72 0 -114 -58t-42 -169t42 -169t114 -58q118 0 136 127h91q-14 -91 -76 -138.5t-151 -47.5q-115 0 -178.5 77.5t-63.5 208.5zM131 691h76l77 -45l78 45h76l-123 -107h-60z" />
<glyph horiz-adv-x="569" d="M50 271q0 131 63.5 208.5t178.5 77.5q89 0 151 -47.5t76 -137.5h-91q-18 126 -136 126q-72 0 -114 -58t-42 -169t42 -169t114 -58q118 0 136 127h91q-13 -84 -67.5 -131.5t-134.5 -53.5l-40 -53q47 4 79 -17.5t32 -65.5t-35 -71t-82 -27q-42 0 -71 14v51q27 -13 65 -13 q22 0 40 12t18 32t-17.5 31.5t-40.5 11.5q-26 0 -44 -6l-18 31l53 71q-98 12 -152 88t-54 196z" />
<glyph horiz-adv-x="569" d="M50 271q0 131 63.5 208.5t178.5 77.5q89 0 151 -47.5t76 -137.5h-91q-18 126 -136 126q-72 0 -114 -58t-42 -169t42 -169t114 -58q118 0 136 127h91q-14 -91 -76 -138.5t-151 -47.5q-115 0 -178.5 77.5t-63.5 208.5zM131 584l124 107h60l123 -107h-76l-78 45l-77 -45h-76 z" />
<glyph horiz-adv-x="569" d="M50 271q0 131 63.5 208.5t178.5 77.5q89 0 151 -47.5t76 -137.5h-91q-18 126 -136 126q-72 0 -114 -58t-42 -169t42 -169t114 -58q118 0 136 127h91q-14 -91 -76 -138.5t-151 -47.5q-115 0 -178.5 77.5t-63.5 208.5zM234 640q0 20 15 34t35 14t35 -14t15 -34t-15 -34 t-35 -14t-35 14t-15 34z" />
<glyph horiz-adv-x="602" d="M90 0v543h163q141 0 220 -71.5t79 -200.5q0 -128 -79 -199.5t-220 -71.5h-163zM118 691h76l77 -45l78 45h76l-123 -107h-60zM170 60h83q213 0 213 211q0 212 -213 212h-83v-423z" />
<glyph horiz-adv-x="602" d="M2 238v62h88v243h163q141 0 220 -71.5t79 -200.5q0 -128 -79 -199.5t-220 -71.5h-163v238h-88zM170 60h83q213 0 213 211q0 212 -213 212h-83v-183h109v-62h-109v-178z" />
<glyph horiz-adv-x="476" d="M90 0v543h336v-60h-256v-167h240v-60h-240v-196h256v-60h-336zM153 584l106 107h105l-135 -107h-76z" />
<glyph horiz-adv-x="476" d="M90 0v543h336v-60h-256v-167h240v-60h-240v-196h256v-60h-336zM134 691h60q0 -49 60 -49q59 0 59 49h60q0 -54 -32.5 -84t-86.5 -30t-87 30t-33 84z" />
<glyph horiz-adv-x="476" d="M90 0v543h336v-60h-256v-167h240v-60h-240v-196h256v-60h-336zM100 691h76l77 -45l78 45h76l-123 -107h-60z" />
<glyph horiz-adv-x="476" d="M90 0v543h336v-60h-256v-167h240v-60h-240v-196h256v-60h-336zM100 584l124 107h60l123 -107h-76l-78 45l-77 -45h-76z" />
<glyph horiz-adv-x="476" d="M90 0v543h336v-60h-256v-167h240v-60h-240v-196h256v-60h-336zM119 640q0 20 15 34t35 14t35 -14t15 -34t-15 -34t-35 -14t-35 14t-15 34zM288 640q0 20 15 34t35 14t35 -14t15 -34t-15 -34t-35 -14t-35 14t-15 34z" />
<glyph horiz-adv-x="476" d="M90 0v543h336v-60h-256v-167h240v-60h-240v-196h256v-60h-336zM203 640q0 20 15 34t35 14t35 -14t15 -34t-15 -34t-35 -14t-35 14t-15 34z" />
<glyph horiz-adv-x="476" d="M90 0v543h336v-60h-256v-167h240v-60h-240v-196h256v-60h-336zM123 691h106l105 -107h-76z" />
<glyph horiz-adv-x="476" d="M90 0v543h336v-60h-256v-167h240v-60h-240v-196h256v-60h-336zM129 605v59h248v-59h-248z" />
<glyph horiz-adv-x="476" d="M90 0v543h336v-60h-256v-167h240v-60h-240v-196h256v-60q-125 -62 -125 -140q0 -24 15 -38t37 -14q32 0 73 23v-55q-42 -24 -91 -24q-46 0 -74.5 27.5t-28.5 70.5q0 87 114 150h-256z" />
<glyph horiz-adv-x="579" d="M50 271q0 131 63.5 208.5t178.5 77.5q89 0 151 -46t76 -131h-91q-18 118 -136 118q-72 0 -114 -58t-42 -169q0 -113 38 -170t109 -57q82 0 150 70v97h-140v60h220v-271h-80v52q-29 -29 -72.5 -48t-87.5 -19q-107 0 -165 77t-58 209zM165 691h60q0 -49 60 -49q59 0 59 49 h60q0 -54 -32.5 -84t-86.5 -30t-87 30t-33 84z" />
<glyph horiz-adv-x="579" d="M50 271q0 131 63.5 208.5t178.5 77.5q89 0 151 -46t76 -131h-91q-18 118 -136 118q-72 0 -114 -58t-42 -169q0 -113 38 -170t109 -57q82 0 150 70v97h-140v60h220v-271h-80v52q-29 -29 -72.5 -48t-87.5 -19q-107 0 -165 77t-58 209zM131 584l124 107h60l123 -107h-76 l-78 45l-77 -45h-76z" />
<glyph horiz-adv-x="579" d="M50 271q0 131 63.5 208.5t178.5 77.5q89 0 151 -46t76 -131h-91q-18 118 -136 118q-72 0 -114 -58t-42 -169q0 -113 38 -170t109 -57q82 0 150 70v97h-140v60h220v-271h-80v52q-29 -29 -72.5 -48t-87.5 -19q-107 0 -165 77t-58 209zM235 -248l20 180h79l-39 -180h-60z " />
<glyph horiz-adv-x="579" d="M50 271q0 131 63.5 208.5t178.5 77.5q89 0 151 -46t76 -131h-91q-18 118 -136 118q-72 0 -114 -58t-42 -169q0 -113 38 -170t109 -57q82 0 150 70v97h-140v60h220v-271h-80v52q-29 -29 -72.5 -48t-87.5 -19q-107 0 -165 77t-58 209zM234 640q0 20 15 34t35 14t35 -14 t15 -34t-15 -34t-35 -14t-35 14t-15 34z" />
<glyph horiz-adv-x="626" d="M30 400v60h60v83h80v-83h286v83h80v-83h60v-60h-60v-400h-80v256h-286v-256h-80v400h-60zM170 316h286v84h-286v-84z" />
<glyph horiz-adv-x="626" d="M90 0v543h80v-227h286v227h80v-543h-80v256h-286v-256h-80zM159 584l124 107h60l123 -107h-76l-78 45l-77 -45h-76z" />
<glyph horiz-adv-x="260" d="M55 584l106 107h105l-135 -107h-76zM90 0v543h80v-543h-80z" />
<glyph horiz-adv-x="260" d="M11 691h60q0 -49 60 -49q59 0 59 49h60q0 -54 -32.5 -84t-86.5 -30t-87 30t-33 84zM90 0v543h80v-543h-80z" />
<glyph horiz-adv-x="260" d="M-23 584l124 107h60l123 -107h-76l-78 45l-77 -45h-76zM90 0v543h80v-543h-80z" />
<glyph horiz-adv-x="260" d="M6 640q0 20 15 34t35 14t35 -14t15 -34t-15 -34t-35 -14t-35 14t-15 34zM90 0v543h80v-543h-80zM155 640q0 20 15 34t35 14t35 -14t15 -34t-15 -34t-35 -14t-35 14t-15 34z" />
<glyph horiz-adv-x="260" d="M-5 691h106l105 -107h-76zM90 0v543h80v-543h-80z" />
<glyph horiz-adv-x="260" d="M7 605v59h248v-59h-248zM90 0v543h80v-543h-80z" />
<glyph horiz-adv-x="260" d="M-23 -150q0 87 114 150h-1v543h80v-543h1q-125 -62 -125 -140q0 -24 15 -38t37 -14q32 0 73 23v-55q-42 -24 -91 -24q-46 0 -74.5 27.5t-28.5 70.5z" />
<glyph horiz-adv-x="260" d="M-11 620q30 68 85 68q22 0 63.5 -16.5t52.5 -16.5q23 0 39 30l44 -23q-28 -68 -84 -68q-23 0 -64.5 16t-52.5 16q-23 0 -39 -29zM90 0v543h80v-543h-80z" />
<glyph horiz-adv-x="481" d="M30 171h91q4 -69 28 -96.5t69 -27.5q48 0 75.5 26.5t27.5 77.5v392h80v-376q0 -86 -52 -134t-131 -48q-82 0 -133 45t-55 141zM207 584l124 107h60l123 -107h-76l-78 45l-77 -45h-76z" />
<glyph horiz-adv-x="534" d="M90 0v543h80v-543h-80zM170 283l214 260h89l-216 -253l247 -290h-103zM198 -248l20 180h79l-39 -180h-60z" />
<glyph horiz-adv-x="458" d="M75 584l106 107h105l-135 -107h-76zM90 0v543h80v-483h228v-60h-308z" />
<glyph horiz-adv-x="458" d="M90 0v543h80v-483h228v-60h-308zM231 382v220h77l-19 -220h-58z" />
<glyph horiz-adv-x="458" d="M90 0v543h80v-483h228v-60h-308zM185 -248l20 180h79l-39 -180h-60z" />
<glyph horiz-adv-x="458" d="M90 0v543h80v-483h228v-60h-308zM244 259q0 20 15 34t35 14t35 -14t15 -34t-15 -34t-35 -14t-35 14t-15 34z" />
<glyph horiz-adv-x="458" d="M28 176v71l62 36v260h80v-213l104 60v-70l-104 -61v-199h228v-60h-308v212z" />
<glyph horiz-adv-x="616" d="M90 0v543h88l278 -433l-2 86v347h72v-543h-88l-277 432l1 -85v-347h-72zM233 584l106 107h105l-135 -107h-76z" />
<glyph horiz-adv-x="616" d="M90 0v543h88l278 -433l-2 86v347h72v-543h-88l-277 432l1 -85v-347h-72zM155 691h76l77 -45l78 45h76l-123 -107h-60z" />
<glyph horiz-adv-x="616" d="M90 0v543h88l278 -433l-2 86v347h72v-543h-88l-277 432l1 -85v-347h-72zM259 -248l20 180h79l-39 -180h-60z" />
<glyph horiz-adv-x="616" d="M90 0v543h88l278 -433l-2 86v347h72v-543h-88l-277 432l1 -85v-347h-72zM166 620q30 68 85 68q22 0 63.5 -16.5t52.5 -16.5q23 0 39 30l44 -23q-28 -68 -84 -68q-23 0 -64.5 16t-52.5 16q-23 0 -39 -29z" />
<glyph horiz-adv-x="624" d="M50 271q0 129 72.5 207.5t189.5 78.5t189.5 -78.5t72.5 -207.5t-72.5 -207.5t-189.5 -78.5t-189.5 78.5t-72.5 207.5zM136 271q0 -110 49 -168.5t127 -58.5t127 58.5t49 168.5t-49 168.5t-127 58.5t-127 -58.5t-49 -168.5zM237 584l106 107h105l-135 -107h-76z" />
<glyph horiz-adv-x="624" d="M50 271q0 129 72.5 207.5t189.5 78.5t189.5 -78.5t72.5 -207.5t-72.5 -207.5t-189.5 -78.5t-189.5 78.5t-72.5 207.5zM136 271q0 -110 49 -168.5t127 -58.5t127 58.5t49 168.5t-49 168.5t-127 58.5t-127 -58.5t-49 -168.5zM193 691h60q0 -49 60 -49q59 0 59 49h60 q0 -54 -32.5 -84t-86.5 -30t-87 30t-33 84z" />
<glyph horiz-adv-x="624" d="M50 271q0 129 72.5 207.5t189.5 78.5t189.5 -78.5t72.5 -207.5t-72.5 -207.5t-189.5 -78.5t-189.5 78.5t-72.5 207.5zM136 271q0 -110 49 -168.5t127 -58.5t127 58.5t49 168.5t-49 168.5t-127 58.5t-127 -58.5t-49 -168.5zM159 584l124 107h60l123 -107h-76l-78 45 l-77 -45h-76z" />
<glyph horiz-adv-x="624" d="M50 271q0 129 72.5 207.5t189.5 78.5t189.5 -78.5t72.5 -207.5t-72.5 -207.5t-189.5 -78.5t-189.5 78.5t-72.5 207.5zM136 271q0 -110 49 -168.5t127 -58.5t127 58.5t49 168.5t-49 168.5t-127 58.5t-127 -58.5t-49 -168.5zM178 640q0 20 15 34t35 14t35 -14t15 -34 t-15 -34t-35 -14t-35 14t-15 34zM347 640q0 20 15 34t35 14t35 -14t15 -34t-15 -34t-35 -14t-35 14t-15 34z" />
<glyph horiz-adv-x="624" d="M50 271q0 129 72.5 207.5t189.5 78.5t189.5 -78.5t72.5 -207.5t-72.5 -207.5t-189.5 -78.5t-189.5 78.5t-72.5 207.5zM136 271q0 -110 49 -168.5t127 -58.5t127 58.5t49 168.5t-49 168.5t-127 58.5t-127 -58.5t-49 -168.5zM177 691h106l105 -107h-76z" />
<glyph horiz-adv-x="624" d="M50 271q0 129 72.5 207.5t189.5 78.5t189.5 -78.5t72.5 -207.5t-72.5 -207.5t-189.5 -78.5t-189.5 78.5t-72.5 207.5zM136 271q0 -110 49 -168.5t127 -58.5t127 58.5t49 168.5t-49 168.5t-127 58.5t-127 -58.5t-49 -168.5zM170 584l90 107h101l-119 -107h-72zM324 584 l89 107h102l-119 -107h-72z" />
<glyph horiz-adv-x="624" d="M50 271q0 129 72.5 207.5t189.5 78.5t189.5 -78.5t72.5 -207.5t-72.5 -207.5t-189.5 -78.5t-189.5 78.5t-72.5 207.5zM136 271q0 -110 49 -168.5t127 -58.5t127 58.5t49 168.5t-49 168.5t-127 58.5t-127 -58.5t-49 -168.5zM188 605v59h248v-59h-248z" />
<glyph horiz-adv-x="624" d="M50 271q0 129 72.5 207.5t189.5 78.5t189.5 -78.5t72.5 -207.5t-72.5 -207.5t-189.5 -78.5t-189.5 78.5t-72.5 207.5zM136 271q0 -110 49 -168.5t127 -58.5t127 58.5t49 168.5t-49 168.5t-127 58.5t-127 -58.5t-49 -168.5zM170 620q30 68 85 68q22 0 63.5 -16.5 t52.5 -16.5q23 0 39 30l44 -23q-28 -68 -84 -68q-23 0 -64.5 16t-52.5 16q-23 0 -39 -29z" />
<glyph horiz-adv-x="524" d="M90 0v543h178q81 0 138.5 -43t57.5 -122q0 -63 -37.5 -103.5t-97.5 -54.5l165 -220h-98l-150 213h-76v-213h-80zM157 584l106 107h105l-135 -107h-76zM170 273h98q112 0 112 105t-112 105h-98v-210z" />
<glyph horiz-adv-x="524" d="M90 0v543h178q81 0 138.5 -43t57.5 -122q0 -63 -37.5 -103.5t-97.5 -54.5l165 -220h-98l-150 213h-76v-213h-80zM94 691h76l77 -45l78 45h76l-123 -107h-60zM170 273h98q112 0 112 105t-112 105h-98v-210z" />
<glyph horiz-adv-x="524" d="M90 0v543h178q81 0 138.5 -43t57.5 -122q0 -63 -37.5 -103.5t-97.5 -54.5l165 -220h-98l-150 213h-76v-213h-80zM170 273h98q112 0 112 105t-112 105h-98v-210zM203 -248l20 180h79l-39 -180h-60z" />
<glyph horiz-adv-x="524" d="M50 159h86q6 -58 42.5 -86.5t93.5 -28.5q50 0 86 25.5t36 70.5t-37.5 68t-100.5 36q-37 8 -57.5 13t-51.5 17t-47.5 27t-29 41t-12.5 60q0 68 55 111.5t141 43.5q99 0 155 -43.5t60 -122.5h-86q-5 53 -39 80t-90 27q-49 0 -82.5 -23t-33.5 -63q0 -24 10.5 -41t32 -28 t41 -17t50.5 -12q34 -7 57.5 -13.5t53.5 -19.5t48 -29t30.5 -42.5t12.5 -60.5q0 -72 -58.5 -118t-143.5 -46q-101 0 -159.5 45.5t-62.5 128.5zM177 584l106 107h105l-135 -107h-76z" />
<glyph horiz-adv-x="524" d="M50 159h86q6 -58 42.5 -86.5t93.5 -28.5q50 0 86 25.5t36 70.5t-37.5 68t-100.5 36q-37 8 -57.5 13t-51.5 17t-47.5 27t-29 41t-12.5 60q0 68 55 111.5t141 43.5q99 0 155 -43.5t60 -122.5h-86q-5 53 -39 80t-90 27q-49 0 -82.5 -23t-33.5 -63q0 -24 10.5 -41t32 -28 t41 -17t50.5 -12q34 -7 57.5 -13.5t53.5 -19.5t48 -29t30.5 -42.5t12.5 -60.5q0 -72 -58.5 -118t-143.5 -46q-101 0 -159.5 45.5t-62.5 128.5zM104 691h76l77 -45l78 45h76l-123 -107h-60z" />
<glyph horiz-adv-x="524" d="M50 159h86q6 -58 42.5 -86.5t93.5 -28.5q50 0 86 25.5t36 70.5t-37.5 68t-100.5 36q-37 8 -57.5 13t-51.5 17t-47.5 27t-29 41t-12.5 60q0 68 55 111.5t141 43.5q99 0 155 -43.5t60 -122.5h-86q-5 53 -39 80t-90 27q-49 0 -82.5 -23t-33.5 -63q0 -24 10.5 -41t32 -28 t41 -17t50.5 -12q34 -7 57.5 -13.5t53.5 -19.5t48 -29t30.5 -42.5t12.5 -60.5q0 -72 -58.5 -118t-143.5 -46q-101 0 -159.5 45.5t-62.5 128.5zM203 -248l20 180h79l-39 -180h-60z" />
<glyph horiz-adv-x="524" d="M50 159h86q6 -58 42.5 -86.5t93.5 -28.5q50 0 86 25.5t36 70.5t-37.5 68t-100.5 36q-37 8 -57.5 13t-51.5 17t-47.5 27t-29 41t-12.5 60q0 68 55 111.5t141 43.5q99 0 155 -43.5t60 -122.5h-86q-5 53 -39 80t-90 27q-49 0 -82.5 -23t-33.5 -63q0 -24 10.5 -41t32 -28 t41 -17t50.5 -12q34 -7 57.5 -13.5t53.5 -19.5t48 -29t30.5 -42.5t12.5 -60.5q0 -72 -58.5 -118t-143.5 -46q-101 0 -159.5 45.5t-62.5 128.5zM103 584l124 107h60l123 -107h-76l-78 45l-77 -45h-76z" />
<glyph horiz-adv-x="524" d="M50 159h86q6 -58 42.5 -86.5t93.5 -28.5q50 0 86 25.5t36 70.5t-37.5 68t-100.5 36q-37 8 -57.5 13t-51.5 17t-47.5 27t-29 41t-12.5 60q0 68 55 111.5t141 43.5q99 0 155 -43.5t60 -122.5h-86q-5 53 -39 80t-90 27q-49 0 -82.5 -23t-33.5 -63q0 -24 10.5 -41t32 -28 t41 -17t50.5 -12q34 -7 57.5 -13.5t53.5 -19.5t48 -29t30.5 -42.5t12.5 -60.5q0 -69 -54.5 -114.5t-135.5 -49.5l-39 -52q47 4 79 -17.5t32 -65.5t-35 -71t-82 -27q-42 0 -71 14v51q27 -13 65 -13q22 0 40 12t18 32t-17.5 31.5t-40.5 11.5q-26 0 -44 -6l-18 31l54 72 q-80 10 -126 54t-49 117z" />
<glyph horiz-adv-x="444" d="M30 483v60h384v-60h-152v-183h110v-62h-110v-238h-80v238h-110v62h110v183h-152z" />
<glyph horiz-adv-x="444" d="M30 483v60h384v-60h-152v-483h-80v483h-152zM69 691h76l77 -45l78 45h76l-123 -107h-60z" />
<glyph horiz-adv-x="444" d="M30 483v60h384v-60h-152v-483h1l-50 -67q47 4 79 -17.5t32 -65.5t-35 -71t-82 -27q-42 0 -71 14v51q27 -13 65 -13q22 0 40 12t18 32t-17.5 31.5t-40.5 11.5q-26 0 -44 -6l-18 31l63 84h-20v483h-152z" />
<glyph horiz-adv-x="444" d="M30 483v60h384v-60h-152v-483h-80v483h-152zM163 -248l20 180h79l-39 -180h-60z" />
<glyph horiz-adv-x="607" d="M90 182v361h80v-346q0 -68 32 -109t102 -41q71 0 106 39t35 96v361h72v-346q0 -98 -57 -155t-156 -57q-100 0 -157 52t-57 145zM218 584l106 107h105l-135 -107h-76z" />
<glyph horiz-adv-x="607" d="M90 182v361h80v-346q0 -68 32 -109t102 -41q71 0 106 39t35 96v361h72v-346q0 -98 -57 -155t-156 -57q-100 0 -157 52t-57 145zM184 691h60q0 -49 60 -49q59 0 59 49h60q0 -54 -32.5 -84t-86.5 -30t-87 30t-33 84z" />
<glyph horiz-adv-x="607" d="M90 182v361h80v-346q0 -68 32 -109t102 -41q71 0 106 39t35 96v361h72v-346q0 -98 -57 -155t-156 -57q-100 0 -157 52t-57 145zM150 584l124 107h60l123 -107h-76l-78 45l-77 -45h-76z" />
<glyph horiz-adv-x="607" d="M90 182v361h80v-346q0 -68 32 -109t102 -41q71 0 106 39t35 96v361h72v-346q0 -98 -57 -155t-156 -57q-100 0 -157 52t-57 145zM169 640q0 20 15 34t35 14t35 -14t15 -34t-15 -34t-35 -14t-35 14t-15 34zM338 640q0 20 15 34t35 14t35 -14t15 -34t-15 -34t-35 -14t-35 14 t-15 34z" />
<glyph horiz-adv-x="607" d="M90 182v361h80v-346q0 -68 32 -109t102 -41q71 0 106 39t35 96v361h72v-346q0 -98 -57 -155t-156 -57q-100 0 -157 52t-57 145zM178 691h106l105 -107h-76z" />
<glyph horiz-adv-x="607" d="M90 182v361h80v-346q0 -68 32 -109t102 -41q71 0 106 39t35 96v361h72v-346q0 -98 -57 -155t-156 -57q-100 0 -157 52t-57 145zM161 584l90 107h101l-119 -107h-72zM315 584l89 107h102l-119 -107h-72z" />
<glyph horiz-adv-x="607" d="M90 182v361h80v-346q0 -68 32 -109t102 -41q71 0 106 39t35 96v361h72v-346q0 -98 -57 -155t-156 -57q-100 0 -157 52t-57 145zM179 605v59h248v-59h-248z" />
<glyph horiz-adv-x="607" d="M90 182v361h80v-346q0 -68 32 -109t102 -41q71 0 106 39t35 96v361h72v-346q0 -79 -37.5 -132t-106.5 -71q-56 -31 -84 -62.5t-28 -71.5q0 -24 15 -38t37 -14q32 0 73 23v-55q-42 -24 -91 -24q-46 0 -74.5 27.5t-28.5 70.5q0 77 90 136q-90 5 -141 57t-51 139z" />
<glyph horiz-adv-x="607" d="M90 182v361h80v-346q0 -68 32 -109t102 -41q71 0 106 39t35 96v361h72v-346q0 -98 -57 -155t-156 -57q-100 0 -157 52t-57 145zM217 638q0 34 24.5 53.5t61.5 19.5t61.5 -19.5t24.5 -53.5t-24.5 -53.5t-61.5 -19.5t-61.5 19.5t-24.5 53.5zM269 638q0 -34 34 -34t34 34 t-34 34t-34 -34z" />
<glyph horiz-adv-x="607" d="M90 182v361h80v-346q0 -68 32 -109t102 -41q71 0 106 39t35 96v361h72v-346q0 -98 -57 -155t-156 -57q-100 0 -157 52t-57 145zM161 620q30 68 85 68q22 0 63.5 -16.5t52.5 -16.5q23 0 39 30l44 -23q-28 -68 -84 -68q-23 0 -64.5 16t-52.5 16q-23 0 -39 -29z" />
<glyph horiz-adv-x="752" d="M10 543h91l95 -343l23 -88l24 88l103 343h76l108 -343l26 -89l22 89l83 343h81l-154 -543h-72l-110 346l-27 91l-25 -91l-105 -346h-72zM311 584l106 107h105l-135 -107h-76z" />
<glyph horiz-adv-x="752" d="M10 543h91l95 -343l23 -88l24 88l103 343h76l108 -343l26 -89l22 89l83 343h81l-154 -543h-72l-110 346l-27 91l-25 -91l-105 -346h-72zM233 584l124 107h60l123 -107h-76l-78 45l-77 -45h-76z" />
<glyph horiz-adv-x="752" d="M10 543h91l95 -343l23 -88l24 88l103 343h76l108 -343l26 -89l22 89l83 343h81l-154 -543h-72l-110 346l-27 91l-25 -91l-105 -346h-72zM252 640q0 20 15 34t35 14t35 -14t15 -34t-15 -34t-35 -14t-35 14t-15 34zM421 640q0 20 15 34t35 14t35 -14t15 -34t-15 -34 t-35 -14t-35 14t-15 34z" />
<glyph horiz-adv-x="752" d="M10 543h91l95 -343l23 -88l24 88l103 343h76l108 -343l26 -89l22 89l83 343h81l-154 -543h-72l-110 346l-27 91l-25 -91l-105 -346h-72zM241 691h106l105 -107h-76z" />
<glyph horiz-adv-x="484" d="M20 543h91l141 -275l131 275h81l-177 -335v-208h-80v208zM167 584l106 107h105l-135 -107h-76z" />
<glyph horiz-adv-x="484" d="M20 543h91l141 -275l131 275h81l-177 -335v-208h-80v208zM94 584l124 107h60l123 -107h-76l-78 45l-77 -45h-76z" />
<glyph horiz-adv-x="484" d="M20 543h91l141 -275l131 275h81l-177 -335v-208h-80v208zM113 640q0 20 15 34t35 14t35 -14t15 -34t-15 -34t-35 -14t-35 14t-15 34zM282 640q0 20 15 34t35 14t35 -14t15 -34t-15 -34t-35 -14t-35 14t-15 34z" />
<glyph horiz-adv-x="484" d="M20 543h91l141 -275l131 275h81l-177 -335v-208h-80v208zM107 691h106l105 -107h-76z" />
<glyph horiz-adv-x="442" d="M40 0v60l281 423h-273v60h354v-60l-281 -423h281v-60h-362zM136 584l106 107h105l-135 -107h-76z" />
<glyph horiz-adv-x="442" d="M40 0v60l281 423h-273v60h354v-60l-281 -423h281v-60h-362zM73 691h76l77 -45l78 45h76l-123 -107h-60z" />
<glyph horiz-adv-x="442" d="M40 0v60l281 423h-273v60h354v-60l-281 -423h281v-60h-362zM171 640q0 20 15 34t35 14t35 -14t15 -34t-15 -34t-35 -14t-35 14t-15 34z" />
<glyph horiz-adv-x="782" d="M10 0l386 543h336v-60h-256v-167h240v-60h-240v-196h256v-60h-336v149h-193l-103 -149h-90zM244 209h152v225l-58 -89zM406 584l106 107h105l-135 -107h-76z" />
<glyph horiz-adv-x="590" d="M20 458v58h90v99q0 144 154 144q45 0 76 -16v-57q-44 11 -65 11q-85 0 -85 -82v-99h320v-595q0 -71 -41.5 -107.5t-117.5 -36.5q-39 0 -71 16v57q37 -11 71 -11q37 0 58 20.5t21 61.5v537h-240v-458h-80v458h-90zM414 660q0 22 16.5 38.5t39.5 16.5t39.5 -16.5 t16.5 -38.5t-16.5 -38.5t-39.5 -16.5t-39.5 16.5t-16.5 38.5z" />
<glyph horiz-adv-x="650" d="M20 458v58h90v99q0 144 154 144q45 0 76 -16v-57q-44 11 -65 11q-85 0 -85 -82v-99h240v144h80v-144h120v-58h-120v-458h-80v458h-240v-458h-80v458h-90z" />
<glyph horiz-adv-x="910" d="M20 458v58h90v99q0 144 154 144q45 0 76 -16v-57q-44 11 -65 11q-85 0 -85 -82v-99h240v99q0 144 154 144q45 0 76 -16v-57q-44 11 -65 11q-85 0 -85 -82v-99h320v-595q0 -71 -41.5 -107.5t-117.5 -36.5q-39 0 -71 16v57q37 -11 71 -11q37 0 58 20.5t21 61.5v537h-240 v-458h-80v458h-240v-458h-80v458h-90zM734 660q0 22 16.5 38.5t39.5 16.5t39.5 -16.5t16.5 -38.5t-16.5 -38.5t-39.5 -16.5t-39.5 16.5t-16.5 38.5z" />
<glyph horiz-adv-x="970" d="M20 458v58h90v99q0 144 154 144q45 0 76 -16v-57q-44 11 -65 11q-85 0 -85 -82v-99h240v99q0 144 154 144q45 0 76 -16v-57q-44 11 -65 11q-85 0 -85 -82v-99h240v144h80v-144h120v-58h-120v-458h-80v458h-240v-458h-80v458h-240v-458h-80v458h-90z" />
<glyph horiz-adv-x="700" d="M20 458v58h120v144h80v-144h260v144h80v-144h120v-58h-120v-458h-80v458h-260v-458h-80v458h-120z" />
<glyph horiz-adv-x="332" d="M30 515q0 95 147 95q21 0 51 -3v30q0 29 -16.5 43.5t-40.5 14.5q-60 0 -64 -58h-68q0 50 35.5 78t96.5 28q49 0 85 -24t36 -77v-202h-64v31q-47 -40 -104 -40q-45 0 -69.5 24t-24.5 60zM96 521q0 -39 51 -39q45 0 81 33v49q-28 3 -48 3q-84 0 -84 -46z" />
<glyph horiz-adv-x="339" d="M40 440v424h64v-162q43 41 89 41q51 0 88.5 -39.5t37.5 -116.5t-41 -116.5t-97 -39.5q-46 0 -77 35v-26h-64zM104 518q32 -34 75 -34q73 0 73 103t-73 103q-39 0 -75 -36v-136z" />
<glyph horiz-adv-x="317" d="M20 587q0 70 39.5 113t105.5 43q57 0 92 -27t40 -73h-69q-13 52 -63 52q-33 0 -55 -25t-22 -83q0 -108 77 -108q50 0 63 52h69q-5 -46 -40 -73t-92 -27q-70 0 -107.5 42.5t-37.5 113.5z" />
<glyph horiz-adv-x="339" d="M20 587q0 77 41 116.5t97 39.5q46 0 77 -35v156h64v-424h-64v32q-43 -41 -89 -41q-51 0 -88.5 39.5t-37.5 116.5zM87 587q0 -103 73 -103q39 0 75 36v136q-32 34 -75 34q-73 0 -73 -103z" />
<glyph horiz-adv-x="318" d="M20 587q0 69 39 112.5t101 43.5q69 0 105 -42.5t32 -124.5h-209q4 -97 75 -97q29 0 40 9.5t19 31.5h69q-5 -38 -39.5 -63.5t-88.5 -25.5q-68 0 -105.5 42.5t-37.5 113.5zM91 625h136q0 70 -67 70q-57 0 -69 -70z" />
<glyph horiz-adv-x="220" d="M10 685v49h54v41q0 98 100 98q26 0 46 -9v-49q-28 6 -39 6q-23 0 -33 -11t-10 -35v-41h82v-49h-82v-245h-64v245h-54z" />
<glyph horiz-adv-x="339" d="M20 587q0 77 41 116.5t97 39.5q46 0 77 -35v26h64v-289q0 -64 -40 -98t-98 -34q-65 0 -99.5 25.5t-35.5 68.5h68q5 -46 67 -46q74 0 74 78v33q-43 -41 -89 -41q-51 0 -88.5 39.5t-37.5 116.5zM87 587q0 -103 73 -103q39 0 75 36v136q-32 34 -75 34q-73 0 -73 -103z" />
<glyph horiz-adv-x="352" d="M40 440v424h64v-164q45 43 100 43q45 0 76.5 -24.5t31.5 -72.5v-206h-64v181q0 36 -14.5 52.5t-47.5 16.5q-46 0 -82 -38v-212h-64z" />
<glyph horiz-adv-x="144" d="M38 825q0 17 12.5 29t29.5 12t29.5 -12t12.5 -29t-12.5 -29t-29.5 -12t-29.5 12t-12.5 29zM48 440v294h64v-294h-64z" />
<glyph horiz-adv-x="144" d="M38 825q0 17 12.5 29t29.5 12t29.5 -12t12.5 -29t-12.5 -29t-29.5 -12t-29.5 12t-12.5 29zM48 321v413h64v-413h-64z" />
<glyph horiz-adv-x="291" d="M40 440v424h64v-424h-64zM104 597l111 137h72l-113 -133l127 -161h-80z" />
<glyph horiz-adv-x="144" d="M40 440v424h64v-424h-64z" />
<glyph horiz-adv-x="552" d="M40 440v294h64v-34q45 43 98 43q67 0 93 -45q49 45 111 45q45 0 75.5 -24t30.5 -73v-206h-64v181q0 69 -60 69q-42 0 -80 -38v-6v-206h-64v181q0 69 -60 69q-44 0 -80 -38v-212h-64z" />
<glyph horiz-adv-x="352" d="M40 440v294h64v-34q45 43 100 43q45 0 76.5 -24.5t31.5 -72.5v-206h-64v181q0 36 -14.5 52.5t-47.5 16.5q-46 0 -82 -38v-212h-64z" />
<glyph horiz-adv-x="343" d="M20 587q0 70 41.5 113t110.5 43q68 0 109.5 -43t41.5 -113t-41.5 -113t-109.5 -43q-69 0 -110.5 43t-41.5 113zM88 587q0 -108 84 -108q40 0 62 27.5t22 80.5t-22 80.5t-62 27.5q-84 0 -84 -108z" />
<glyph horiz-adv-x="339" d="M40 321v413h64v-32q43 41 89 41q51 0 88.5 -39.5t37.5 -116.5t-41 -116.5t-97 -39.5q-46 0 -77 35v-145h-64zM104 518q32 -34 75 -34q73 0 73 103t-73 103q-39 0 -75 -36v-136z" />
<glyph horiz-adv-x="339" d="M20 587q0 77 41 116.5t97 39.5q46 0 77 -35v26h64v-413h-64v151q-43 -41 -89 -41q-51 0 -88.5 39.5t-37.5 116.5zM87 587q0 -103 73 -103q39 0 75 36v136q-32 34 -75 34q-73 0 -73 -103z" />
<glyph horiz-adv-x="234" d="M40 440v294h65v-41q40 50 81 50q24 0 38 -16v-52q-22 9 -41 9q-48 0 -78 -41v-203h-65z" />
<glyph horiz-adv-x="297" d="M20 527h68q6 -48 67 -48q26 0 42.5 11t16.5 30t-16 28t-61 16q-54 8 -84.5 27t-30.5 63q0 42 33.5 65.5t91.5 23.5q57 0 89.5 -24t33.5 -63h-69q-3 39 -57 39q-27 0 -43 -9t-16 -25q0 -18 14 -26.5t58 -15.5q56 -9 88 -28t32 -63q0 -43 -34.5 -70t-90.5 -27 q-64 0 -97.5 27t-34.5 69z" />
<glyph horiz-adv-x="236" d="M10 685v49h54v82h64v-82h82v-49h-82v-153q0 -26 7 -37.5t28 -11.5t53 10v-48q-30 -14 -68 -14q-84 0 -84 90v164h-54z" />
<glyph horiz-adv-x="348" d="M40 528v206h64v-181q0 -36 14 -52.5t46 -16.5q44 0 80 38v212h64v-294h-64v34q-45 -43 -98 -43q-45 0 -75.5 24t-30.5 73z" />
<glyph horiz-adv-x="315" d="M10 734h71l56 -155l25 -65l25 65l55 155h63l-118 -294h-54z" />
<glyph horiz-adv-x="485" d="M10 734h70l49 -155l20 -65l20 65l48 155h56l51 -155l21 -65l19 65l48 155h63l-106 -294h-55l-48 152l-21 65l-20 -65l-48 -152h-56z" />
<glyph horiz-adv-x="313" d="M10 440l108 153l-101 141h73l65 -95l64 95h67l-96 -136l113 -158h-73l-77 112l-76 -112h-67z" />
<glyph horiz-adv-x="315" d="M10 734h71l56 -155l25 -65l25 65l55 155h63l-165 -413h-62l52 125z" />
<glyph horiz-adv-x="276" d="M20 440v49l158 196h-152v49h230v-49l-158 -196h158v-49h-236z" />
<glyph horiz-adv-x="332" d="M30 -45q0 95 147 95q21 0 51 -3v30q0 29 -16.5 43.5t-40.5 14.5q-60 0 -64 -58h-68q0 50 35.5 78t96.5 28q49 0 85 -24t36 -77v-202h-64v31q-47 -40 -104 -40q-45 0 -69.5 24t-24.5 60zM96 -39q0 -39 51 -39q45 0 81 33v49q-28 3 -48 3q-84 0 -84 -46z" />
<glyph horiz-adv-x="339" d="M40 -120v424h64v-162q43 41 89 41q51 0 88.5 -39.5t37.5 -116.5t-41 -116.5t-97 -39.5q-46 0 -77 35v-26h-64zM104 -42q32 -34 75 -34q73 0 73 103t-73 103q-39 0 -75 -36v-136z" />
<glyph horiz-adv-x="317" d="M20 27q0 70 39.5 113t105.5 43q57 0 92 -27t40 -73h-69q-13 52 -63 52q-33 0 -55 -25t-22 -83q0 -108 77 -108q50 0 63 52h69q-5 -46 -40 -73t-92 -27q-70 0 -107.5 42.5t-37.5 113.5z" />
<glyph horiz-adv-x="339" d="M20 27q0 77 41 116.5t97 39.5q46 0 77 -35v156h64v-424h-64v32q-43 -41 -89 -41q-51 0 -88.5 39.5t-37.5 116.5zM87 27q0 -103 73 -103q39 0 75 36v136q-32 34 -75 34q-73 0 -73 -103z" />
<glyph horiz-adv-x="318" d="M20 27q0 69 39 112.5t101 43.5q69 0 105 -42.5t32 -124.5h-209q4 -97 75 -97q29 0 40 9.5t19 31.5h69q-5 -38 -39.5 -63.5t-88.5 -25.5q-68 0 -105.5 42.5t-37.5 113.5zM91 65h136q0 70 -67 70q-57 0 -69 -70z" />
<glyph horiz-adv-x="220" d="M10 125v49h54v41q0 98 100 98q26 0 46 -9v-49q-28 6 -39 6q-23 0 -33 -11t-10 -35v-41h82v-49h-82v-245h-64v245h-54z" />
<glyph horiz-adv-x="339" d="M20 27q0 77 41 116.5t97 39.5q46 0 77 -35v26h64v-289q0 -64 -40 -98t-98 -34q-65 0 -99.5 25.5t-35.5 68.5h68q5 -46 67 -46q74 0 74 78v33q-43 -41 -89 -41q-51 0 -88.5 39.5t-37.5 116.5zM87 27q0 -103 73 -103q39 0 75 36v136q-32 34 -75 34q-73 0 -73 -103z" />
<glyph horiz-adv-x="352" d="M40 -120v424h64v-164q45 43 100 43q45 0 76.5 -24.5t31.5 -72.5v-206h-64v181q0 36 -14.5 52.5t-47.5 16.5q-46 0 -82 -38v-212h-64z" />
<glyph horiz-adv-x="144" d="M38 265q0 17 12.5 29t29.5 12t29.5 -12t12.5 -29t-12.5 -29t-29.5 -12t-29.5 12t-12.5 29zM48 -120v294h64v-294h-64z" />
<glyph horiz-adv-x="144" d="M38 265q0 17 12.5 29t29.5 12t29.5 -12t12.5 -29t-12.5 -29t-29.5 -12t-29.5 12t-12.5 29zM48 174h64v-413h-64v413z" />
<glyph horiz-adv-x="291" d="M40 -120v424h64v-424h-64zM104 37l111 137h72l-113 -133l127 -161h-80z" />
<glyph horiz-adv-x="144" d="M40 -120v424h64v-424h-64z" />
<glyph horiz-adv-x="552" d="M40 -120v294h64v-34q45 43 98 43q67 0 93 -45q49 45 111 45q45 0 75.5 -24t30.5 -73v-206h-64v181q0 69 -60 69q-42 0 -80 -38v-6v-206h-64v181q0 69 -60 69q-44 0 -80 -38v-212h-64z" />
<glyph horiz-adv-x="352" d="M40 -120v294h64v-34q45 43 100 43q45 0 76.5 -24.5t31.5 -72.5v-206h-64v181q0 36 -14.5 52.5t-47.5 16.5q-46 0 -82 -38v-212h-64z" />
<glyph horiz-adv-x="343" d="M20 27q0 70 41.5 113t110.5 43q68 0 109.5 -43t41.5 -113t-41.5 -113t-109.5 -43q-69 0 -110.5 43t-41.5 113zM88 27q0 -108 84 -108q40 0 62 27.5t22 80.5t-22 80.5t-62 27.5q-84 0 -84 -108z" />
<glyph horiz-adv-x="339" d="M40 174h64v-32q43 41 89 41q51 0 88.5 -39.5t37.5 -116.5t-41 -116.5t-97 -39.5q-46 0 -77 35v-145h-64v413zM104 -42q32 -34 75 -34q73 0 73 103t-73 103q-39 0 -75 -36v-136z" />
<glyph horiz-adv-x="339" d="M20 27q0 77 41 116.5t97 39.5q46 0 77 -35v26h64v-413h-64v151q-43 -41 -89 -41q-51 0 -88.5 39.5t-37.5 116.5zM87 27q0 -103 73 -103q39 0 75 36v136q-32 34 -75 34q-73 0 -73 -103z" />
<glyph horiz-adv-x="234" d="M40 -120v294h65v-41q40 50 81 50q24 0 38 -16v-52q-22 9 -41 9q-48 0 -78 -41v-203h-65z" />
<glyph horiz-adv-x="297" d="M20 -33h68q6 -48 67 -48q26 0 42.5 11t16.5 30t-16 28t-61 16q-54 8 -84.5 27t-30.5 63q0 42 33.5 65.5t91.5 23.5q57 0 89.5 -24t33.5 -63h-69q-3 39 -57 39q-27 0 -43 -9t-16 -25q0 -18 14 -26.5t58 -15.5q56 -9 88 -28t32 -63q0 -43 -34.5 -70t-90.5 -27 q-64 0 -97.5 27t-34.5 69z" />
<glyph horiz-adv-x="236" d="M10 125v49h54v82h64v-82h82v-49h-82v-153q0 -26 7 -37.5t28 -11.5t53 10v-48q-30 -14 -68 -14q-84 0 -84 90v164h-54z" />
<glyph horiz-adv-x="348" d="M40 -32v206h64v-181q0 -36 14 -52.5t46 -16.5q44 0 80 38v212h64v-294h-64v34q-45 -43 -98 -43q-45 0 -75.5 24t-30.5 73z" />
<glyph horiz-adv-x="315" d="M10 174h71l56 -155l25 -65l25 65l55 155h63l-118 -294h-54z" />
<glyph horiz-adv-x="485" d="M10 174h70l49 -155l20 -65l20 65l48 155h56l51 -155l21 -65l19 65l48 155h63l-106 -294h-55l-48 152l-21 65l-20 -65l-48 -152h-56z" />
<glyph horiz-adv-x="313" d="M10 -120l108 153l-101 141h73l65 -95l64 95h67l-96 -136l113 -158h-73l-77 112l-76 -112h-67z" />
<glyph horiz-adv-x="315" d="M10 174h71l56 -155l25 -65l25 65l55 155h63l-165 -413h-62l52 125z" />
<glyph horiz-adv-x="276" d="M20 -71l158 196h-152v49h230v-49l-158 -196h158v-49h-236v49z" />
<glyph d="M50 205h93q10 -129 118 -149v273q-44 10 -73.5 20.5t-62 31t-49 55t-16.5 83.5q0 79 56 132t145 62v107h78v-107q96 -11 148.5 -64t56.5 -144h-93q-10 121 -112 139v-253q36 -8 60.5 -15t55.5 -21.5t50 -33.5t32 -50.5t13 -71.5q0 -85 -60.5 -143.5t-150.5 -68.5v-107 h-78v107q-97 11 -152 66.5t-59 151.5zM147 531q0 -54 29.5 -80.5t84.5 -41.5v237q-52 -7 -83 -36t-31 -79zM339 54q55 9 89.5 43t34.5 90q0 55 -32.5 82t-91.5 42v-257z" />
<glyph d="M80 258q0 112 48.5 184.5t138.5 85.5v108h78v-107q78 -10 123.5 -55.5t53.5 -117.5h-89q-15 98 -88 113v-422q73 15 88 113h89q-8 -72 -53.5 -117.5t-123.5 -55.5v-107h-78v108q-94 12 -140.5 83.5t-46.5 186.5zM166 258q0 -181 101 -209v417q-101 -34 -101 -208z" />
<glyph d="M40 0v67h90v227h-90v67h90v148q0 96 58 151t147 55q95 0 153 -49t62 -141h-93q-12 123 -122 123q-51 0 -85 -30t-34 -97v-160h224v-67h-224v-227h324v-67h-500z" />
<glyph d="M35 700h95l180 -293l172 293h83l-206 -339h170v-67h-180v-133h180v-67h-180v-94h-86v94h-180v67h180v133h-180v67h170z" />
<glyph d="M-41 -43h93q12 -113 101 -113q43 0 73.5 30t30.5 97v243h-160v67h160v228q0 99 43 152.5t122 53.5q81 0 122.5 -41t46.5 -109h-93q-7 44 -23.5 63.5t-52.5 19.5q-40 0 -59.5 -28.5t-19.5 -98.5v-240h160v-67h-160v-231q0 -96 -54 -151t-136 -55q-86 0 -138 47t-56 133z " />
<glyph d="M40 214v67h53q-3 33 -3 69q0 22 2 64h-52v67h61q21 111 80.5 172.5t152.5 61.5q199 0 234 -235h-99q-13 90 -43.5 129t-91.5 39q-111 0 -141 -167h157v-67h-165q-2 -40 -2 -64q0 -27 2 -69h165v-67h-157q27 -162 141 -162q61 0 91.5 39t43.5 129h99q-35 -235 -234 -235 q-189 0 -233 229h-61z" />
<glyph d="M31 0v700h152q116 0 173.5 -58t57.5 -205q0 -100 -26 -240h-73q25 152 25 238q0 105 -38.5 151.5t-128.5 46.5h-64v-633h-78zM181 0v502h78v-435h64q89 0 130.5 66t41.5 210q0 145 -45 357h73q19 -79 32 -179t13 -168q0 -191 -60.5 -272t-174.5 -81h-152z" />
<glyph d="M30 350q0 144 62 240t167 119l31 111h83l-29 -106q38 -3 73 -15l33 121h83l-45 -162q73 -60 90 -178h-99q-6 39 -19 74l-139 -502q134 2 158 168h99q-17 -117 -86.5 -176t-172.5 -59h-16l-29 -105h-83l33 120q-41 15 -67 35l-43 -155h-83l62 224q-63 95 -63 246zM123 350 q0 -58 9 -105l104 380q-51 -30 -82 -99.5t-31 -175.5zM181 122q26 -36 62 -53l154 560q-31 17 -71 19z" />
<glyph d="M30 0v516h80v-50q57 65 113 65q80 0 101 -70q49 58 103 68l57 107h81l-64 -119q49 -28 49 -105v-412h-80v392q0 32 -10 49l-130 -241v-200h-80v51l-87 -161h-81l168 312v190q0 72 -51 72q-44 0 -89 -54v-410h-80zM330 350l57 107q-31 -15 -57 -47v-60z" />
<glyph d="M20 220v67h60v133h-60v67h60v213h98l98 -213h166v213h78v-213h60v-67h-60v-133h60v-67h-60v-220h-98l-101 220h-163v-220h-78v220h-60zM156 577l2 -90h39zM158 287h132l-62 133h-70v-133zM307 420l61 -133h74v133h-135zM399 220l45 -97l-2 97h-43z" />
<glyph d="M50 483v67h318q-29 83 -147 83h-171v67h111h376v-67h-135q42 -36 56 -83h79v-67h-70q-3 -102 -73.5 -152.5t-172.5 -50.5l288 -280h-113l-282 280v67h107q152 0 156 136h-327z" />
<glyph d="M5 220v67h87l-19 133h-68v67h59l-29 213h79l23 -213h96l33 213h85l33 -213h91l20 213h70l-24 -213h54v-67h-62l-15 -133h77v-67h-85l-25 -220h-80l-36 220h-122l-36 -220h-80l-30 220h-96zM144 420l14 -133h44l21 133h-79zM165 220l11 -112l16 112h-27zM258 287h100 l-22 133h-56zM291 487h34l-17 107zM394 420l21 -133h42l12 133h-75zM425 220l16 -116l10 116h-26z" />
<glyph d="M60 0v67h500v-67h-500zM60 348q0 109 61.5 166t144.5 57q42 0 78 -17t55 -44v102h-130v63h130v69h80v-69h81v-63h-81v-472h-80v57q-55 -72 -148 -72q-76 0 -133.5 57.5t-57.5 165.5zM146 348q0 -79 34.5 -117.5t83.5 -38.5q77 0 135 61v195q-53 56 -130 56 q-50 0 -86.5 -39t-36.5 -117z" />
<glyph d="M20 334v67h90v299h86v-299h4l237 299h97l-247 -299h253v-67h-242l274 -334h-113l-263 333v-333h-86v334h-90z" />
<glyph d="M59 633v67h482v-67h-198v-154l130 60v-71l-130 -60v-94l130 60v-71l-130 -60v-243h-86v204l-130 -60v71l130 60v94l-130 -60v71l130 60v193h-198z" />
<glyph d="M20 446v67h80v187h162q93 0 163 -48.5t81 -138.5h72v-67h-72q-12 -90 -81.5 -138t-162.5 -48h-76v-260h-86v446h-80zM186 327h76q63 0 104 30t50 89h-230v-119zM186 513h230q-9 60 -50 90t-104 30h-76v-120z" />
<glyph d="M40 314v67h246q39 13 62 23t49 27t38 40t12 53q0 124 -142 124q-139 0 -152 -123h-93q5 88 68.5 139t176.5 51q109 0 169 -50.5t60 -133.5q0 -97 -82 -150h108v-67h-270q-72 -26 -109.5 -55t-37.5 -83q0 -124 143 -124q148 0 161 123h93q-5 -87 -72.5 -138.5 t-181.5 -51.5q-109 0 -169.5 50.5t-60.5 133.5q0 92 75 145h-91z" />
<glyph d="M30 350q0 150 67 247.5t178 114.5v108h78v-107q90 -9 149.5 -67.5t75.5 -165.5h-99q-21 144 -126 165v-590q105 21 126 165h99q-16 -107 -75.5 -165.5t-149.5 -67.5v-107h-78v108q-115 16 -180 113t-65 249zM123 350q0 -129 41 -202.5t111 -90.5v585 q-67 -19 -109.5 -92.5t-42.5 -199.5z" />
<glyph d="M80 0v700h171v120h78v-121q89 -7 146.5 -49t57.5 -127q0 -56 -34 -102t-83 -59q61 -6 104 -44t43 -113q0 -93 -64 -147.5t-170 -57.5v-120h-78v120h-171zM166 67h85v252h-85v-252zM166 386h85v247h-85v-247zM329 67q144 6 144 138q0 109 -144 114v-252zM329 388 q54 8 84 42.5t30 90.5q0 100 -114 111v-244z" />
<glyph d="M28 120l83 83q-47 67 -47 157t47 157l-83 83l47 47l83 -83q60 44 142 44t142 -44l83 83l47 -47l-83 -83q47 -67 47 -157t-47 -157l83 -83l-47 -47l-83 83q-60 -44 -142 -44t-142 44l-83 -83zM150 360q0 -91 40.5 -140t109.5 -49t109.5 49t40.5 140t-40.5 140t-109.5 49 t-109.5 -49t-40.5 -140z" />
<glyph d="M27 194v67h97l45 173h-92v67h109l51 199h81l-51 -199h144l51 199h81l-51 -199h81v-67h-98l-45 -173h93v-67h-110l-50 -194h-81l50 194h-144l-50 -194h-81l50 194h-80zM205 261h144l45 173h-144z" />
<glyph horiz-adv-x="524" d="M50 159h86q9 -87 88 -109v201q-78 17 -122 49t-44 102q0 62 46 103.5t120 49.5v81h77v-82q78 -10 121.5 -52t46.5 -111h-86q-7 82 -82 101v-184q79 -18 126 -53t47 -106q0 -65 -49 -109.5t-124 -52.5v-80h-77v81q-80 10 -125.5 54t-48.5 117zM138 412q0 -62 86 -87v171 q-38 -7 -62 -28.5t-24 -55.5zM301 46q40 7 66.5 31.5t26.5 62.5q0 66 -93 93v-187z" />
<glyph horiz-adv-x="453" d="M50 200q0 87 37 143.5t111 68.5v81h77v-81q59 -9 95.5 -44.5t42.5 -88.5h-80q-11 65 -58 77v-312q47 12 58 77h80q-6 -53 -42.5 -88.5t-95.5 -44.5v-81h-77v81q-74 12 -111 68.5t-37 143.5zM129 200q0 -128 69 -153v306q-69 -25 -69 -153z" />
<glyph horiz-adv-x="462" d="M20 0v60h66v164h-66v60h66v110q0 76 49 119.5t121 43.5q77 0 124.5 -38.5t51.5 -111.5h-86q-11 91 -90 91q-39 0 -64.5 -23t-25.5 -71v-120h174v-60h-174v-164h254v-60h-400z" />
<glyph horiz-adv-x="532" d="M44 543h91l141 -225l131 225h81l-161 -259h122v-60h-138v-95h138v-60h-138v-69h-80v69h-139v60h139v95h-139v60h122z" />
<glyph horiz-adv-x="529" d="M-20 -34h86q11 -83 78 -83q35 0 57.5 22t22.5 72v185h-121v60h121v172q0 76 46 119.5t115 43.5t114.5 -37.5t49.5 -104.5h-86q-11 83 -78 83q-35 0 -57.5 -22t-22.5 -72v-182h123v-60h-123v-175q0 -76 -46 -119.5t-115 -43.5t-114.5 37.5t-49.5 104.5z" />
<glyph horiz-adv-x="558" d="M20 162v60h55q-2 32 -2 49q0 16 2 46h-55v60h65q21 85 75.5 132.5t137.5 47.5q82 0 139 -47.5t71 -137.5h-91q-9 67 -39 96.5t-80 29.5q-97 0 -128 -121h154v-60h-163q-2 -28 -2 -46q0 -19 2 -49h163v-60h-153q31 -118 127 -118q50 0 80 30t39 97h91 q-14 -91 -71.5 -138.5t-138.5 -47.5q-82 0 -137 46.5t-76 130.5h-65z" />
<glyph horiz-adv-x="627" d="M90 0v543h151q100 0 147 -45t47 -159q0 -79 -20 -186h-69q20 115 20 184q0 75 -31 110.5t-102 35.5h-71v-483h-72zM223 0v389h72v-329h66q71 0 104 50t33 156q0 115 -36 277h69q36 -152 36 -269q0 -149 -50 -211.5t-148 -62.5h-146z" />
<glyph horiz-adv-x="569" d="M45 -93l56 171q-51 76 -51 193q0 121 54 196.5t153 87.5l27 81h77l-27 -82q22 -3 47 -11l31 93h77l-42 -129q59 -50 72 -135h-91q-3 23 -11 46l-123 -374q57 1 91 30.5t43 96.5h91q-14 -91 -76 -138.5t-151 -47.5h-17l-26 -78h-76l30 92q-24 9 -44 23l-38 -115h-76z M136 271q0 -34 5 -71l94 287q-99 -41 -99 -216zM183 95q18 -22 40 -34l139 422q-19 11 -47 14z" />
<glyph horiz-adv-x="780" d="M80 0v400h76v-52q64 64 136 64q89 0 120 -64q55 55 133 63l61 82h79l-66 -89q81 -27 81 -135v-269h-76v253q0 79 -49 91l-147 -198v-146h-76v43l-95 -128h-79l174 235v103q0 49 -18 72t-61 23q-62 0 -117 -55v-293h-76zM427 295q1 -8 1 -26v-16l62 83q-34 -13 -63 -41z " />
<glyph horiz-adv-x="586" d="M10 162v60h80v95h-80v60h80v166h88l95 -166h151v166h72v-166h80v-60h-80v-95h80v-60h-80v-162h-88l-93 162h-153v-162h-72v162h-80zM161 432l1 -55h30zM162 222h119l-54 95h-65v-95zM307 317l55 -95h62v95h-117zM396 162l30 -52l-1 52h-29z" />
<glyph horiz-adv-x="490" d="M40 365v60h248q-23 58 -111 58h-137v60h89h301v-60h-92q26 -24 36 -58h56v-60h-51q-5 -71 -55 -107.5t-129 -40.5l229 -217h-107l-226 217v60h86q109 0 118 88h-255z" />
<glyph horiz-adv-x="770" d="M10 162v60h117l-28 95h-89v60h72l-48 166h91l40 -166h143l47 166h76l48 -166h139l37 166h81l-44 -166h68v-60h-84l-25 -95h109v-60h-125l-43 -162h-72l-48 162h-163l-46 -162h-72l-47 162h-134zM180 317l23 -95h60l27 95h-110zM217 162l14 -60l16 60h-30zM325 222h130 l-28 95h-75zM369 377h40l-21 70zM496 317l28 -95h60l21 95h-109zM541 162l17 -61l13 61h-30z" />
<glyph horiz-adv-x="469" d="M50 0v60h399v-60h-399zM50 270q0 84 49 128.5t116 44.5q68 0 104 -48v81h-102v56h102v45h76v-45h54v-56h-54v-367h-76v44q-44 -56 -116 -56q-61 0 -107 44.5t-46 128.5zM129 270q0 -58 23.5 -85.5t60.5 -27.5q61 0 106 47v135q-42 44 -102 44q-38 0 -63 -28t-25 -85z" />
<glyph horiz-adv-x="498" d="M18 255v60h72v228h80v-217l178 217h89l-194 -228h197v-60h-188l216 -255h-103l-195 240v-240h-80v255h-72z" />
<glyph horiz-adv-x="444" d="M30 483v60h384v-60h-152v-99l98 44v-65l-98 -44v-73l98 44v-65l-98 -44v-181h-80v145l-98 -44v66l98 44v72l-98 -44v66l98 44v134h-152z" />
<glyph horiz-adv-x="514" d="M18 342v60h72v141h162q72 0 127 -37t66 -104h59v-60h-58q-10 -69 -65 -106.5t-129 -37.5h-82v-198h-80v342h-72zM170 258h82q97 0 110 84h-192v-84zM170 402h191q-14 81 -109 81h-82v-81z" />
<glyph horiz-adv-x="535" d="M50 239v60h204q59 20 89.5 43t30.5 66q0 41 -27.5 65.5t-75.5 24.5q-99 0 -111 -88h-86q4 68 55 107.5t142 39.5q87 0 135 -39.5t48 -103.5q0 -73 -57 -115h88v-60h-226q-52 -19 -79 -42t-27 -63t28 -65t75 -25q108 0 119 89h86q-4 -67 -59 -107.5t-146 -40.5 q-87 0 -135 40t-48 104q0 70 50 110h-73z" />
<glyph horiz-adv-x="569" d="M50 271q0 118 52 193.5t148 89.5v82h77v-81q77 -9 128.5 -55.5t63.5 -127.5h-91q-15 107 -101 123v-448q86 16 101 124h91q-12 -81 -64 -128t-128 -56v-80h-77v81q-96 14 -148 89.5t-52 193.5zM136 271q0 -188 114 -221v442q-114 -33 -114 -221z" />
<glyph horiz-adv-x="550" d="M90 0v543h137v93h77v-94q78 -6 125 -41.5t47 -104.5q0 -43 -26.5 -74t-66.5 -41q48 -5 82.5 -38t34.5 -91q0 -72 -52.5 -111t-143.5 -41v-93h-77v93h-137zM170 60h57v183h-57v-183zM170 303h57v180h-57v-180zM304 60q60 1 86 23t26 69q0 86 -112 91v-183zM304 305 q88 9 88 91q0 41 -22.5 61t-65.5 25v-177z" />
<glyph horiz-adv-x="564" d="M50 459l50 48l70 -67q48 31 112 31t112 -31l70 67l50 -48l-70 -67q35 -49 35 -113t-35 -113l69 -67l-49 -48l-70 67q-48 -31 -112 -31t-112 31l-70 -67l-49 48l69 67q-35 49 -35 113t35 113zM164 279q0 -69 34 -104t84 -35t84 35t34 104t-34 104t-84 35t-84 -35t-34 -104 z" />
<glyph horiz-adv-x="611" d="M50 146v60h95l33 126h-88v60h104l40 151h75l-40 -151h137l40 151h75l-40 -151h80v-60h-96l-33 -126h89v-60h-105l-39 -146h-75l39 146h-137l-39 -146h-75l39 146h-79zM220 206h137l33 126h-137z" />
<glyph horiz-adv-x="620" d="M50 350q0 168 69 266.5t191 98.5t191 -98.5t69 -266.5t-69 -266.5t-191 -98.5t-191 98.5t-69 266.5zM143 350q0 -120 31 -193l222 460q-37 31 -86 31q-75 0 -121 -74t-46 -224zM224 83q37 -31 86 -31q75 0 121 74t46 224q0 120 -31 193z" />
<glyph horiz-adv-x="570" d="M50 283q0 136 61 217t174 81t174 -81t61 -217t-61 -217t-174 -81t-174 81t-61 217zM140 283q0 -235 145 -235t145 235t-145 235t-145 -235z" />
<glyph horiz-adv-x="570" d="M50 283q0 136 61 217t174 81t174 -81t61 -217t-61 -217t-174 -81t-174 81t-61 217zM140 283q0 -100 27 -160l183 379q-28 16 -65 16q-145 0 -145 -235zM220 64q28 -16 65 -16q145 0 145 235q0 100 -27 160z" />
<glyph horiz-adv-x="375" d="M40 401v75l161 90h84v-566h-84v488z" />
<glyph horiz-adv-x="507" d="M40 386q5 94 60.5 144.5t158.5 50.5q96 0 148 -45.5t52 -127.5q0 -78 -62.5 -147.5t-226.5 -191.5h307v-69h-422v69q175 130 224 176q89 86 90 163q0 54 -28.5 82t-81.5 28q-57 0 -89 -31t-39 -101h-91z" />
<glyph horiz-adv-x="568" d="M50 51h91q6 -76 43.5 -106.5t108.5 -30.5q65 0 105 36.5t40 115.5q0 132 -171 132h-71v63h71q74 0 112.5 34.5t38.5 97.5q0 65 -34.5 95t-91.5 30q-64 0 -100 -30.5t-45 -106.5h-91q8 94 70.5 147t165.5 53q98 0 157 -50t59 -138q0 -53 -34 -98.5t-95 -61.5 q76 -10 112.5 -58.5t36.5 -108.5q0 -95 -68.5 -155t-166.5 -60q-116 0 -177 52t-66 148z" />
<glyph horiz-adv-x="556" d="M30 0v69l214 497h84l-214 -497h212v187h84v-187h106v-69h-106v-134h-84v134h-296z" />
<glyph horiz-adv-x="543" d="M50 31h91q6 -67 41.5 -92t94.5 -25q136 0 136 177q0 98 -35.5 137.5t-100.5 39.5q-86 0 -136 -80h-74v378h395v-69h-321v-231q58 65 148 65q93 0 153.5 -60.5t60.5 -179.5q0 -113 -64.5 -176.5t-161.5 -63.5q-107 0 -164.5 46.5t-62.5 133.5z" />
<glyph horiz-adv-x="586" d="M50 330q0 219 68 324t193 105q96 0 151.5 -47t63.5 -133h-91q-16 117 -124 117q-38 0 -66.5 -14t-52 -49t-37 -101.5t-15.5 -163.5q32 39 80 63t102 24q98 0 156 -60.5t58 -174.5q0 -106 -70 -170.5t-169 -64.5q-123 0 -185 88.5t-62 256.5zM141 294q10 -246 156 -246 q69 0 109 42.5t40 129.5q0 172 -136 172q-51 0 -96.5 -28t-72.5 -70z" />
<glyph horiz-adv-x="482" d="M40 497v69h412v-69l-252 -631h-84l257 631h-333z" />
<glyph horiz-adv-x="608" d="M50 203q0 67 42 123t105 71q-56 19 -91.5 62t-35.5 105q0 89 65 142t169 53t169 -53t65 -142q0 -62 -35.5 -105t-91.5 -62q63 -15 105 -71t42 -123q0 -103 -72.5 -160.5t-181.5 -57.5t-181.5 57.5t-72.5 160.5zM140 203q0 -77 46 -116t118 -39t118 39t46 116 q0 66 -43 112.5t-121 46.5t-121 -46.5t-43 -112.5zM160 564q0 -60 36.5 -99.5t107.5 -39.5t107.5 39.5t36.5 99.5q0 66 -40 99t-104 33t-104 -33t-40 -99z" />
<glyph horiz-adv-x="586" d="M50 356q0 105 69.5 165t169.5 60q123 0 185 -88.5t62 -256.5q0 -385 -261 -385q-96 0 -151.5 47t-63.5 133h91q16 -117 124 -117q39 0 67.5 12.5t52.5 44t37 93.5t14 154q-31 -39 -79 -63t-103 -24q-99 0 -156.5 56t-57.5 169zM140 356q0 -162 136 -162q51 0 96 27.5 t72 68.5q-14 228 -155 228q-149 0 -149 -162z" />
<glyph d="M50 350q0 169 64.5 267t185.5 98t185.5 -98t64.5 -267t-64.5 -267t-185.5 -98t-185.5 98t-64.5 267zM143 350q0 -151 41.5 -224.5t115.5 -73.5t115.5 73.5t41.5 224.5t-41.5 224.5t-115.5 73.5t-115.5 -73.5t-41.5 -224.5z" />
<glyph d="M50 350q0 169 64.5 267t185.5 98t185.5 -98t64.5 -267t-64.5 -267t-185.5 -98t-185.5 98t-64.5 267zM143 350q0 -113 25 -186l217 451q-36 33 -85 33q-74 0 -115.5 -73.5t-41.5 -224.5zM215 85q36 -33 85 -33q74 0 115.5 73.5t41.5 224.5q0 113 -25 186z" />
<glyph d="M107 0v67h168v555l-168 -87v75l168 90h86v-633h168v-67h-254h-168z" />
<glyph d="M80 490q4 108 66 166.5t167 58.5q98 0 154.5 -51.5t56.5 -146.5q0 -91 -75.5 -190.5t-244.5 -259.5h333v-67h-442v67q175 168 228 228q111 128 111 222q0 66 -33 98.5t-88 32.5q-128 0 -140 -158h-93z" />
<glyph d="M70 185h93q12 -133 150 -133q62 0 103.5 40.5t41.5 107.5q0 58 -42.5 94t-128.5 36h-71v67h71q72 0 111.5 36.5t39.5 93.5q0 59 -35.5 90t-90.5 31q-125 0 -143 -133h-93q8 94 70.5 147t165.5 53q98 0 157 -50t59 -138q0 -53 -34 -98.5t-95 -61.5q76 -10 112.5 -58.5 t36.5 -108.5q0 -95 -68.5 -155t-166.5 -60q-116 0 -177 52t-66 148z" />
<glyph d="M60 143v67l214 490h86l-214 -490h214v180h86v-180h100v-67h-100v-143h-86v143h-300z" />
<glyph d="M80 165h93q12 -113 134 -113q62 0 99 43.5t37 129.5q0 93 -33 133t-95 40q-94 0 -142 -76h-76v378h395v-67h-319v-244q56 76 154 76q92 0 149 -60t57 -180q0 -113 -64.5 -176.5t-161.5 -63.5q-107 0 -164.5 46.5t-62.5 133.5z" />
<glyph d="M60 310q0 194 69 299.5t191 105.5q93 0 145.5 -43t60.5 -117h-93q-18 93 -113 93q-74 0 -116.5 -65.5t-49.5 -212.5q73 85 178 85q98 0 156 -60.5t58 -174.5q0 -106 -70 -170.5t-169 -64.5q-122 0 -184.5 85.5t-62.5 239.5zM153 302q3 -250 154 -250q68 0 108.5 43.5 t40.5 124.5q0 82 -35 125t-101 43q-53 0 -96 -23.5t-71 -62.5z" />
<glyph d="M80 633v67h432v-67l-272 -633h-84l277 633h-353z" />
<glyph d="M52 186q0 66 38.5 114t102.5 63q-121 42 -121 162q0 89 62 139.5t166 50.5t166 -50.5t62 -139.5q0 -120 -121 -162q64 -15 102.5 -63t38.5 -114q0 -102 -68.5 -151.5t-179.5 -49.5t-179.5 50t-68.5 151zM142 186q0 -70 42.5 -102t115.5 -32t115.5 32t42.5 102 q0 64 -39.5 102t-118.5 38t-118.5 -38t-39.5 -102zM162 525q0 -60 33.5 -96t104.5 -36t104.5 36t33.5 96t-38 91.5t-100 31.5t-100 -31.5t-38 -91.5z" />
<glyph d="M60 488q0 102 70 164.5t169 62.5q122 0 184.5 -85.5t62.5 -239.5q0 -197 -66.5 -301t-194.5 -104q-96 0 -152.5 47t-62.5 133h93q14 -113 122 -113q83 0 123.5 69t44.5 230q-32 -38 -79.5 -62t-99.5 -24q-98 0 -156 56.5t-58 166.5zM150 488q0 -156 136 -156 q105 0 167 85q-8 231 -154 231q-68 0 -108.5 -41.5t-40.5 -118.5z" />
<glyph d="M65 283q0 136 61 217t174 81t174 -81t61 -217t-61 -217t-174 -81t-174 81t-61 217zM155 283q0 -235 145 -235t145 235t-145 235t-145 -235z" />
<glyph d="M65 283q0 136 61 217t174 81t174 -81t61 -217t-61 -217t-174 -81t-174 81t-61 217zM155 283q0 -100 27 -160l183 379q-28 16 -65 16q-145 0 -145 -235zM235 64q28 -16 65 -16q145 0 145 235q0 100 -27 160z" />
<glyph d="M101 0v69h180v418l-180 -90v79l180 90h84v-497h170v-69h-254h-180z" />
<glyph d="M90 386q5 94 60.5 144.5t158.5 50.5q96 0 148 -45.5t52 -127.5q0 -78 -62.5 -147.5t-226.5 -191.5h307v-69h-422v69q175 130 224 176q89 86 90 163q0 54 -28.5 82t-81.5 28q-57 0 -89 -31t-39 -101h-91z" />
<glyph d="M61 51h91q6 -76 43.5 -106.5t108.5 -30.5q65 0 105 36.5t40 115.5q0 132 -171 132h-71v63h71q74 0 112.5 34.5t38.5 97.5q0 65 -34.5 95t-91.5 30q-64 0 -100 -30.5t-45 -106.5h-91q8 94 70.5 147t165.5 53q98 0 157 -50t59 -138q0 -53 -34 -98.5t-95 -61.5 q76 -10 112.5 -58.5t36.5 -108.5q0 -95 -68.5 -155t-166.5 -60q-116 0 -177 52t-66 148z" />
<glyph d="M60 0v69l214 497h84l-214 -497h212v187h84v-187h106v-69h-106v-134h-84v134h-296z" />
<glyph d="M70 31h91q6 -67 41.5 -92t94.5 -25q136 0 136 177q0 98 -35.5 137.5t-100.5 39.5q-86 0 -136 -80h-74v378h395v-69h-321v-231q58 65 148 65q93 0 153.5 -60.5t60.5 -179.5q0 -113 -64.5 -176.5t-161.5 -63.5q-107 0 -164.5 46.5t-62.5 133.5z" />
<glyph d="M50 330q0 219 68 324t193 105q96 0 151.5 -47t63.5 -133h-91q-16 117 -124 117q-38 0 -66.5 -14t-52 -49t-37 -101.5t-15.5 -163.5q32 39 80 63t102 24q98 0 156 -60.5t58 -174.5q0 -106 -70 -170.5t-169 -64.5q-123 0 -185 88.5t-62 256.5zM141 294q10 -246 156 -246 q69 0 109 42.5t40 129.5q0 172 -136 172q-51 0 -96.5 -28t-72.5 -70z" />
<glyph d="M74 497v69h452v-69l-272 -631h-84l277 631h-373z" />
<glyph d="M46 203q0 67 42 123t105 71q-56 19 -91.5 62t-35.5 105q0 89 65 142t169 53t169 -53t65 -142q0 -62 -35.5 -105t-91.5 -62q63 -15 105 -71t42 -123q0 -103 -72.5 -160.5t-181.5 -57.5t-181.5 57.5t-72.5 160.5zM136 203q0 -77 46 -116t118 -39t118 39t46 116 q0 66 -43 112.5t-121 46.5t-121 -46.5t-43 -112.5zM156 564q0 -60 36.5 -99.5t107.5 -39.5t107.5 39.5t36.5 99.5q0 66 -40 99t-104 33t-104 -33t-40 -99z" />
<glyph d="M50 356q0 105 69.5 165t169.5 60q123 0 185 -88.5t62 -256.5q0 -385 -261 -385q-96 0 -151.5 47t-63.5 133h91q16 -117 124 -117q39 0 67.5 12.5t52.5 44t37 93.5t14 154q-31 -39 -79 -63t-103 -24q-99 0 -156.5 56t-57.5 169zM140 356q0 -162 136 -162q51 0 96 27.5 t72 68.5q-14 228 -155 228q-149 0 -149 -162z" />
<glyph horiz-adv-x="540" d="M50 271q0 130 59 208t161 78t161 -78t59 -208t-59 -208t-161 -78t-161 78t-59 208zM136 271q0 -110 37.5 -168.5t96.5 -58.5t96.5 58.5t37.5 168.5t-37.5 168.5t-96.5 58.5t-96.5 -58.5t-37.5 -168.5z" />
<glyph horiz-adv-x="540" d="M50 271q0 130 59 208t161 78t161 -78t59 -208t-59 -208t-161 -78t-161 78t-59 208zM136 271q0 -84 24 -142l173 348q-27 21 -63 21q-59 0 -96.5 -58.5t-37.5 -168.5zM206 66q28 -22 64 -22q59 0 96.5 58.5t37.5 168.5q0 85 -24 143z" />
<glyph horiz-adv-x="343" d="M40 403v70l133 70h80v-543h-80v470z" />
<glyph horiz-adv-x="448" d="M50 380q4 83 54.5 130t133.5 47q78 0 122.5 -39.5t44.5 -113.5q0 -72 -57.5 -148t-188.5 -196h249v-60h-346v60q56 52 77 72t61 60t55.5 60t35.5 49.5t27 53.5t7 49q0 46 -24.5 70t-62.5 24q-91 0 -102 -118h-86z" />
<glyph horiz-adv-x="484" d="M50 143h86q12 -99 113 -99q50 0 80.5 28t30.5 80q0 45 -33.5 72.5t-102.5 27.5h-57v60h57q58 0 89 28t31 71q0 40 -26 63.5t-69 23.5q-91 0 -108 -99h-86q6 73 58.5 115.5t135.5 42.5q86 0 132.5 -38t46.5 -108q0 -41 -27.5 -78t-75.5 -49q60 -8 89.5 -46.5t29.5 -85.5 q0 -74 -55 -120.5t-140 -46.5q-93 0 -144 42t-55 116z" />
<glyph horiz-adv-x="471" d="M30 112v60l171 371h79l-171 -371h162v130h80v-130h80v-60h-80v-112h-80v112h-241z" />
<glyph horiz-adv-x="464" d="M50 128h86q12 -84 101 -84q47 0 75 33t28 94q0 130 -102 130q-56 0 -102 -51h-72v293h328v-60h-256v-172q41 49 112 49q81 0 128.5 -47.5t47.5 -141.5q0 -88 -52.5 -137t-134.5 -49q-86 0 -134.5 38t-52.5 105z" />
<glyph horiz-adv-x="501" d="M50 240q0 152 56 234.5t157 82.5q75 0 120.5 -35t51.5 -92h-87q-13 68 -85 68q-111 0 -125 -199q56 54 130 54q85 0 134 -46.5t49 -135.5q0 -82 -59.5 -134t-138.5 -52q-98 0 -150.5 68t-52.5 187zM136 238q0 -194 117 -194q52 0 83 35t31 92t-28.5 90t-80.5 33 q-71 0 -122 -56z" />
<glyph horiz-adv-x="412" d="M40 483v60h342v-60l-202 -483h-77l205 483h-268z" />
<glyph horiz-adv-x="509" d="M50 144q0 51 31 88.5t82 48.5q-97 34 -97 126q0 68 52.5 109t135.5 41q84 0 136.5 -41t52.5 -109q0 -92 -97 -126q51 -11 82 -48.5t31 -88.5q0 -79 -58 -119t-147 -40q-88 0 -146 40.5t-58 118.5zM134 144q0 -53 34 -76.5t86 -23.5q53 0 87 23.5t34 76.5q0 49 -31.5 77.5 t-89.5 28.5t-89 -28.5t-31 -77.5zM150 407q0 -44 26.5 -71t77.5 -27t78 27t27 71q0 45 -30.5 68t-74.5 23t-74 -23t-30 -68z" />
<glyph horiz-adv-x="501" d="M50 375q0 84 58.5 133t139.5 49q98 0 150.5 -68t52.5 -187q0 -152 -56 -234.5t-157 -82.5q-78 0 -127 37t-55 106h87q14 -84 95 -84q116 0 126 216q-57 -55 -131 -55q-86 0 -134.5 42.5t-48.5 127.5zM134 375q0 -53 28.5 -82t80.5 -29q71 0 122 56q-6 178 -117 178 q-52 0 -83 -33.5t-31 -89.5z" />
<glyph horiz-adv-x="424" d="M30 650q0 99 50.5 159t131.5 60t131.5 -60t50.5 -159t-50.5 -159t-131.5 -60t-131.5 60t-50.5 159zM108 650q0 -82 29 -121.5t75 -39.5q45 0 74 39.5t29 121.5t-29 121.5t-74 39.5q-46 0 -75 -39.5t-29 -121.5z" />
<glyph horiz-adv-x="246" d="M20 740v67l102 53h74v-420h-74v353z" />
<glyph horiz-adv-x="365" d="M30 734q2 64 43.5 99.5t110.5 35.5q66 0 107.5 -33t41.5 -96q0 -51 -37 -94.5t-138 -131.5l-21 -18h198v-56h-296v56q23 21 60.5 53t55 47.5t41.5 38.5t34.5 38t18.5 32.5t8 34.5q0 71 -73 71q-67 0 -76 -77h-78z" />
<glyph horiz-adv-x="386" d="M30 551h78q8 -62 88 -62q84 0 84 70q0 33 -25 51.5t-73 18.5h-55v58h55q85 0 85 64q0 60 -75 60q-69 0 -80 -62h-79q5 56 48 88t111 32t109.5 -32t41.5 -86q0 -31 -22 -56.5t-62 -34.5q49 -6 73 -35t24 -66q0 -56 -47.5 -92t-112.5 -36q-76 0 -120 32t-46 88z" />
<glyph horiz-adv-x="361" d="M20 516v58l139 286h74l-140 -286h116v100h73v-100h69v-58h-69v-76h-73v76h-189z" />
<glyph horiz-adv-x="360" d="M30 539h78q9 -50 72 -50q83 0 83 86q0 92 -78 92q-51 0 -77 -34h-67v227h269v-58h-202v-109q32 32 93 32q60 0 99.5 -39t39.5 -111q0 -67 -47.5 -105.5t-112.5 -38.5q-70 0 -109 28t-41 80z" />
<glyph horiz-adv-x="381" d="M30 626q0 116 47 179.5t127 63.5q62 0 100.5 -26.5t43.5 -69.5h-78q-15 38 -66 38q-82 0 -94 -136q41 38 99 38q71 0 111.5 -36t40.5 -105q0 -63 -47.5 -102t-112.5 -39q-80 0 -125.5 52t-45.5 143zM108 620q3 -131 93 -131q84 0 84 83q0 37 -21 60t-62 23q-56 0 -94 -35 z" />
<glyph horiz-adv-x="314" d="M20 802v58h274v-58l-164 -362h-73l167 362h-204z" />
<glyph horiz-adv-x="390" d="M30 552q0 39 25 68t67 38q-79 25 -79 97q0 52 42 83t110 31t110 -31t42 -83q0 -72 -79 -97q42 -9 67 -38t25 -68q0 -61 -46.5 -91t-118.5 -30t-118.5 30t-46.5 91zM107 560q0 -71 88 -71t88 71q0 67 -88 67t-88 -67zM120 747q0 -62 75 -62t75 62q0 34 -21.5 49t-53.5 15 t-53.5 -15t-21.5 -49z" />
<glyph horiz-adv-x="381" d="M20 728q0 63 47.5 102t112.5 39q80 0 125.5 -52t45.5 -143q0 -116 -47 -179.5t-127 -63.5q-63 0 -104 29t-45 79h78q15 -50 71 -50q82 0 94 136q-41 -38 -99 -38q-71 0 -111.5 36t-40.5 105zM96 728q0 -37 21 -60t62 -23q56 0 94 35q-3 131 -93 131q-84 0 -84 -83z" />
<glyph horiz-adv-x="359" d="M30 630v58h118v109h61v-109h120v-58h-120v-109h-61v109h-118z" />
<glyph horiz-adv-x="359" d="M30 630v58h299v-58h-299z" />
<glyph horiz-adv-x="359" d="M30 570v58h299v-58h-299zM30 690v58h299v-58h-299z" />
<glyph horiz-adv-x="147" d="M30 324l13 170h74l-23 -170h-64z" />
<glyph horiz-adv-x="160" d="M30 480q0 21 15 35t35 14t35 -14t15 -35t-15 -35t-35 -14t-35 14t-15 35z" />
<glyph horiz-adv-x="236" d="M30 650q0 91 37 165t91 120h68q-54 -50 -86 -128t-32 -157t32 -157t86 -128h-68q-54 46 -91 120t-37 165z" />
<glyph horiz-adv-x="236" d="M10 365q53 50 85 128t32 157t-32 157t-85 128h68q54 -46 91 -120.5t37 -164.5t-37 -164.5t-91 -120.5h-68z" />
<glyph horiz-adv-x="424" d="M30 90q0 99 50.5 159t131.5 60t131.5 -60t50.5 -159t-50.5 -159t-131.5 -60t-131.5 60t-50.5 159zM108 90q0 -82 29 -121.5t75 -39.5q45 0 74 39.5t29 121.5t-29 121.5t-74 39.5q-46 0 -75 -39.5t-29 -121.5z" />
<glyph horiz-adv-x="246" d="M20 180v67l102 53h74v-420h-74v353z" />
<glyph horiz-adv-x="365" d="M30 174q2 64 43.5 99.5t110.5 35.5q66 0 107.5 -33t41.5 -96q0 -51 -37 -94.5t-138 -131.5l-21 -18h198v-56h-296v56q23 21 60.5 53t55 47.5t41.5 38.5t34.5 38t18.5 32.5t8 34.5q0 71 -73 71q-67 0 -76 -77h-78z" />
<glyph horiz-adv-x="386" d="M30 -9h78q8 -62 88 -62q84 0 84 70q0 33 -25 51.5t-73 18.5h-55v58h55q85 0 85 64q0 60 -75 60q-69 0 -80 -62h-79q5 56 48 88t111 32t109.5 -32t41.5 -86q0 -31 -22 -56.5t-62 -34.5q49 -6 73 -35t24 -66q0 -56 -47.5 -92t-112.5 -36q-76 0 -120 32t-46 88z" />
<glyph horiz-adv-x="361" d="M20 14l139 286h74l-140 -286h116v100h73v-100h69v-58h-69v-76h-73v76h-189v58z" />
<glyph horiz-adv-x="360" d="M30 -21h78q9 -50 72 -50q83 0 83 86q0 92 -78 92q-51 0 -77 -34h-67v227h269v-58h-202v-109q32 32 93 32q60 0 99.5 -39t39.5 -111q0 -67 -47.5 -105.5t-112.5 -38.5q-70 0 -109 28t-41 80z" />
<glyph horiz-adv-x="381" d="M30 66q0 116 47 179.5t127 63.5q62 0 100.5 -26.5t43.5 -69.5h-78q-15 38 -66 38q-82 0 -94 -136q41 38 99 38q71 0 111.5 -36t40.5 -105q0 -63 -47.5 -102t-112.5 -39q-80 0 -125.5 52t-45.5 143zM108 60q3 -131 93 -131q84 0 84 83q0 37 -21 60t-62 23q-56 0 -94 -35z " />
<glyph horiz-adv-x="314" d="M20 242v58h274v-58l-164 -362h-73l167 362h-204z" />
<glyph horiz-adv-x="390" d="M30 -8q0 39 25 68t67 38q-79 25 -79 97q0 52 42 83t110 31t110 -31t42 -83q0 -72 -79 -97q42 -9 67 -38t25 -68q0 -61 -46.5 -91t-118.5 -30t-118.5 30t-46.5 91zM107 0q0 -71 88 -71t88 71q0 67 -88 67t-88 -67zM120 187q0 -62 75 -62t75 62q0 34 -21.5 49t-53.5 15 t-53.5 -15t-21.5 -49z" />
<glyph horiz-adv-x="381" d="M20 168q0 63 47.5 102t112.5 39q80 0 125.5 -52t45.5 -143q0 -116 -47 -179.5t-127 -63.5q-63 0 -104 29t-45 79h78q15 -50 71 -50q82 0 94 136q-41 -38 -99 -38q-71 0 -111.5 36t-40.5 105zM96 168q0 -37 21 -60t62 -23q56 0 94 35q-3 131 -93 131q-84 0 -84 -83z" />
<glyph horiz-adv-x="359" d="M30 70v58h118v109h61v-109h120v-58h-120v-109h-61v109h-118z" />
<glyph horiz-adv-x="359" d="M30 70v58h299v-58h-299z" />
<glyph horiz-adv-x="359" d="M30 10v58h299v-58h-299zM30 130v58h299v-58h-299z" />
<glyph horiz-adv-x="147" d="M30 -236l13 170h74l-23 -170h-64z" />
<glyph horiz-adv-x="160" d="M30 -80q0 21 15 35t35 14t35 -14t15 -35t-15 -35t-35 -14t-35 14t-15 35z" />
<glyph horiz-adv-x="236" d="M30 90q0 91 37 165t91 120h68q-54 -50 -86 -128t-32 -157t32 -157t86 -128h-68q-54 46 -91 120t-37 165z" />
<glyph horiz-adv-x="236" d="M10 -195q53 50 85 128t32 157t-32 157t-85 128h68q54 -46 91 -120.5t37 -164.5t-37 -164.5t-91 -120.5h-68z" />
<glyph horiz-adv-x="424" d="M30 490q0 99 50.5 159t131.5 60t131.5 -60t50.5 -159t-50.5 -159t-131.5 -60t-131.5 60t-50.5 159zM108 490q0 -82 29 -121.5t75 -39.5q45 0 74 39.5t29 121.5t-29 121.5t-74 39.5q-46 0 -75 -39.5t-29 -121.5z" />
<glyph horiz-adv-x="246" d="M20 580v67l102 53h74v-420h-74v353z" />
<glyph horiz-adv-x="365" d="M30 574q2 64 43.5 99.5t110.5 35.5q66 0 107.5 -33t41.5 -96q0 -51 -37 -94.5t-138 -131.5l-21 -18h198v-56h-296v56q23 21 60.5 53t55 47.5t41.5 38.5t34.5 38t18.5 32.5t8 34.5q0 71 -73 71q-67 0 -76 -77h-78z" />
<glyph horiz-adv-x="386" d="M30 391h78q8 -62 88 -62q84 0 84 70q0 33 -25 51.5t-73 18.5h-55v58h55q85 0 85 64q0 60 -75 60q-69 0 -80 -62h-79q5 56 48 88t111 32t109.5 -32t41.5 -86q0 -31 -22 -56.5t-62 -34.5q49 -6 73 -35t24 -66q0 -56 -47.5 -92t-112.5 -36q-76 0 -120 32t-46 88z" />
<glyph horiz-adv-x="361" d="M20 356v58l139 286h74l-140 -286h116v100h73v-100h69v-58h-69v-76h-73v76h-189z" />
<glyph horiz-adv-x="360" d="M30 379h78q9 -50 72 -50q83 0 83 86q0 92 -78 92q-51 0 -77 -34h-67v227h269v-58h-202v-109q32 32 93 32q60 0 99.5 -39t39.5 -111q0 -67 -47.5 -105.5t-112.5 -38.5q-70 0 -109 28t-41 80z" />
<glyph horiz-adv-x="381" d="M30 466q0 116 47 179.5t127 63.5q62 0 100.5 -26.5t43.5 -69.5h-78q-15 38 -66 38q-82 0 -94 -136q41 38 99 38q71 0 111.5 -36t40.5 -105q0 -63 -47.5 -102t-112.5 -39q-80 0 -125.5 52t-45.5 143zM108 460q3 -131 93 -131q84 0 84 83q0 37 -21 60t-62 23q-56 0 -94 -35 z" />
<glyph horiz-adv-x="314" d="M20 642v58h274v-58l-164 -362h-73l167 362h-204z" />
<glyph horiz-adv-x="390" d="M30 392q0 39 25 68t67 38q-79 25 -79 97q0 52 42 83t110 31t110 -31t42 -83q0 -72 -79 -97q42 -9 67 -38t25 -68q0 -61 -46.5 -91t-118.5 -30t-118.5 30t-46.5 91zM107 400q0 -71 88 -71t88 71q0 67 -88 67t-88 -67zM120 587q0 -62 75 -62t75 62q0 34 -21.5 49t-53.5 15 t-53.5 -15t-21.5 -49z" />
<glyph horiz-adv-x="381" d="M20 568q0 63 47.5 102t112.5 39q80 0 125.5 -52t45.5 -143q0 -116 -47 -179.5t-127 -63.5q-63 0 -104 29t-45 79h78q15 -50 71 -50q82 0 94 136q-41 -38 -99 -38q-71 0 -111.5 36t-40.5 105zM96 568q0 -37 21 -60t62 -23q56 0 94 35q-3 131 -93 131q-84 0 -84 -83z" />
<glyph horiz-adv-x="424" d="M30 210q0 99 50.5 159t131.5 60t131.5 -60t50.5 -159t-50.5 -159t-131.5 -60t-131.5 60t-50.5 159zM108 210q0 -82 29 -121.5t75 -39.5q45 0 74 39.5t29 121.5t-29 121.5t-74 39.5q-46 0 -75 -39.5t-29 -121.5z" />
<glyph horiz-adv-x="246" d="M20 300v67l102 53h74v-420h-74v353z" />
<glyph horiz-adv-x="365" d="M30 294q2 64 43.5 99.5t110.5 35.5q66 0 107.5 -33t41.5 -96q0 -51 -37 -94.5t-138 -131.5l-21 -18h198v-56h-296v56q23 21 60.5 53t55 47.5t41.5 38.5t34.5 38t18.5 32.5t8 34.5q0 71 -73 71q-67 0 -76 -77h-78z" />
<glyph horiz-adv-x="386" d="M30 111h78q8 -62 88 -62q84 0 84 70q0 33 -25 51.5t-73 18.5h-55v58h55q85 0 85 64q0 60 -75 60q-69 0 -80 -62h-79q5 56 48 88t111 32t109.5 -32t41.5 -86q0 -31 -22 -56.5t-62 -34.5q49 -6 73 -35t24 -66q0 -56 -47.5 -92t-112.5 -36q-76 0 -120 32t-46 88z" />
<glyph horiz-adv-x="361" d="M20 76v58l139 286h74l-140 -286h116v100h73v-100h69v-58h-69v-76h-73v76h-189z" />
<glyph horiz-adv-x="360" d="M30 99h78q9 -50 72 -50q83 0 83 86q0 92 -78 92q-51 0 -77 -34h-67v227h269v-58h-202v-109q32 32 93 32q60 0 99.5 -39t39.5 -111q0 -67 -47.5 -105.5t-112.5 -38.5q-70 0 -109 28t-41 80z" />
<glyph horiz-adv-x="381" d="M30 186q0 116 47 179.5t127 63.5q62 0 100.5 -26.5t43.5 -69.5h-78q-15 38 -66 38q-82 0 -94 -136q41 38 99 38q71 0 111.5 -36t40.5 -105q0 -63 -47.5 -102t-112.5 -39q-80 0 -125.5 52t-45.5 143zM108 180q3 -131 93 -131q84 0 84 83q0 37 -21 60t-62 23q-56 0 -94 -35 z" />
<glyph horiz-adv-x="314" d="M20 362v58h274v-58l-164 -362h-73l167 362h-204z" />
<glyph horiz-adv-x="390" d="M30 112q0 39 25 68t67 38q-79 25 -79 97q0 52 42 83t110 31t110 -31t42 -83q0 -72 -79 -97q42 -9 67 -38t25 -68q0 -61 -46.5 -91t-118.5 -30t-118.5 30t-46.5 91zM107 120q0 -71 88 -71t88 71q0 67 -88 67t-88 -67zM120 307q0 -62 75 -62t75 62q0 34 -21.5 49t-53.5 15 t-53.5 -15t-21.5 -49z" />
<glyph horiz-adv-x="381" d="M20 288q0 63 47.5 102t112.5 39q80 0 125.5 -52t45.5 -143q0 -116 -47 -179.5t-127 -63.5q-63 0 -104 29t-45 79h78q15 -50 71 -50q82 0 94 136q-41 -38 -99 -38q-71 0 -111.5 36t-40.5 105zM96 288q0 -37 21 -60t62 -23q56 0 94 35q-3 131 -93 131q-84 0 -84 -83z" />
<glyph horiz-adv-x="755" d="M50 85l280 280l-280 280l47 47l280 -280l281 281l47 -47l-281 -281l281 -281l-47 -47l-281 281l-280 -280z" />
<glyph horiz-adv-x="1000" d="M40 332v67h920v-67h-920z" />
<glyph horiz-adv-x="500" d="M40 332v67h420v-67h-420z" />
<glyph horiz-adv-x="340" d="M50 332v67h240v-67h-240z" />
<glyph horiz-adv-x="340" d="M50 322v71l240 200v-93l-170 -141l170 -140v-97z" />
<glyph horiz-adv-x="340" d="M50 122v93l170 141l-170 140v97l240 -200v-71z" />
<glyph horiz-adv-x="550" d="M50 322v71l240 200v-93l-170 -141l170 -140v-97zM260 322v71l240 200v-93l-170 -141l170 -140v-97z" />
<glyph horiz-adv-x="550" d="M50 122v93l170 141l-170 140v97l240 -200v-71zM260 122v93l170 141l-170 140v97l240 -200v-71z" />
<glyph horiz-adv-x="514" d="M40 163q0 47 16 83.5t39 56.5t49 41t45.5 37.5t29 46.5t-0.5 67h86q10 -47 1 -82t-28.5 -53.5t-44.5 -38t-48 -36.5t-38.5 -48.5t-15.5 -73.5q0 -55 33 -83t88 -28q52 0 88 31.5t42 96.5h93q-4 -89 -65 -142t-158 -53t-154 47t-57 131zM201 655q0 26 17.5 43t42.5 17 t42.5 -17t17.5 -43t-17.5 -43t-42.5 -17t-42.5 17t-17.5 43z" />
<glyph horiz-adv-x="320" d="M100 655q0 26 17.5 43t42.5 17t42.5 -17t17.5 -43t-17.5 -43t-42.5 -17t-42.5 17t-17.5 43zM112 0l17 495h62l17 -495h-96z" />
<glyph horiz-adv-x="1052" d="M60 263q0 232 154 382t404 150q155 0 264.5 -96t109.5 -250q0 -76 -19 -140.5t-49.5 -108.5t-69 -75t-77 -45.5t-74.5 -14.5q-42 0 -67.5 19.5t-27.5 56.5q-85 -76 -176 -76q-62 0 -106 52.5t-44 154.5q0 70 16.5 127.5t44 96t64 65t75 38.5t77.5 12q35 0 67 -17t50 -44 l8 46h80l-72 -410q-5 -30 3.5 -46.5t26.5 -16.5q75 0 129.5 93t54.5 222q0 128 -81 213.5t-227 85.5q-191 0 -321 -130t-130 -328q0 -175 95.5 -269.5t254.5 -94.5q61 0 133.5 12.5t115.5 29.5l-10 -57q-47 -17 -122.5 -30t-141.5 -13q-82 0 -155 25.5t-131 74t-92 128 t-34 178.5zM369 282q0 -75 29.5 -112.5t68.5 -37.5q78 0 146 61v-1l54 306l-2 -10q-44 56 -115 56t-126 -65t-55 -197z" />
<glyph horiz-adv-x="845" d="M50 256v60h745v-60h-745z" />
<glyph horiz-adv-x="440" d="M50 256v60h340v-60h-340z" />
<glyph horiz-adv-x="309" d="M50 256v60h209v-60h-209z" />
<glyph horiz-adv-x="437" d="M40 403q4 69 55 111.5t128 42.5q78 0 126 -38t48 -103q0 -43 -17.5 -74t-41.5 -48.5t-46.5 -34t-34 -41t-2.5 -59.5h-81q-9 43 2 72t33.5 45.5t46.5 32t41.5 42.5t17.5 65q0 42 -25.5 62t-66.5 20q-38 0 -64.5 -22.5t-32.5 -72.5h-86zM157 37q0 22 15.5 36.5t37.5 14.5 q23 0 38 -14.5t15 -36.5t-15 -37t-38 -15q-22 0 -37.5 15t-15.5 37z" />
<glyph horiz-adv-x="437" d="M40 126q0 43 17.5 74t41.5 48.5t46.5 34t34 41t2.5 59.5h81q9 -43 -2 -72t-33.5 -45.5t-46.5 -32t-41.5 -42.5t-17.5 -65q0 -42 25.5 -62t66.5 -20q38 0 64.5 22.5t32.5 72.5h86q-4 -69 -55 -111.5t-128 -42.5q-78 0 -126 38t-48 103zM174 505q0 22 15 37t38 15 q22 0 37.5 -15t15.5 -37t-15.5 -36.5t-37.5 -14.5q-23 0 -38 14.5t-15 36.5z" />
<glyph horiz-adv-x="306" d="M100 37q0 22 15.5 36.5t37.5 14.5q23 0 38 -14.5t15 -36.5t-15 -37t-38 -15q-22 0 -37.5 15t-15.5 37zM109 543h88l-13 -384h-62z" />
<glyph horiz-adv-x="306" d="M100 506q0 22 15.5 37t37.5 15q23 0 38 -15t15 -37t-15 -36.5t-38 -14.5q-22 0 -37.5 14.5t-15.5 36.5zM109 0l13 384h62l13 -384h-88z" />
<glyph horiz-adv-x="362" d="M50 430q0 55 37.5 91t93.5 36t93.5 -36t37.5 -91t-37.5 -91t-93.5 -36t-93.5 36t-37.5 91zM112 430q0 -30 19.5 -50t49.5 -20t49.5 20t19.5 50t-19.5 50t-49.5 20t-49.5 -20t-19.5 -50z" />
<glyph horiz-adv-x="180" d="M50 543h80l-11 -194h-58z" />
<glyph horiz-adv-x="305" d="M50 543h80l-11 -194h-58zM175 543h80l-11 -194h-58z" />
<glyph horiz-adv-x="250" d="M62 473l56 194h82l-68 -194h-70z" />
<glyph horiz-adv-x="370" d="M62 473l56 194h82l-68 -194h-70zM194 473l56 194h82l-68 -194h-70z" />
<glyph horiz-adv-x="250" d="M62 473l68 194h70l-56 -194h-82z" />
<glyph horiz-adv-x="370" d="M62 473l68 194h70l-56 -194h-82zM194 473l68 194h70l-56 -194h-82z" />
<glyph horiz-adv-x="480" d="M50 253v60h159v148h61v-148h160v-60h-160v-148h-61v148h-159z" />
<glyph horiz-adv-x="468" d="M50 253v60h368v-60h-368z" />
<glyph horiz-adv-x="468" d="M50 176v60h368v-60h-368zM50 331v60h368v-60h-368z" />
<glyph horiz-adv-x="301" d="M60 271q0 117 46 213.5t112 154.5h73q-66 -64 -105.5 -165t-39.5 -203t39.5 -203t105.5 -165h-73q-67 59 -112.5 155t-45.5 213z" />
<glyph horiz-adv-x="301" d="M10 -97q66 64 105.5 165t39.5 203t-39.5 203t-105.5 165h74q66 -58 111.5 -154.5t45.5 -213.5t-45.5 -213t-111.5 -155h-74z" />
<glyph horiz-adv-x="292" d="M120 -97v736h152v-54h-71v-628h71v-54h-152z" />
<glyph horiz-adv-x="292" d="M20 -43h71v628h-71v54h152v-736h-152v54z" />
<glyph horiz-adv-x="312" d="M60 244v54q80 0 80 69v162q0 50 33.5 80t95.5 30h23v-54h-11q-29 0 -44.5 -18.5t-15.5 -39.5v-153q0 -36 -19.5 -65.5t-50.5 -37.5q31 -8 50.5 -37.5t19.5 -66.5v-152q0 -20 15.5 -39t44.5 -19h11v-54h-23q-61 0 -95 30.5t-34 79.5v162q0 69 -80 69z" />
<glyph horiz-adv-x="312" d="M20 -43h11q29 0 44.5 19t15.5 39v152q0 37 19.5 66.5t50.5 37.5q-31 8 -50.5 37.5t-19.5 65.5v153q0 21 -15.5 39.5t-44.5 18.5h-11v54h23q62 0 95.5 -30t33.5 -80v-162q0 -69 80 -69v-54q-80 0 -80 -69v-162q0 -49 -34 -79.5t-95 -30.5h-23v54z" />
<glyph horiz-adv-x="370" d="M20 -31l252 605h78l-252 -605h-78z" />
<glyph horiz-adv-x="370" d="M20 574h78l252 -605h-78z" />
<glyph horiz-adv-x="594" d="M60 142q0 93 92 154q-50 59 -50 119q0 58 45.5 100t116.5 42q77 0 126 -39.5t52 -110.5h-86q-5 51 -29 71t-63 20q-35 0 -58.5 -21t-23.5 -58q0 -56 59 -111l168 -155q21 55 21 130h81q0 -99 -49 -179l112 -104h-104l-53 49q-69 -64 -164 -64q-88 0 -140.5 42.5 t-52.5 114.5zM140 150q0 -48 33.5 -77t79.5 -29q73 0 118 47l-182 167q-49 -42 -49 -108z" />
<glyph horiz-adv-x="875" d="M40 369l368 368l48 -47l-287 -288h666v-67h-665l286 -286l-48 -47z" />
<glyph horiz-adv-x="875" d="M40 335v67h666l-287 288l48 47l368 -368l-368 -367l-48 47l286 286h-665z" />
<glyph horiz-adv-x="815" d="M40 399l368 368l367 -368l-47 -48l-286 286v-665h-67v666l-288 -287z" />
<glyph horiz-adv-x="815" d="M40 340l47 48l288 -287v666h67v-665l286 286l47 -48l-367 -368z" />
<glyph horiz-adv-x="705" d="M80 142v520h520v-67h-406l471 -472l-47 -47l-471 472v-406h-67z" />
<glyph horiz-adv-x="705" d="M40 123l471 472h-406v67h520v-520h-67v406l-471 -472z" />
<glyph horiz-adv-x="705" d="M40 615l47 47l471 -472v406h67v-520h-520v67h406z" />
<glyph horiz-adv-x="705" d="M80 76v520h67v-406l471 472l47 -47l-471 -472h406v-67h-520z" />
<glyph horiz-adv-x="1635" d="M40 369l368 368l48 -47l-287 -288h1426v-67h-1425l286 -286l-48 -47z" />
<glyph horiz-adv-x="1635" d="M40 335v67h1426l-287 288l48 47l368 -368l-368 -367l-48 47l286 286h-1425z" />
<glyph horiz-adv-x="177" d="M50 583v220h77l-19 -220h-58z" />
<glyph horiz-adv-x="349" d="M50 753l132 138h117l-169 -138h-80z" />
<glyph horiz-adv-x="384" d="M50 891h60q0 -34 21 -54.5t61 -20.5t61 20.5t21 54.5h60q0 -70 -37.5 -108t-104.5 -38t-104.5 38t-37.5 108z" />
<glyph horiz-adv-x="469" d="M50 891h80l104 -70l105 70h80l-147 -138h-75z" />
<glyph horiz-adv-x="469" d="M50 753l147 138h75l147 -138h-80l-105 70l-104 -70h-80z" />
<glyph horiz-adv-x="424" d="M50 825q0 22 16.5 38.5t39.5 16.5t39.5 -16.5t16.5 -38.5t-16.5 -38.5t-39.5 -16.5t-39.5 16.5t-16.5 38.5zM262 825q0 22 16.5 38.5t39.5 16.5t39.5 -16.5t16.5 -38.5t-16.5 -38.5t-39.5 -16.5t-39.5 16.5t-16.5 38.5z" />
<glyph horiz-adv-x="212" d="M50 825q0 22 16.5 38.5t39.5 16.5t39.5 -16.5t16.5 -38.5t-16.5 -38.5t-39.5 -16.5t-39.5 16.5t-16.5 38.5z" />
<glyph horiz-adv-x="349" d="M50 891h117l132 -138h-80z" />
<glyph horiz-adv-x="501" d="M50 753l112 138h112l-149 -138h-75zM227 753l112 138h112l-149 -138h-75z" />
<glyph horiz-adv-x="410" d="M50 787v63h310v-63h-310z" />
<glyph horiz-adv-x="316" d="M50 820q0 44 31 69.5t77 25.5t77 -25.5t31 -69.5t-31 -69.5t-77 -25.5t-77 25.5t-31 69.5zM110 820q0 -24 13 -36.5t35 -12.5t35 12.5t13 36.5t-13 36.5t-35 12.5t-35 -12.5t-13 -36.5z" />
<glyph horiz-adv-x="447" d="M50 796q19 44 47.5 66.5t59.5 22.5q29 0 78 -23.5t62 -23.5q33 0 55 43l45 -23q-18 -44 -46.5 -66.5t-59.5 -22.5q-28 0 -77.5 23.5t-63.5 23.5q-32 0 -55 -43z" />
<glyph horiz-adv-x="311" d="M50 584l106 107h105l-135 -107h-76z" />
<glyph horiz-adv-x="339" d="M50 691h60q0 -49 60 -49q59 0 59 49h60q0 -54 -32.5 -84t-86.5 -30t-87 30t-33 84z" />
<glyph horiz-adv-x="407" d="M50 691h76l77 -45l78 45h76l-123 -107h-60z" />
<glyph horiz-adv-x="407" d="M50 584l124 107h60l123 -107h-76l-78 45l-77 -45h-76z" />
<glyph horiz-adv-x="369" d="M50 640q0 20 15 34t35 14t35 -14t15 -34t-15 -34t-35 -14t-35 14t-15 34zM219 640q0 20 15 34t35 14t35 -14t15 -34t-15 -34t-35 -14t-35 14t-15 34z" />
<glyph horiz-adv-x="200" d="M50 640q0 20 15 34t35 14t35 -14t15 -34t-15 -34t-35 -14t-35 14t-15 34z" />
<glyph horiz-adv-x="311" d="M50 691h106l105 -107h-76z" />
<glyph horiz-adv-x="445" d="M50 584l90 107h101l-119 -107h-72zM204 584l89 107h102l-119 -107h-72z" />
<glyph horiz-adv-x="348" d="M50 605v59h248v-59h-248z" />
<glyph horiz-adv-x="272" d="M50 638q0 34 24.5 53.5t61.5 19.5t61.5 -19.5t24.5 -53.5t-24.5 -53.5t-61.5 -19.5t-61.5 19.5t-24.5 53.5zM102 638q0 -34 34 -34t34 34t-34 34t-34 -34z" />
<glyph horiz-adv-x="384" d="M50 620q30 68 85 68q22 0 63.5 -16.5t52.5 -16.5q23 0 39 30l44 -23q-28 -68 -84 -68q-23 0 -64.5 16t-52.5 16q-23 0 -39 -29z" />
</font>
</defs>
</svg>
