<?xml version="1.0" standalone="no"?>
<!DOCTYPE svg PUBLIC "-//W3C//DTD SVG 1.1//EN" "http://www.w3.org/Graphics/SVG/1.1/DTD/svg11.dtd" >
<svg xmlns="http://www.w3.org/2000/svg">
<metadata></metadata>
<defs>
<font id="vegan-sans-italic" horiz-adv-x="600" >
<font-face units-per-em="1000" ascent="800" descent="-200" />
<missing-glyph horiz-adv-x="300" />
<glyph unicode="fb" horiz-adv-x="933" d="M95 452l11 65h89l8 52q17 93 93 141.5t183 48.5q93 0 170 -27l-48 -270q82 70 177 70q69 0 113 -52.5t44 -154.5q0 -84 -25.5 -151t-67 -107t-90 -61t-99.5 -21q-83 0 -125 61l-8 -46h-93l120 684q-39 9 -80 9q-64 0 -111.5 -31t-58.5 -93l-9 -52h117l-11 -65h-117 l-80 -452h-94l80 452h-88zM539 110q43 -51 116 -51q70 0 125.5 65.5t55.5 189.5q0 73 -28.5 108.5t-72.5 35.5q-81 0 -144 -56l3 16z" />
<glyph unicode="ff" horiz-adv-x="681" d="M95 452l11 65h88l16 91q27 151 186 151q50 0 79 -16l-11 -63q-38 10 -63 10q-83 0 -97 -82l-16 -91h231l16 91q27 151 186 151q49 0 78 -16l-11 -63q-37 10 -63 10q-81 0 -97 -82l-16 -91h148l-12 -65h-147l-80 -452h-93l80 452h-231l-80 -452h-94l80 452h-88z" />
<glyph unicode="fh" horiz-adv-x="942" d="M95 452l11 65h89l8 52q17 93 93 141.5t183 48.5q93 0 170 -27l-50 -282q94 82 195 82q71 0 109.5 -41t22.5 -128l-64 -363h-94l60 343q21 113 -82 113q-38 0 -82 -19t-75 -45l-69 -392h-94l121 684q-39 9 -80 9q-64 0 -111.5 -31t-58.5 -93l-9 -52h117l-11 -65h-117 l-80 -452h-94l80 452h-88z" />
<glyph unicode="fi" d="M95 452l11 65h89l15 91q27 151 186 151q48 0 77 -16l-11 -63q-37 10 -61 10q-83 0 -97 -82l-16 -91h323l-91 -517h-94l80 452h-229l-80 -452h-94l80 452h-88zM527 653q0 27 22.5 48.5t50.5 21.5q23 0 37.5 -15.5t14.5 -38.5q0 -28 -22 -49t-51 -21q-23 0 -37.5 15.5 t-14.5 38.5z" />
<glyph unicode="fj" d="M95 452l11 65h89l15 91q27 151 186 151q48 0 77 -16l-11 -63q-37 10 -61 10q-83 0 -97 -82l-16 -91h323l-128 -725h-94l117 660h-229l-80 -452h-94l80 452h-88zM527 653q0 27 22.5 48.5t50.5 21.5q23 0 37.5 -15.5t14.5 -38.5q0 -28 -22 -49t-51 -21q-23 0 -37.5 15.5 t-14.5 38.5z" />
<glyph unicode="fk" horiz-adv-x="858" d="M95 452l11 65h89l8 52q17 93 93 141.5t183 48.5q93 0 170 -27l-80 -453l247 238h107l-258 -240l188 -277h-110l-175 271l-48 -271h-94l121 685q-39 9 -79 9q-64 0 -112 -31.5t-59 -93.5l-9 -52h117l-11 -65h-117l-80 -452h-94l80 452h-88z" />
<glyph unicode="fl" d="M95 452l11 65h89l8 52q17 93 93 141.5t183 48.5q93 0 170 -27l-129 -732h-94l121 684q-39 9 -80 9q-64 0 -111.5 -31t-58.5 -93l-9 -52h117l-11 -65h-117l-80 -452h-94l80 452h-88z" />
<glyph unicode="ft" horiz-adv-x="706" d="M95 452l11 65h88l16 91q27 151 186 151q50 0 79 -16l-11 -63q-38 10 -63 10q-83 0 -97 -82l-16 -91h229l25 143h94l-25 -143h146l-12 -65h-145l-55 -312q-15 -85 54 -85q37 0 87 16l-11 -63q-49 -23 -117 -23q-60 0 -91 35t-19 101l58 331h-229l-80 -452h-94l80 452h-88z " />
<glyph unicode="ffb" horiz-adv-x="1257" d="M95 452l11 65h89l15 91q27 151 186 151q50 0 79 -16l-11 -63q-38 10 -63 10q-83 0 -97 -82l-16 -91h231l9 52q17 93 92.5 141.5t183.5 48.5q92 0 169 -27l-47 -269q83 69 176 69q70 0 114 -52.5t44 -154.5q0 -84 -25.5 -151t-67 -107t-90.5 -61t-99 -21q-84 0 -125 61 l-8 -46h-94l121 684q-40 9 -81 9q-64 0 -111.5 -31t-58.5 -93l-8 -52h117l-12 -65h-117l-80 -452h-93l80 452h-231l-80 -452h-94l80 452h-88zM864 111q41 -52 115 -52q70 0 125.5 65.5t55.5 189.5q0 73 -28 108.5t-73 35.5q-80 0 -144 -56z" />
<glyph unicode="ffh" horiz-adv-x="1268" d="M95 452l11 65h89l15 91q27 151 186 151q50 0 79 -16l-11 -63q-38 10 -63 10q-83 0 -97 -82l-16 -91h233l8 52q17 93 93 141.5t183 48.5q93 0 170 -27l-50 -282q94 82 195 82q71 0 109.5 -41t22.5 -128l-64 -363h-94l60 343q21 113 -82 113q-38 0 -82 -19t-75 -45 l-69 -392h-94l121 684q-39 9 -80 9q-64 0 -111.5 -31t-58.5 -93l-9 -52h117l-11 -65h-117l-80 -452h-94l80 452h-232l-80 -452h-94l80 452h-88z" />
<glyph unicode="ffi" horiz-adv-x="925" d="M95 452l11 65h88l16 91q27 151 186 151q50 0 79 -16l-11 -63q-38 10 -63 10q-83 0 -97 -82l-16 -91h231l16 91q27 151 186 151q48 0 77 -16l-11 -63q-38 10 -62 10q-81 0 -97 -82l-15 -91h323l-92 -517h-93l80 452h-230l-80 -452h-93l80 452h-231l-80 -452h-94l80 452 h-88zM852 653q0 27 22.5 48.5t50.5 21.5q23 0 37.5 -15.5t14.5 -38.5q0 -27 -22.5 -48.5t-50.5 -21.5q-23 0 -37.5 15.5t-14.5 38.5z" />
<glyph unicode="ffj" horiz-adv-x="925" d="M95 452l11 65h88l16 91q27 151 186 151q50 0 79 -16l-11 -63q-38 10 -63 10q-83 0 -97 -82l-16 -91h231l16 91q27 151 186 151q48 0 77 -16l-11 -63q-38 10 -62 10q-81 0 -97 -82l-15 -91h323l-129 -725h-93l117 660h-230l-80 -452h-93l80 452h-231l-80 -452h-94l80 452 h-88zM852 653q0 27 22.5 48.5t50.5 21.5q23 0 37.5 -15.5t14.5 -38.5q0 -27 -22.5 -48.5t-50.5 -21.5q-23 0 -37.5 15.5t-14.5 38.5z" />
<glyph unicode="ffk" horiz-adv-x="1182" d="M95 452l11 65h89l15 91q27 151 186 151q50 0 79 -16l-11 -63q-38 10 -63 10q-83 0 -97 -82l-16 -91h231l9 52q17 93 92.5 141.5t183.5 48.5q92 0 169 -27l-80 -453l247 238h108l-258 -240l188 -277h-110l-176 271l-48 -271h-93l121 684q-40 9 -81 9q-64 0 -111.5 -31 t-58.5 -93l-8 -52h117l-12 -65h-117l-80 -452h-93l80 452h-231l-80 -452h-94l80 452h-88z" />
<glyph unicode="ffl" horiz-adv-x="950" d="M95 452l11 65h88l16 91q27 151 186 151q50 0 79 -16l-11 -63q-38 10 -63 10q-83 0 -97 -82l-16 -91h231l9 52q17 93 92.5 141.5t183.5 48.5q92 0 169 -27l-129 -732h-93l120 680q-37 10 -79 10q-65 0 -112.5 -30t-58.5 -91l-9 -52h118l-12 -65h-118l-79 -452h-93l79 452 h-230l-80 -452h-94l80 452h-88z" />
<glyph unicode="fft" horiz-adv-x="1030" d="M95 452l11 65h89l15 91q27 151 186 151q50 0 79 -16l-11 -63q-38 10 -63 10q-83 0 -97 -82l-16 -91h231l16 91q27 151 186 151q49 0 78 -16l-11 -63q-37 10 -63 10q-81 0 -97 -82l-15 -91h229l25 143h93l-24 -143h145l-11 -65h-146l-55 -312q-15 -85 55 -85q38 0 86 16 l-11 -63q-49 -23 -117 -23q-59 0 -90.5 35t-19.5 101l59 331h-230l-80 -452h-93l80 452h-231l-80 -452h-94l80 452h-88z" />
<glyph unicode="tt" horiz-adv-x="726" d="M95 452l11 65h88l25 143h94l-25 -143h249l25 143h94l-25 -143h146l-12 -65h-145l-55 -312q-15 -85 54 -85q37 0 87 16l-11 -63q-49 -23 -117 -23q-60 0 -91 35t-19 101l58 331h-249l-55 -312q-15 -85 54 -85q37 0 87 16l-11 -63q-49 -23 -117 -23q-60 0 -91 35t-19 101 l58 331h-88z" />
<glyph unicode="&#xd;" horiz-adv-x="0" />
<glyph unicode=" "  horiz-adv-x="300" />
<glyph unicode="&#x09;" horiz-adv-x="300" />
<glyph unicode="&#xa0;" horiz-adv-x="300" />
<glyph unicode="!" horiz-adv-x="318" d="M97 41q0 32 23.5 54t55.5 22q25 0 40 -15.5t15 -40.5q0 -32 -23.5 -54t-55.5 -22q-24 0 -39.5 15.5t-15.5 40.5zM156 211l67 489h110l-104 -489h-73z" />
<glyph unicode="&#x22;" horiz-adv-x="355" d="M143 442l30 258h99l-60 -258h-69zM299 442l30 258h99l-60 -258h-69z" />
<glyph unicode="#" horiz-adv-x="718" d="M76 191l14 78h114l70 161h-106l13 78h127l83 192h94l-83 -192h171l83 192h94l-83 -192h95l-13 -78h-116l-70 -161h108l-14 -78h-127l-83 -191h-94l83 191h-171l-83 -191h-94l83 191h-95zM298 269h171l70 161h-171z" />
<glyph unicode="$" horiz-adv-x="601" d="M83 207h105q-11 -114 79 -140l45 256q-36 9 -62.5 20.5t-53 30.5t-40.5 48t-14 67q0 92 68 153t171 71l19 107h90l-19 -109q87 -12 131 -66t33 -142h-106q10 105 -72 129l-42 -239q37 -9 64.5 -20t55.5 -30t43 -48t15 -68q0 -94 -73 -161t-177 -79l-19 -107h-90l19 108 q-90 12 -136.5 68.5t-33.5 150.5zM245 508q0 -67 83 -93l40 221q-56 -8 -89.5 -40t-33.5 -88zM357 64q58 10 95 46.5t37 95.5q0 40 -23.5 62t-66.5 35z" />
<glyph unicode="%" horiz-adv-x="990" d="M131 445q0 114 65.5 189t162.5 75q71 0 111.5 -47t40.5 -127q0 -115 -66 -189.5t-163 -74.5q-70 0 -110.5 47t-40.5 127zM219 444q0 -54 20 -81t55 -27q54 0 91 52.5t37 147.5q0 108 -74 108q-54 0 -91.5 -52.5t-37.5 -147.5zM223 0l564 700h101l-564 -700h-101zM601 165 q0 114 65.5 189t162.5 75q71 0 111.5 -47t40.5 -127q0 -115 -66 -189.5t-163 -74.5q-70 0 -110.5 47t-40.5 127zM689 164q0 -54 20 -81t55 -27q54 0 91 52.5t37 147.5q0 108 -74 108q-54 0 -91.5 -52.5t-37.5 -147.5z" />
<glyph unicode="&#x26;" horiz-adv-x="704" d="M80 156q0 69 43 129t114 100q-44 62 -44 120q0 85 71.5 147.5t168.5 62.5q94 0 145.5 -49.5t40.5 -141.5h-106q5 62 -22 88.5t-71 26.5q-52 0 -89 -33t-37 -89q0 -58 48 -114l177 -205q42 72 59 170h98q-24 -131 -103 -233l116 -135h-123l-58 68q-99 -83 -215 -83 q-95 0 -154 45.5t-59 125.5zM181 176q0 -52 36 -83.5t91 -31.5q86 0 152 61l-181 209q-47 -28 -72.5 -68.5t-25.5 -86.5z" />
<glyph unicode="'" horiz-adv-x="199" d="M143 442l30 258h99l-60 -258h-69z" />
<glyph unicode="(" horiz-adv-x="355" d="M109 252q0 95 26 185.5t71 162.5t93 126.5t103 98.5h89q-120 -102 -197.5 -260t-77.5 -316q0 -107 28.5 -209.5t79.5 -164.5h-89q-54 59 -90 159.5t-36 217.5z" />
<glyph unicode=")" horiz-adv-x="355" d="M-19 -125q120 102 197.5 260t77.5 316q0 107 -28.5 209.5t-79.5 164.5h89q54 -59 90 -159t36 -218q0 -95 -26 -185.5t-70.5 -162.5t-93 -126.5t-103.5 -98.5h-89z" />
<glyph unicode="*" horiz-adv-x="498" d="M126 466l160 55l-141 56l68 90l110 -108v161h104l-56 -160l147 107l36 -90l-161 -56l142 -55l-68 -90l-110 107v-162h-105l57 163l-147 -108z" />
<glyph unicode="+" horiz-adv-x="560" d="M105 327l12 77h194l34 193h76l-34 -193h193l-12 -77h-195l-34 -193h-76l34 193h-192z" />
<glyph unicode="," horiz-adv-x="225" d="M24 -160l67 262h98l-83 -262h-82z" />
<glyph unicode="-" horiz-adv-x="286" d="M46 238l14 77h241l-13 -77h-242z" />
<glyph unicode="." horiz-adv-x="240" d="M62 41q0 32 23.5 54t55.5 22q25 0 40 -15.5t15 -40.5q0 -32 -23.5 -54t-55.5 -22q-24 0 -39.5 15.5t-15.5 40.5z" />
<glyph unicode="/" horiz-adv-x="460" d="M14 -40l452 780h102l-452 -780h-102z" />
<glyph unicode="0" horiz-adv-x="622" d="M96 258q0 196 94 326.5t244 130.5q101 0 155 -73t54 -200q0 -197 -93.5 -327t-244.5 -130q-101 0 -155 73t-54 200zM201 256q0 -96 31.5 -145.5t86.5 -49.5q94 0 156.5 104.5t62.5 278.5q0 96 -31 145.5t-86 49.5q-94 0 -157 -105t-63 -278z" />
<glyph unicode="1" horiz-adv-x="389" d="M126 522l16 88l180 90h99l-123 -700h-99l108 610z" />
<glyph unicode="2" horiz-adv-x="544" d="M61 0l14 78q210 171 257 214q128 117 151 203q6 23 6 47q0 49 -25.5 73t-69.5 24q-51 0 -94 -36.5t-63 -114.5h-106q24 108 99.5 167.5t176.5 59.5q86 0 135.5 -42.5t49.5 -120.5q0 -54 -23 -105.5t-77 -111.5t-117 -116t-169 -141h317l-13 -78h-449z" />
<glyph unicode="3" horiz-adv-x="570" d="M77 187h106q-6 -64 27.5 -95t90.5 -31q67 0 114.5 44.5t47.5 112.5q0 48 -35 76.5t-108 28.5h-71l13 77h71q78 0 123 42t45 104q0 45 -26.5 69t-72.5 24q-50 0 -93 -31.5t-63 -94.5h-105q24 94 99.5 148t175.5 54q87 0 138 -42t51 -117q0 -64 -42.5 -117.5t-112.5 -72.5 q60 -10 88.5 -49t28.5 -90q0 -104 -83.5 -173t-195.5 -69q-113 0 -168 53t-43 149z" />
<glyph unicode="4" horiz-adv-x="557" d="M53 137l13 77l294 486h105l-295 -486h195l31 176h96l-31 -176h96l-13 -77h-97l-24 -137h-96l24 137h-298z" />
<glyph unicode="5" horiz-adv-x="546" d="M75 170h106q-4 -57 27 -83t79 -26q72 0 117 56t45 158q0 115 -98 115q-88 0 -145 -71h-87l66 381h402l-12 -76h-315l-41 -233q68 75 166 75q77 0 122 -46.5t45 -137.5q0 -138 -81.5 -217.5t-196.5 -79.5q-103 0 -156 48.5t-43 136.5z" />
<glyph unicode="6" horiz-adv-x="586" d="M91 229q0 210 96 348t246 138q89 0 138 -45t43 -121h-105q-3 90 -90 90q-78 0 -134.5 -75.5t-77.5 -199.5q38 40 92.5 65.5t107.5 25.5q82 0 128.5 -47.5t46.5 -136.5q0 -128 -87 -207t-201 -79q-94 0 -148.5 65.5t-54.5 178.5zM196 233q0 -85 29 -128.5t82 -43.5 q75 0 123 54t48 145q0 57 -26.5 88t-78.5 31q-50 0 -96 -23.5t-79 -60.5q-2 -40 -2 -62z" />
<glyph unicode="7" horiz-adv-x="480" d="M106 0l362 624h-323l13 76h416l-13 -76l-357 -624h-98z" />
<glyph unicode="8" horiz-adv-x="595" d="M76 153q0 77 48 134t126 76q-95 35 -95 133q0 100 75.5 159.5t193.5 59.5q92 0 146 -43t54 -119q0 -72 -41.5 -119.5t-109.5 -70.5q52 -13 81.5 -53.5t29.5 -94.5q0 -113 -81 -171.5t-208 -58.5q-100 0 -159.5 42t-59.5 126zM180 165q0 -104 128 -104q78 0 126 37.5 t48 113.5q0 49 -32 78.5t-97 29.5q-85 0 -129 -43.5t-44 -111.5zM257 497q0 -45 27 -72.5t83 -27.5q78 0 116 42t38 104q0 46 -30 71t-81 25q-67 0 -110 -37t-43 -105z" />
<glyph unicode="9" horiz-adv-x="587" d="M85 169h106q-3 -58 24 -83t70 -25q82 0 140.5 81.5t76.5 212.5q-38 -40 -92.5 -65.5t-107.5 -25.5q-82 0 -129 44.5t-47 131.5q0 124 85.5 199.5t200.5 75.5q99 0 151 -64.5t52 -179.5q0 -135 -39 -244t-118.5 -175.5t-186.5 -66.5q-92 0 -143.5 48.5t-42.5 135.5z M230 451q0 -111 106 -111q50 0 96 22.5t77 59.5q1 15 1 45q0 85 -29 128.5t-83 43.5q-74 0 -121 -50.5t-47 -137.5z" />
<glyph unicode=":" horiz-adv-x="240" d="M62 41q0 32 23.5 54t55.5 22q25 0 40 -15.5t15 -40.5q0 -32 -23.5 -54t-55.5 -22q-24 0 -39.5 15.5t-15.5 40.5zM135 455q0 32 23.5 54t55.5 22q24 0 39.5 -15.5t15.5 -40.5q0 -32 -23.5 -54t-55.5 -22q-25 0 -40 15.5t-15 40.5z" />
<glyph unicode=";" horiz-adv-x="240" d="M29 -143l63 245h98l-80 -245h-81zM135 455q0 32 23.5 54t55.5 22q24 0 39.5 -15.5t15.5 -40.5q0 -32 -23.5 -54t-55.5 -22q-25 0 -40 15.5t-15 40.5z" />
<glyph unicode="&#x3c;" horiz-adv-x="557" d="M102 327l14 81l497 198l-14 -82l-395 -158l340 -158l-15 -80z" />
<glyph unicode="=" horiz-adv-x="560" d="M86 226l14 76h463l-14 -76h-463zM122 429l14 76h463l-14 -76h-463z" />
<glyph unicode="&#x3e;" horiz-adv-x="557" d="M69 128l14 82l396 159l-341 157l15 80l428 -198l-14 -81z" />
<glyph unicode="?" horiz-adv-x="513" d="M123 518q22 91 92.5 144t169.5 53q88 0 137.5 -38t49.5 -107q0 -42 -14 -77t-35.5 -58.5t-48 -43.5t-52 -38.5t-46.5 -37.5t-32.5 -45.5t-9.5 -58.5h-98q-2 48 14 85.5t42 58.5t57 42.5t57.5 40t44.5 49.5t18 71q0 39 -26.5 60t-70.5 21q-49 0 -87.5 -30t-55.5 -91h-106z M191 41q0 32 24 54t55 22q25 0 40 -15.5t15 -40.5q0 -32 -23.5 -54t-55.5 -22q-24 0 -39.5 15.5t-15.5 40.5z" />
<glyph unicode="@" horiz-adv-x="952" d="M60 183q0 152 69 272.5t197.5 190t294.5 69.5q157 0 266 -95.5t109 -250.5q0 -76 -19 -140.5t-50 -108.5t-70 -75t-78.5 -45.5t-76.5 -14.5q-42 0 -69.5 19t-31.5 57q-82 -76 -173 -76q-62 0 -105.5 53.5t-43.5 153.5q0 84 24.5 151t64.5 107.5t88 61.5t98 21 q34 0 65 -17t49 -44l-3 -18l11 63h95l-71 -404q-10 -61 30 -61q70 0 121.5 90t51.5 216q0 127 -79 209t-223 82q-188 0 -317.5 -126.5t-129.5 -323.5q0 -174 94.5 -265t252.5 -91q60 0 133 13t116 29l-11 -65q-47 -17 -122.5 -30t-141.5 -13q-82 0 -155.5 25.5t-132 74 t-93 128t-34.5 178.5zM380 203q0 -71 27 -106.5t65 -35.5q73 0 133 55v-4l52 294q-41 52 -105 52q-68 0 -120 -65.5t-52 -189.5z" />
<glyph unicode="A" horiz-adv-x="629" d="M7 0l371 700h102l139 -700h-103l-34 190h-277l-96 -190h-102zM243 265h225l-37 207l-19 131l-64 -131z" />
<glyph unicode="B" horiz-adv-x="624" d="M85 0l123 700h221q92 0 152.5 -35t60.5 -114q0 -64 -43.5 -118t-102.5 -69q53 -7 86 -39t33 -90q0 -109 -81.5 -172t-206.5 -63h-242zM198 76h143q87 0 128.5 40.5t41.5 108.5q0 90 -128 90h-143zM254 390h121q73 0 117.5 40t44.5 108q0 86 -120 86h-122z" />
<glyph unicode="C" horiz-adv-x="665" d="M97 266q0 196 106.5 322.5t267.5 126.5q107 0 171 -61q59 -56 58 -160v-20h-111v16q-1 71 -33 108q-36 41 -99 41q-105 0 -179 -99.5t-74 -272.5q0 -102 40 -154t112 -52q63 0 113.5 41t75.5 124h111q-37 -119 -122 -180t-192 -61q-120 0 -182.5 75t-62.5 206z" />
<glyph unicode="D" horiz-adv-x="703" d="M85 0l123 700h211q141 0 222 -75.5t81 -209.5q0 -188 -119 -301.5t-307 -113.5h-211zM198 76h112q64 0 118 19.5t96.5 59t66.5 105.5t24 152q0 108 -56.5 160t-152.5 52h-111z" />
<glyph unicode="E" horiz-adv-x="548" d="M85 0l123 700h411l-13 -76h-311l-38 -217h290l-13 -77h-291l-45 -254h311l-13 -76h-411z" />
<glyph unicode="F" horiz-adv-x="525" d="M85 0l123 700h401l-13 -76h-301l-42 -238h281l-14 -77h-281l-54 -309h-100z" />
<glyph unicode="G" horiz-adv-x="673" d="M96 260q0 200 106.5 327.5t269.5 127.5q105 0 167 -59q58 -54 58 -156v-13h-111v8q0 69 -32 105q-35 39 -96 39q-106 0 -179.5 -98.5t-73.5 -267.5q0 -104 41 -158t107 -54q96 0 185 76l25 140h-165l13 74h263l-62 -351h-98l12 67q-41 -36 -98.5 -59t-110.5 -23 q-107 0 -164 73.5t-57 201.5z" />
<glyph unicode="H" horiz-adv-x="726" d="M85 0l123 700h100l-51 -293h351l52 293h99l-123 -700h-99l58 330h-352l-58 -330h-100z" />
<glyph unicode="I" horiz-adv-x="275" d="M85 0l123 700h100l-123 -700h-100z" />
<glyph unicode="J" horiz-adv-x="565" d="M66 224h105q-4 -30 -4 -54q0 -48 16 -72q24 -38 83 -38q57 0 98 32t53 95l90 513h99l-86 -493q-20 -112 -93.5 -167t-173.5 -55q-99 0 -153 57q-39 42 -39 121q0 28 5 61z" />
<glyph unicode="K" horiz-adv-x="615" d="M85 0l123 700h100l-58 -331l309 331h111l-318 -331l234 -369h-120l-218 361l-63 -361h-100z" />
<glyph unicode="L" horiz-adv-x="518" d="M85 0l123 700h100l-110 -624h278l-14 -76h-377z" />
<glyph unicode="M" horiz-adv-x="862" d="M85 0l123 700h113l128 -579l346 579h99l-123 -700h-96l70 395l21 110l-285 -485h-95l-119 512l-20 -126l-71 -406h-91z" />
<glyph unicode="N" horiz-adv-x="715" d="M85 0l123 700h106l247 -562l19 126l77 436h90l-123 -700h-105l-247 562l-20 -126l-76 -436h-91z" />
<glyph unicode="O" horiz-adv-x="735" d="M98 276q0 192 110.5 315.5t282.5 123.5q125 0 194.5 -78.5t69.5 -212.5q0 -192 -110.5 -315.5t-282.5 -123.5q-125 0 -194.5 78.5t-69.5 212.5zM205 276q0 -105 46.5 -160t124.5 -55q118 0 195.5 98t77.5 265q0 105 -46.5 160t-125.5 55q-117 0 -194.5 -98.5 t-77.5 -264.5z" />
<glyph unicode="P" horiz-adv-x="591" d="M85 0l123 700h218q91 0 152.5 -48.5t61.5 -138.5q0 -64 -25.5 -115t-68 -82t-93.5 -47.5t-105 -16.5h-119l-44 -252h-100zM243 328h118q77 0 126 46.5t49 131.5q0 58 -33 88t-90 30h-118z" />
<glyph unicode="Q" horiz-adv-x="735" d="M98 276q0 192 110.5 315.5t282.5 123.5q125 0 194.5 -78.5t69.5 -212.5q0 -149 -68.5 -259.5t-184.5 -154.5l132 -161h-125l-109 138q-24 -2 -38 -2q-125 0 -194.5 78.5t-69.5 212.5zM205 276q0 -105 46.5 -160t124.5 -55q118 0 195.5 98t77.5 265q0 105 -46.5 160 t-125.5 55q-117 0 -194.5 -98.5t-77.5 -264.5z" />
<glyph unicode="R" horiz-adv-x="612" d="M85 0l123 700h213q93 0 154 -44.5t61 -133.5q0 -99 -57 -159t-147 -80l152 -283h-115l-134 274h-102l-48 -274h-100zM246 349h113q79 0 126.5 41t47.5 125q0 109 -125 109h-113z" />
<glyph unicode="S" horiz-adv-x="601" d="M83 207h105q-1 -13 -1 -24q1 -60 31 -88q36 -34 100 -34q72 0 121.5 38t49.5 107q0 23 -9 40.5t-21 28t-35 19.5t-38.5 13t-45.5 10q-41 9 -70.5 19.5t-61.5 29.5t-49 50t-17 73q0 101 80 163.5t197 62.5q111 1 170 -55q48 -45 48 -122q0 -17 -2 -35h-106q1 11 1 20 q0 55 -29 83q-34 32 -95 33q-71 0 -116 -32.5t-45 -98.5q0 -22 9 -39.5t19.5 -27t34.5 -19t37.5 -13t44.5 -10.5q33 -7 56.5 -14t53.5 -21t48.5 -31t31.5 -44.5t13 -61.5q0 -104 -86.5 -173t-202.5 -69q-112 -1 -174 57q-50 46 -50 125q0 19 3 40z" />
<glyph unicode="T" horiz-adv-x="542" d="M136 624l12 76h486l-13 -76h-193l-110 -624h-99l110 624h-193z" />
<glyph unicode="U" horiz-adv-x="707" d="M117 228l83 472h99l-79 -452q-5 -31 -5 -57q1 -51 21 -83q32 -47 123 -47q178 0 207 167l83 472h90l-79 -452q-22 -124 -106 -193.5t-209 -69.5q-126 -1 -187 63q-46 48 -46 126q0 25 5 54z" />
<glyph unicode="V" horiz-adv-x="626" d="M128 700h103l85 -466l20 -131l63 131l237 466h101l-370 -700h-102z" />
<glyph unicode="W" horiz-adv-x="913" d="M128 700h102l36 -447l9 -131l55 131l197 447h107l45 -447l11 -134l53 134l181 447h100l-303 -700h-104l-48 438l-11 135l-57 -135l-198 -438h-103z" />
<glyph unicode="X" horiz-adv-x="583" d="M14 0l281 357l-154 343h105l111 -261l199 261h105l-262 -334l165 -366h-105l-122 286l-218 -286h-105z" />
<glyph unicode="Y" horiz-adv-x="589" d="M145 700h102l113 -359l224 359h100l-291 -442l-46 -258h-99l45 258z" />
<glyph unicode="Z" horiz-adv-x="534" d="M38 0l14 76l437 548h-332l13 76h446l-12 -76l-437 -548h340l-14 -76h-455z" />
<glyph unicode="[" horiz-adv-x="342" d="M98 -125l167 950h202l-12 -65h-102l-144 -820h102l-11 -65h-202z" />
<glyph unicode="\" horiz-adv-x="447" d="M148 740h92l178 -780h-92z" />
<glyph unicode="]" horiz-adv-x="345" d="M-3 -125l11 65h102l144 820h-102l12 65h201l-167 -950h-201z" />
<glyph unicode="^" horiz-adv-x="527" d="M97 300l245 400h81l105 -400h-84l-77 307l-186 -307h-84z" />
<glyph unicode="_" horiz-adv-x="500" d="M24 -91l12 76h420l-12 -76h-420z" />
<glyph unicode="`" horiz-adv-x="324" d="M180 733h115l81 -151h-77z" />
<glyph unicode="a" horiz-adv-x="582" d="M84 192q0 84 25.5 151t67 107t90.5 61t99 21q85 0 125 -61l8 46h94l-92 -517h-93l10 56q-82 -71 -177 -71q-69 0 -113 53t-44 154zM183 203q0 -73 28.5 -108.5t72.5 -35.5q81 0 144 56l-6 -37l58 329q-42 51 -116 51q-70 0 -125.5 -65t-55.5 -190z" />
<glyph unicode="b" horiz-adv-x="582" d="M75 0l131 744h94l-50 -282q82 70 177 70q69 0 113 -52.5t44 -154.5q0 -84 -25.5 -151t-67 -107t-90 -61t-99.5 -21q-83 0 -125 61l-8 -46h-94zM188 110q43 -51 116 -51q70 0 125.5 65.5t55.5 189.5q0 73 -28.5 108.5t-72.5 35.5q-81 0 -144 -56l4 23z" />
<glyph unicode="c" horiz-adv-x="533" d="M84 194q0 147 77.5 242.5t207.5 95.5q90 0 141 -49q46 -44 46 -115q0 -8 -1 -17h-100v7q0 109 -98 109q-75 0 -125 -73.5t-50 -199.5q0 -143 103 -143q99 0 136 113h100q-22 -81 -90.5 -130t-158.5 -49q-95 0 -141.5 55.5t-46.5 153.5z" />
<glyph unicode="d" horiz-adv-x="582" d="M84 192q0 84 25.5 151t67 107t90.5 61t99 21q85 0 125 -61l48 273h93l-131 -744h-93l10 56q-82 -71 -177 -71q-69 0 -113 53t-44 154zM183 203q0 -73 28.5 -108.5t72.5 -35.5q81 0 144 56l-6 -38l58 330q-42 51 -116 51q-70 0 -125.5 -65t-55.5 -190z" />
<glyph unicode="e" horiz-adv-x="543" d="M84 193q0 147 80 243t201 96q115 0 159 -74q26 -43 25 -107q0 -46 -13 -102h-352q-3 -27 -3 -56q0 -142 100 -142q93 0 128 93h100q-20 -68 -88 -113.5t-153 -45.5q-93 0 -138.5 56t-45.5 152zM195 311h250q4 26 4 48q0 42 -16 68q-25 40 -80 40q-54 0 -96.5 -40 t-61.5 -116z" />
<glyph unicode="f" horiz-adv-x="357" d="M95 452l11 65h88l16 91q27 151 186 151q50 0 79 -16l-11 -63q-38 10 -63 10q-83 0 -97 -82l-17 -91h148l-11 -65h-148l-79 -452h-94l79 452h-87z" />
<glyph unicode="g" horiz-adv-x="582" d="M47 -54h98q-1 -10 -1 -18q0 -40 22 -60q27 -25 83 -25q57 0 100.5 36t57.5 115l11 63q-82 -70 -176 -70q-70 0 -114 52.5t-44 154.5q0 84 25.5 150.5t67 106.5t90 60.5t99.5 20.5q85 0 125 -61l8 46h94l-91 -511q-20 -113 -91.5 -171t-173.5 -58q-100 0 -151 45 q-41 37 -41 97q0 13 2 27zM183 205q0 -73 28.5 -108.5t73.5 -35.5q81 0 144 56l51 290q-42 51 -116 51q-70 0 -125.5 -64.5t-55.5 -188.5z" />
<glyph unicode="h" horiz-adv-x="591" d="M75 0l131 744h94l-52 -294q94 82 196 82q70 0 108 -41q27 -29 28 -82q0 -21 -5 -46l-64 -363h-94l61 343q4 19 4 35q0 78 -87 78q-38 0 -82.5 -19.5t-74.5 -45.5l4 23l-73 -414h-94z" />
<glyph unicode="i" horiz-adv-x="249" d="M75 0l92 517h93l-91 -517h-94zM176 653q0 28 22.5 49t51.5 21q22 0 36.5 -15.5t14.5 -38.5q0 -28 -22 -49t-51 -21q-23 0 -37.5 15.5t-14.5 38.5z" />
<glyph unicode="j" horiz-adv-x="249" d="M39 -208l128 725h93l-128 -725h-93zM176 653q0 28 22.5 49t51.5 21q22 0 36.5 -15.5t14.5 -38.5q0 -28 -22 -49t-51 -21q-23 0 -37.5 15.5t-14.5 38.5z" />
<glyph unicode="k" horiz-adv-x="507" d="M75 0l131 744h94l-82 -465l247 238h107l-258 -240l188 -277h-109l-176 271l-48 -271h-94z" />
<glyph unicode="l" horiz-adv-x="249" d="M75 0l131 744h94l-131 -744h-94z" />
<glyph unicode="m" horiz-adv-x="921" d="M75 0l92 517h93l-12 -67q94 82 193 82q109 0 129 -87q100 87 207 87q70 0 107 -41q26 -29 25 -80q0 -22 -4 -48l-64 -363h-94l61 343q3 20 3 36q-1 31 -13 49q-20 28 -70 28q-37 0 -79.5 -19t-75.5 -48q-2 -18 -4 -26l-64 -363h-94l61 343q4 19 4 36q0 77 -84 77 q-38 0 -80.5 -19t-73.5 -46l5 27l-74 -418h-94z" />
<glyph unicode="n" horiz-adv-x="591" d="M75 0l92 517h93l-12 -67q94 82 196 82q70 0 108 -41q27 -29 28 -82q0 -21 -5 -46l-64 -363h-94l61 343q4 19 4 35q0 78 -87 78q-38 0 -82.5 -19.5t-74.5 -45.5l5 27l-74 -418h-94z" />
<glyph unicode="o" horiz-adv-x="581" d="M85 203q0 143 81.5 236t215.5 93q96 0 148.5 -58.5t52.5 -158.5q0 -143 -82 -236.5t-216 -93.5q-96 0 -148 59t-52 159zM183 201q0 -74 30.5 -112t84.5 -38q81 0 134 69.5t53 196.5q0 73 -31 111.5t-84 38.5q-82 0 -134.5 -69.5t-52.5 -196.5z" />
<glyph unicode="p" horiz-adv-x="582" d="M38 -208l129 725h93l-10 -55q82 70 177 70q69 0 113 -52.5t44 -154.5q0 -84 -25.5 -151t-67 -107t-90 -61t-99.5 -21q-83 0 -125 61l4 21l-49 -275h-94zM188 111q43 -52 116 -52q70 0 125.5 65.5t55.5 189.5q0 73 -28.5 108.5t-72.5 35.5q-81 0 -144 -56l5 31z" />
<glyph unicode="q" horiz-adv-x="582" d="M84 192q0 84 25.5 151t67 107t90.5 61t99 21q85 0 125 -61l8 46h94l-129 -725h-93l47 264q-82 -71 -177 -71q-69 0 -113 53t-44 154zM183 203q0 -73 28.5 -108.5t72.5 -35.5q81 0 144 56l-1 -4l53 296q-42 51 -116 51q-70 0 -125.5 -65t-55.5 -190z" />
<glyph unicode="r" horiz-adv-x="401" d="M75 0l92 517h93l-16 -90q83 105 167 105q38 0 58 -25l-14 -77q-37 16 -67 16q-43 0 -86 -27.5t-71 -65.5l-62 -353h-94z" />
<glyph unicode="s" horiz-adv-x="510" d="M71 147h98q-1 -48 23.5 -72.5t81.5 -24.5q52 0 88 26.5t36 72.5q0 16 -8 28.5t-17 20t-28.5 14t-30 8.5t-34.5 7q-28 6 -46 10.5t-43.5 15t-40.5 23t-26 33.5t-11 48q0 81 64.5 128t165.5 47q89 0 135 -38q39 -33 39 -89q0 -10 -1 -20h-98q3 82 -91 82q-53 0 -87 -23 t-34 -65q0 -16 7.5 -28.5t15 -19t27.5 -13t28 -8.5t34 -7q29 -6 47 -10.5t44.5 -15t42 -23t27 -33.5t11.5 -48q0 -81 -67.5 -134.5t-165.5 -53.5q-99 -1 -147 43q-41 37 -40 98q0 10 1 21z" />
<glyph unicode="t" horiz-adv-x="383" d="M95 452l11 65h88l25 143h94l-25 -143h146l-12 -65h-145l-55 -312q-3 -15 -2 -28q0 -57 56 -57q37 0 87 16l-11 -63q-49 -23 -117 -23q-60 0 -91 35q-22 25 -22 67q0 16 3 34l58 331h-88z" />
<glyph unicode="u" horiz-adv-x="587" d="M103 155l64 362h93l-60 -342q-3 -20 -4 -36q0 -31 14 -49q20 -28 70 -28q38 0 81 18.5t74 45.5l69 391h94l-91 -517h-94l12 67q-96 -82 -193 -82q-71 -1 -108 41q-26 29 -26 81q0 22 5 48z" />
<glyph unicode="v" horiz-adv-x="506" d="M103 517h100l50 -286l19 -129l64 129l146 286h95l-280 -517h-89z" />
<glyph unicode="w" horiz-adv-x="789" d="M103 517h97l36 -285l13 -130l57 130l131 285h88l35 -285l15 -130l58 130l133 285h94l-259 -517h-88l-36 267l-15 130l-60 -130l-125 -267h-90z" />
<glyph unicode="x" horiz-adv-x="508" d="M14 0l231 268l-129 249h100l87 -180l151 180h100l-208 -241l143 -276h-100l-102 207l-173 -207h-100z" />
<glyph unicode="y" horiz-adv-x="505" d="M89 -208l121 213l-107 512h100l51 -272l19 -130l65 130l143 272h95l-399 -725h-88z" />
<glyph unicode="z" horiz-adv-x="446" d="M38 0l12 66l331 386h-253l12 65h356l-12 -65l-330 -386h262l-12 -66h-366z" />
<glyph unicode="{" horiz-adv-x="377" d="M111 316l12 68q52 0 81 25t35 65l36 198q13 72 65.5 112.5t133.5 40.5h29l-12 -65h-28q-37 0 -60 -24t-27 -54l-35 -198q-8 -48 -39.5 -85.5t-72.5 -48.5q37 -10 55 -49t9 -87l-34 -196q-5 -30 9 -54t51 -24h28l-11 -65h-29q-82 0 -120.5 41t-25.5 112l35 197 q7 41 -13 66t-72 25z" />
<glyph unicode="|" horiz-adv-x="272" d="M62 -160l173 980h90l-173 -980h-90z" />
<glyph unicode="}" horiz-adv-x="379" d="M-2 -125l12 65h28q36 0 59 24t27 54l35 196q9 49 40.5 87.5t72.5 48.5q-37 10 -55.5 48t-9.5 86l34 198q5 30 -8.5 54t-50.5 24h-29l11 65h29q83 0 121 -40.5t25 -112.5l-35 -198q-7 -41 12.5 -65.5t71.5 -24.5l-12 -68q-52 0 -80.5 -25t-34.5 -66l-35 -197 q-14 -72 -65.5 -112.5t-133.5 -40.5h-29z" />
<glyph unicode="~" horiz-adv-x="564" d="M83 326q80 122 176 122q32 0 60.5 -13.5t46 -29.5t39 -29.5t42.5 -13.5q45 0 100 79l58 -36q-78 -121 -175 -121q-32 0 -61 13.5t-46 29t-39 29t-43 13.5q-44 0 -99 -78z" />
<glyph unicode="&#xa1;" horiz-adv-x="310" d="M62 -208l106 489h72l-68 -489h-110zM165 431q0 32 23.5 54t54.5 22q25 0 40.5 -15.5t15.5 -40.5q0 -32 -23.5 -54t-55.5 -22q-24 0 -39.5 15.5t-15.5 40.5z" />
<glyph unicode="&#xa2;" horiz-adv-x="533" d="M84 194q0 132 64 224t174 110l19 110h91l-19 -109q71 -12 109 -59t33 -119h-100q1 88 -54 109l-72 -403q64 21 92 107h100q-19 -70 -74 -117t-130 -59l-19 -108h-90l19 109q-143 25 -143 205zM182 194q0 -107 58 -134l69 398q-57 -21 -92 -90.5t-35 -173.5z" />
<glyph unicode="&#xa3;" horiz-adv-x="566" d="M21 0l14 76h87l38 218h-87l14 76h87l24 137q17 97 85 152.5t161 55.5q94 0 146.5 -50.5t40.5 -144.5h-106q5 61 -23 88.5t-71 27.5q-48 0 -84.5 -27t-47.5 -89l-26 -150h218l-14 -76h-218l-38 -218h318l-14 -76h-504z" />
<glyph unicode="&#xa4;" horiz-adv-x="664" d="M62 125l102 87q-25 44 -25 106q0 116 77 198l-66 80l59 54l68 -84q74 45 159 45q82 0 136 -45l100 85l50 -56l-102 -87q25 -48 25 -107q0 -114 -78 -197l67 -81l-59 -53l-69 83q-71 -44 -158 -44q-82 0 -137 44l-99 -84zM239 317q0 -68 33 -105t87 -37q77 0 131.5 61.5 t54.5 165.5q0 68 -32.5 105.5t-87.5 37.5q-77 0 -131.5 -61.5t-54.5 -166.5z" />
<glyph unicode="&#xa5;" horiz-adv-x="589" d="M88 92l13 76h177l22 126h-177l14 76h161l-151 330h102l121 -284l214 284h100l-257 -330h162l-14 -76h-176l-22 -126h176l-13 -76h-177l-16 -92h-99l16 92h-176z" />
<glyph unicode="&#xa6;" horiz-adv-x="272" d="M62 -160l80 455h90l-80 -455h-90zM164 420l71 400h90l-71 -400h-90z" />
<glyph unicode="&#xa7;" horiz-adv-x="612" d="M70 107h106q-13 -136 124 -136q70 0 115 29t45 86q0 21 -9 37t-21 25t-36 16t-41 9.5t-48 6.5q-37 5 -59.5 9t-53 13.5t-48 23.5t-30 38t-12.5 56q0 96 111 168q-45 35 -45 100q0 98 79 157.5t197 59.5q112 0 171 -55.5t46 -156.5h-106q12 136 -125 136q-70 0 -114.5 -29 t-44.5 -86q0 -21 9 -37t21 -25t35.5 -16t40.5 -9.5t48 -6.5q37 -5 59.5 -8.5t53.5 -14t48 -24t30 -37.5t13 -56q0 -95 -112 -168q46 -36 46 -100q0 -97 -79.5 -157t-197.5 -60q-111 0 -170 55.5t-46 156.5zM202 348q0 -24 10.5 -40t33.5 -25t42.5 -13t55.5 -8 q78 -10 119 -22q26 19 45.5 51t19.5 61q0 24 -10.5 40t-33 25t-42.5 13t-55 8q-84 10 -120 22q-26 -18 -45.5 -51t-19.5 -61z" />
<glyph unicode="&#xa8;" horiz-adv-x="412" d="M166 653q0 28 22 48.5t51 20.5q22 0 37 -15t15 -38q0 -28 -22 -48.5t-51 -20.5q-23 0 -37.5 15t-14.5 38zM355 653q0 28 22 48.5t51 20.5q22 0 37 -15t15 -38q0 -27 -22.5 -48t-50.5 -21q-23 0 -37.5 15t-14.5 38z" />
<glyph unicode="&#xa9;" horiz-adv-x="830" d="M50 350q0 152 105 258.5t260 106.5t260 -106.5t105 -258.5t-105 -258.5t-260 -106.5t-260 106.5t-105 258.5zM121 350q0 -125 85 -213t209 -88t209 88t85 213t-85 213t-209 88t-209 -88t-85 -213zM230 350q0 97 50.5 155.5t131.5 58.5q68 0 113 -35t54 -106h-78 q-7 44 -28.5 64t-60.5 20q-48 0 -77 -40t-29 -117q0 -158 106 -158q75 0 89 85h78q-9 -71 -54 -106.5t-113 -35.5q-86 0 -134 58t-48 157z" />
<glyph unicode="&#xaa;" horiz-adv-x="341" d="M118 553q0 91 51 141t117 50q43 0 70 -34l4 25h73l-51 -295h-73l5 30q-47 -39 -95 -39q-43 0 -72 31.5t-29 90.5zM194 558q0 -69 54 -69q36 0 75 32l23 135q-25 30 -62 30q-40 0 -65 -32t-25 -96z" />
<glyph unicode="&#xab;" horiz-adv-x="559" d="M90 227l15 85l275 197l-20 -110l-182 -131l137 -129l-19 -109zM309 227l15 85l275 197l-20 -110l-182 -131l137 -129l-19 -109z" />
<glyph unicode="&#xac;" horiz-adv-x="560" d="M105 327l12 77h463l-47 -270h-76l34 193h-386z" />
<glyph unicode="&#xad;" horiz-adv-x="286" d="M46 238l14 77h241l-13 -77h-242z" />
<glyph unicode="&#xae;" horiz-adv-x="578" d="M50 477q0 100 68.5 169t170.5 69t170.5 -69t68.5 -169t-68.5 -169t-170.5 -69t-170.5 69t-68.5 169zM109 477q0 -76 52 -130.5t128 -54.5t127.5 54t51.5 131q0 76 -51.5 130t-127.5 54t-128 -54t-52 -130zM201 353v255h86q40 0 70 -19t30 -58q0 -58 -63 -73l72 -105h-61 l-66 100h-15v-100h-53zM254 495h33q45 0 45 36q0 34 -45 34h-33v-70z" />
<glyph unicode="&#xaf;" horiz-adv-x="396" d="M158 612l12 71h296l-12 -71h-296z" />
<glyph unicode="&#xb0;" horiz-adv-x="428" d="M144 525q0 79 58 134.5t138 55.5q62 0 100 -38.5t38 -99.5q0 -79 -58 -134.5t-138 -55.5q-62 0 -100 38.5t-38 99.5zM217 535q0 -36 21 -58t56 -22q46 0 78.5 32.5t32.5 79.5q0 36 -20.5 58t-56.5 22q-46 0 -78.5 -32.5t-32.5 -79.5z" />
<glyph unicode="&#xb1;" horiz-adv-x="563" d="M48 0l14 76h463l-14 -76h-463zM108 338l13 76h193l34 193h77l-34 -193h193l-13 -76h-194l-34 -194h-76l34 194h-193z" />
<glyph unicode="&#xb4;" horiz-adv-x="324" d="M152 582l126 151h126l-168 -151h-84z" />
<glyph unicode="&#xb5;" horiz-adv-x="587" d="M38 -208l129 725h93l-60 -342q-10 -58 9.5 -85.5t70.5 -27.5q38 0 81.5 19t74.5 46l68 390h94l-91 -517h-94l12 67q-88 -77 -181 -80q-43 -2 -74 14l-38 -209h-94z" />
<glyph unicode="&#xb6;" horiz-adv-x="668" d="M137 475q0 74 40.5 126.5t99.5 75.5t126 23h289l-123 -700h-85l111 624h-77l-111 -624h-85l55 312h-43q-84 0 -140.5 42t-56.5 121z" />
<glyph unicode="&#xb7;" horiz-adv-x="222" d="M105 355q0 32 23.5 54t55.5 22q25 0 40 -15.5t15 -40.5q0 -32 -23.5 -54t-54.5 -22q-25 0 -40.5 15.5t-15.5 40.5z" />
<glyph unicode="&#xb8;" horiz-adv-x="293" d="M9 -234l9 54q25 -13 62 -13q24 0 44 12t20 34q0 17 -14.5 26t-34.5 9q-25 0 -43 -6l-14 34l78 84h65l-61 -66q42 3 70 -14.5t28 -55.5q0 -51 -43 -81.5t-98 -30.5q-41 0 -68 14z" />
<glyph unicode="&#xba;" horiz-adv-x="344" d="M119 560q0 79 52.5 131.5t131.5 52.5q60 0 94.5 -35t34.5 -93q0 -80 -52.5 -132.5t-131.5 -52.5q-60 0 -94.5 35.5t-34.5 93.5zM195 559q0 -75 62 -75q47 0 73.5 35.5t26.5 96.5q0 75 -62 75q-47 0 -73.5 -35.5t-26.5 -96.5z" />
<glyph unicode="&#xbb;" horiz-adv-x="559" d="M55 30l19 111l183 130l-137 130l19 108l206 -197l-15 -85zM274 30l19 111l183 130l-137 130l19 108l206 -197l-15 -85z" />
<glyph unicode="&#xbc;" horiz-adv-x="830" d="M124 0l564 700h101l-564 -700h-101zM149 572l13 75l113 53h85l-74 -420h-85l61 345zM456 72l11 66l186 282h85l-187 -282h105l17 96h82l-17 -96h66l-11 -66h-66l-13 -72h-82l13 72h-189z" />
<glyph unicode="&#xbd;" horiz-adv-x="860" d="M124 0l564 700h101l-564 -700h-101zM149 572l13 75l113 53h85l-74 -420h-85l61 345zM506 0l11 64q27 20 64.5 47.5t58 42.5t46.5 35.5t39.5 34t26.5 29.5t18.5 31t5.5 31q0 50 -57 50q-62 0 -84 -72h-88q15 65 64 100.5t119 35.5q60 0 96 -28t36 -80q0 -60 -44 -106 t-174 -142q-9 -6 -13 -9h189l-10 -64h-304z" />
<glyph unicode="&#xbe;" horiz-adv-x="917" d="M119 392h87q-1 -30 16 -43.5t56 -13.5q90 0 90 75q0 55 -83 55h-54l11 64h54q44 0 68.5 18.5t24.5 53.5q0 44 -60 44q-63 0 -84 -57h-88q15 57 64 89t119 32q62 0 98.5 -27t36.5 -74q0 -37 -26.5 -67t-73.5 -41q41 -6 60 -30t19 -55q0 -62 -57 -103t-131 -41 q-77 0 -116 32t-31 89zM210 0l564 700h101l-564 -700h-101zM542 72l11 66l186 282h85l-187 -282h105l17 96h82l-17 -96h66l-11 -66h-66l-13 -72h-82l13 72h-189z" />
<glyph unicode="&#xbf;" horiz-adv-x="510" d="M22 -78q0 42 14 77t35.5 58.5t48 43.5t52 38.5t46 37.5t32.5 45.5t9 58.5h98q3 -48 -13 -85.5t-42 -58.5t-57 -42.5t-57.5 -40t-44.5 -49.5t-18 -71t26 -60.5t71 -20.5q49 0 87.5 30t54.5 91h106q-22 -91 -92.5 -144t-169.5 -53q-88 0 -137 38t-49 107zM268 431 q0 32 23.5 54t55.5 22q25 0 40 -15.5t15 -40.5q0 -32 -23.5 -54t-55.5 -22q-24 0 -39.5 15.5t-15.5 40.5z" />
<glyph unicode="&#xc0;" horiz-adv-x="629" d="M7 0l371 700h102l139 -700h-103l-34 190h-277l-96 -190h-102zM243 265h225l-37 207l-19 131l-64 -131zM298 892h126l114 -140h-85z" />
<glyph unicode="&#xc1;" horiz-adv-x="629" d="M7 0l371 700h102l139 -700h-103l-34 190h-277l-96 -190h-102zM243 265h225l-37 207l-19 131l-64 -131zM337 752l152 140h136l-195 -140h-93z" />
<glyph unicode="&#xc2;" horiz-adv-x="629" d="M7 0l371 700h102l139 -700h-103l-34 190h-277l-96 -190h-102zM243 265h225l-37 207l-19 131l-64 -131zM244 752l172 140h90l124 -140h-90l-90 68l-112 -68h-94z" />
<glyph unicode="&#xc3;" horiz-adv-x="629" d="M7 0l371 700h102l139 -700h-103l-34 190h-277l-96 -190h-102zM243 265h225l-37 207l-19 131l-64 -131zM264 795q27 46 61 70t66 24q30 0 76.5 -23t59.5 -23q33 0 61 42l48 -26q-26 -46 -59.5 -69.5t-66.5 -23.5q-29 0 -75.5 23t-60.5 23q-32 0 -62 -43z" />
<glyph unicode="&#xc4;" horiz-adv-x="629" d="M7 0l371 700h102l139 -700h-103l-34 190h-277l-96 -190h-102zM243 265h225l-37 207l-19 131l-64 -131zM280 819q0 27 22.5 47.5t50.5 20.5q23 0 37.5 -14.5t14.5 -37.5q0 -28 -22 -48.5t-51 -20.5q-22 0 -37 15t-15 38zM495 818q0 28 22 48.5t51 20.5q22 0 37 -14.5 t15 -37.5q0 -28 -22.5 -48.5t-50.5 -20.5q-23 0 -37.5 15t-14.5 37z" />
<glyph unicode="&#xc5;" horiz-adv-x="629" d="M7 0l371 700h102l139 -700h-103l-34 190h-277l-96 -190h-102zM243 265h225l-37 207l-19 131l-64 -131zM334 806q0 50 38.5 81t92.5 31q43 0 70 -22.5t27 -60.5q0 -50 -38.5 -80.5t-92.5 -30.5q-43 0 -70 22t-27 60zM405 806q6 -33 42 -26q22 2 34.5 17t9.5 38 q-6 33 -42 26q-22 -2 -34 -16.5t-10 -38.5z" />
<glyph unicode="&#xc6;" horiz-adv-x="941" d="M7 0l593 700h412l-13 -76h-311l-38 -217h291l-14 -77h-291l-44 -254h311l-14 -76h-410l33 190h-234l-157 -190h-114zM339 265h186l51 291l-98 -123z" />
<glyph unicode="&#xc7;" horiz-adv-x="665" d="M97 266q0 196 106.5 322.5t267.5 126.5q107 0 171 -61t58 -180h-111q4 83 -32.5 124t-99.5 41q-105 0 -179 -99.5t-74 -272.5q0 -102 40 -154t112 -52q63 0 113.5 41t75.5 124h111q-36 -116 -118 -177t-186 -64l-47 -51q42 3 70 -14.5t28 -55.5q0 -51 -43 -81.5 t-98 -30.5q-41 0 -68 14l9 54q25 -13 62 -13q24 0 44 12t20 34q0 17 -14.5 26t-34.5 9q-25 0 -43 -6l-14 34l68 73q-95 15 -144.5 88t-49.5 189z" />
<glyph unicode="&#xc8;" horiz-adv-x="548" d="M85 0l123 700h411l-13 -76h-311l-38 -217h290l-13 -77h-291l-45 -254h311l-13 -76h-411zM266 892h126l114 -140h-85z" />
<glyph unicode="&#xc9;" horiz-adv-x="548" d="M85 0l123 700h411l-13 -76h-311l-38 -217h290l-13 -77h-291l-45 -254h311l-13 -76h-411zM312 752l152 140h136l-195 -140h-93z" />
<glyph unicode="&#xca;" horiz-adv-x="548" d="M85 0l123 700h411l-13 -76h-311l-38 -217h290l-13 -77h-291l-45 -254h311l-13 -76h-411zM230 752l172 140h90l124 -140h-90l-90 68l-112 -68h-94z" />
<glyph unicode="&#xcb;" horiz-adv-x="548" d="M85 0l123 700h411l-13 -76h-311l-38 -217h290l-13 -77h-291l-45 -254h311l-13 -76h-411zM265 819q0 27 22.5 47.5t50.5 20.5q22 0 37 -14.5t15 -37.5q0 -28 -22 -48.5t-51 -20.5q-22 0 -37 15t-15 38zM480 818q0 28 22 48.5t51 20.5q23 0 37.5 -14.5t14.5 -37.5 q0 -28 -22.5 -48.5t-50.5 -20.5q-23 0 -37.5 15t-14.5 37z" />
<glyph unicode="&#xcc;" horiz-adv-x="275" d="M85 0l123 700h100l-123 -700h-100zM120 892h126l114 -140h-85z" />
<glyph unicode="&#xcd;" horiz-adv-x="275" d="M85 0l123 700h100l-123 -700h-100zM179 752l152 140h136l-195 -140h-93z" />
<glyph unicode="&#xce;" horiz-adv-x="275" d="M77 752l172 140h90l124 -140h-90l-90 68l-112 -68h-94zM85 0l123 700h100l-123 -700h-100z" />
<glyph unicode="&#xcf;" horiz-adv-x="275" d="M85 0l123 700h100l-123 -700h-100zM143 819q0 27 22.5 47.5t50.5 20.5q22 0 37 -14.5t15 -37.5q0 -28 -22 -48.5t-51 -20.5q-22 0 -37 15t-15 38zM295 818q0 28 22.5 48.5t50.5 20.5q22 0 37 -14.5t15 -37.5q0 -28 -22 -48.5t-51 -20.5q-22 0 -37 15t-15 37z" />
<glyph unicode="&#xd0;" horiz-adv-x="703" d="M33 309l13 77h107l55 314h211q141 0 222 -75.5t81 -209.5q0 -188 -119 -301.5t-307 -113.5h-211l54 309h-106zM198 76h112q64 0 118 19.5t96.5 59t66.5 105.5t24 152q0 108 -56.5 160t-152.5 52h-111l-42 -238h148l-13 -77h-149z" />
<glyph unicode="&#xd1;" horiz-adv-x="715" d="M85 0l123 700h106l247 -562l19 126l77 436h90l-123 -700h-105l-247 562l-20 -126l-76 -436h-91zM314 795q27 46 61 70t66 24q30 0 76.5 -23t59.5 -23q33 0 61 42l48 -26q-26 -46 -59.5 -69.5t-66.5 -23.5q-29 0 -75.5 23t-60.5 23q-32 0 -62 -43z" />
<glyph unicode="&#xd2;" horiz-adv-x="735" d="M98 276q0 192 110.5 315.5t282.5 123.5q125 0 194.5 -78.5t69.5 -212.5q0 -192 -110.5 -315.5t-282.5 -123.5q-125 0 -194.5 78.5t-69.5 212.5zM205 276q0 -105 46.5 -160t124.5 -55q118 0 195.5 98t77.5 265q0 105 -46.5 160t-125.5 55q-117 0 -194.5 -98.5 t-77.5 -264.5zM359 892h126l114 -140h-85z" />
<glyph unicode="&#xd3;" horiz-adv-x="735" d="M98 276q0 192 110.5 315.5t282.5 123.5q125 0 194.5 -78.5t69.5 -212.5q0 -192 -110.5 -315.5t-282.5 -123.5q-125 0 -194.5 78.5t-69.5 212.5zM205 276q0 -105 46.5 -160t124.5 -55q118 0 195.5 98t77.5 265q0 105 -46.5 160t-125.5 55q-117 0 -194.5 -98.5 t-77.5 -264.5zM398 752l152 140h136l-195 -140h-93z" />
<glyph unicode="&#xd4;" horiz-adv-x="735" d="M98 276q0 192 110.5 315.5t282.5 123.5q125 0 194.5 -78.5t69.5 -212.5q0 -192 -110.5 -315.5t-282.5 -123.5q-125 0 -194.5 78.5t-69.5 212.5zM205 276q0 -105 46.5 -160t124.5 -55q118 0 195.5 98t77.5 265q0 105 -46.5 160t-125.5 55q-117 0 -194.5 -98.5 t-77.5 -264.5zM305 752l172 140h90l124 -140h-90l-90 68l-112 -68h-94z" />
<glyph unicode="&#xd5;" horiz-adv-x="735" d="M98 276q0 192 110.5 315.5t282.5 123.5q125 0 194.5 -78.5t69.5 -212.5q0 -192 -110.5 -315.5t-282.5 -123.5q-125 0 -194.5 78.5t-69.5 212.5zM205 276q0 -105 46.5 -160t124.5 -55q118 0 195.5 98t77.5 265q0 105 -46.5 160t-125.5 55q-117 0 -194.5 -98.5 t-77.5 -264.5zM325 795q27 46 61 70t66 24q30 0 76.5 -23t59.5 -23q33 0 61 42l48 -26q-26 -46 -59.5 -69.5t-66.5 -23.5q-29 0 -75.5 23t-60.5 23q-32 0 -62 -43z" />
<glyph unicode="&#xd6;" horiz-adv-x="735" d="M98 276q0 192 110.5 315.5t282.5 123.5q125 0 194.5 -78.5t69.5 -212.5q0 -192 -110.5 -315.5t-282.5 -123.5q-125 0 -194.5 78.5t-69.5 212.5zM205 276q0 -105 46.5 -160t124.5 -55q118 0 195.5 98t77.5 265q0 105 -46.5 160t-125.5 55q-117 0 -194.5 -98.5 t-77.5 -264.5zM341 819q0 27 22.5 47.5t50.5 20.5q22 0 37 -14.5t15 -37.5q0 -28 -22 -48.5t-51 -20.5q-22 0 -37 15t-15 38zM556 818q0 28 22 48.5t51 20.5q23 0 37.5 -14.5t14.5 -37.5q0 -28 -22.5 -48.5t-50.5 -20.5q-23 0 -37.5 15t-14.5 37z" />
<glyph unicode="&#xd7;" horiz-adv-x="513" d="M101 211l186 158l-126 156l59 50l126 -156l186 158l48 -57l-187 -159l127 -157l-60 -50l-127 157l-185 -157z" />
<glyph unicode="&#xd8;" horiz-adv-x="735" d="M58 -90l110 153q-70 78 -70 213q0 192 110.5 315.5t282.5 123.5q72 0 126 -27l73 102h106l-110 -154q69 -77 69 -212q0 -192 -110.5 -315.5t-282.5 -123.5q-73 0 -125 27l-73 -102h-106zM205 276q0 -76 25 -126l335 466q-38 23 -88 23q-117 0 -194.5 -98.5t-77.5 -264.5z M289 84q36 -23 87 -23q118 0 195.5 98t77.5 265q0 76 -25 126z" />
<glyph unicode="&#xd9;" horiz-adv-x="707" d="M117 228l83 472h99l-79 -452q-16 -93 15.5 -140t123.5 -47q178 0 207 167l83 472h90l-79 -452q-22 -124 -106 -193.5t-209 -69.5q-126 0 -187 63.5t-41 179.5zM347 892h126l114 -140h-85z" />
<glyph unicode="&#xda;" horiz-adv-x="707" d="M117 228l83 472h99l-79 -452q-16 -93 15.5 -140t123.5 -47q178 0 207 167l83 472h90l-79 -452q-22 -124 -106 -193.5t-209 -69.5q-126 0 -187 63.5t-41 179.5zM371 752l152 140h136l-195 -140h-93z" />
<glyph unicode="&#xdb;" horiz-adv-x="707" d="M117 228l83 472h99l-79 -452q-16 -93 15.5 -140t123.5 -47q178 0 207 167l83 472h90l-79 -452q-22 -124 -106 -193.5t-209 -69.5q-126 0 -187 63.5t-41 179.5zM287 752l172 140h90l124 -140h-90l-90 68l-112 -68h-94z" />
<glyph unicode="&#xdc;" horiz-adv-x="707" d="M117 228l83 472h99l-79 -452q-16 -93 15.5 -140t123.5 -47q178 0 207 167l83 472h90l-79 -452q-22 -124 -106 -193.5t-209 -69.5q-126 0 -187 63.5t-41 179.5zM322 819q0 27 22.5 47.5t50.5 20.5q23 0 37.5 -14.5t14.5 -37.5q0 -28 -22 -48.5t-51 -20.5q-22 0 -37 15 t-15 38zM537 818q0 28 22 48.5t51 20.5q22 0 37 -14.5t15 -37.5q0 -28 -22.5 -48.5t-50.5 -20.5q-23 0 -37.5 15t-14.5 37z" />
<glyph unicode="&#xdd;" horiz-adv-x="589" d="M145 700h102l113 -359l224 359h100l-291 -442l-46 -258h-99l45 258zM318 752l152 140h136l-195 -140h-93z" />
<glyph unicode="&#xde;" horiz-adv-x="588" d="M85 0l123 700h100l-20 -116h118q91 0 152.5 -48.5t61.5 -138.5q0 -124 -88 -192.5t-205 -68.5h-118l-24 -136h-100zM222 212h118q78 0 127 46.5t49 131.5q0 58 -33 88t-91 30h-118z" />
<glyph unicode="&#xdf;" horiz-adv-x="627" d="M75 0l89 501q21 122 103.5 190t185.5 68q75 0 124 -29.5t49 -91.5q0 -37 -16 -68t-38.5 -52t-45 -39t-38.5 -38t-16 -40t16 -38.5t39 -34.5t46 -34t39 -47.5t16 -65.5q0 -85 -64 -140.5t-151 -55.5q-170 0 -153 162h98q-2 -48 13.5 -72t60.5 -24q39 0 70.5 28.5 t31.5 78.5q0 30 -16.5 53.5t-39.5 40l-46 33t-39.5 41t-16.5 56.5q0 31 16 58.5t38.5 47.5t45 39.5t38.5 43t16 48.5q0 74 -91 74q-62 0 -113 -47.5t-69 -144.5l-88 -501h-94z" />
<glyph unicode="&#xe0;" horiz-adv-x="582" d="M84 192q0 84 25.5 151t67 107t90.5 61t99 21q85 0 125 -61l8 46h94l-92 -517h-93l10 56q-82 -71 -177 -71q-69 0 -113 53t-44 154zM183 203q0 -73 28.5 -108.5t72.5 -35.5q81 0 144 56l-6 -37l58 329q-42 51 -116 51q-70 0 -125.5 -65t-55.5 -190zM261 733h115l81 -151 h-77z" />
<glyph unicode="&#xe1;" horiz-adv-x="582" d="M84 192q0 84 25.5 151t67 107t90.5 61t99 21q85 0 125 -61l8 46h94l-92 -517h-93l10 56q-82 -71 -177 -71q-69 0 -113 53t-44 154zM183 203q0 -73 28.5 -108.5t72.5 -35.5q81 0 144 56l-6 -37l58 329q-42 51 -116 51q-70 0 -125.5 -65t-55.5 -190zM293 582l126 151h126 l-168 -151h-84z" />
<glyph unicode="&#xe2;" horiz-adv-x="582" d="M84 192q0 84 25.5 151t67 107t90.5 61t99 21q85 0 125 -61l8 46h94l-92 -517h-93l10 56q-82 -71 -177 -71q-69 0 -113 53t-44 154zM183 203q0 -73 28.5 -108.5t72.5 -35.5q81 0 144 56l-6 -37l58 329q-42 51 -116 51q-70 0 -125.5 -65t-55.5 -190zM232 582l138 151h104 l83 -151h-78l-67 86l-97 -86h-83z" />
<glyph unicode="&#xe3;" horiz-adv-x="582" d="M84 192q0 84 25.5 151t67 107t90.5 61t99 21q85 0 125 -61l8 46h94l-92 -517h-93l10 56q-82 -71 -177 -71q-69 0 -113 53t-44 154zM183 203q0 -73 28.5 -108.5t72.5 -35.5q81 0 144 56l-6 -37l58 329q-42 51 -116 51q-70 0 -125.5 -65t-55.5 -190zM232 619q27 46 62 70 t65 24t67.5 -23t50.5 -23q31 0 59 42l48 -26q-25 -45 -60 -69t-65 -24t-68 23t-52 23q-28 0 -59 -43z" />
<glyph unicode="&#xe4;" horiz-adv-x="582" d="M84 192q0 84 25.5 151t67 107t90.5 61t99 21q85 0 125 -61l8 46h94l-92 -517h-93l10 56q-82 -71 -177 -71q-69 0 -113 53t-44 154zM183 203q0 -73 28.5 -108.5t72.5 -35.5q81 0 144 56l-6 -37l58 329q-42 51 -116 51q-70 0 -125.5 -65t-55.5 -190zM254 653q0 28 22 48.5 t51 20.5q22 0 37 -15t15 -38q0 -28 -22 -48.5t-51 -20.5q-23 0 -37.5 15t-14.5 38zM443 653q0 28 22 48.5t51 20.5q22 0 37 -15t15 -38q0 -27 -22.5 -48t-50.5 -21q-23 0 -37.5 15t-14.5 38z" />
<glyph unicode="&#xe5;" horiz-adv-x="582" d="M84 192q0 84 25.5 151t67 107t90.5 61t99 21q85 0 125 -61l8 46h94l-92 -517h-93l10 56q-82 -71 -177 -71q-69 0 -113 53t-44 154zM183 203q0 -73 28.5 -108.5t72.5 -35.5q81 0 144 56l-6 -37l58 329q-42 51 -116 51q-70 0 -125.5 -65t-55.5 -190zM294 642q0 50 38 80.5 t93 30.5q43 0 70.5 -22t27.5 -60q0 -49 -38.5 -79.5t-92.5 -30.5q-44 0 -71 21.5t-27 59.5zM365 643q8 -32 43 -27q21 2 33.5 16.5t9.5 38.5q-6 32 -42 27q-22 -2 -34 -17t-10 -38z" />
<glyph unicode="&#xe6;" horiz-adv-x="877" d="M65 100q0 75 68 132t212 57q32 0 84 -5l10 62q21 121 -79 121q-110 0 -136 -121h-98q16 88 84.5 137t162.5 49q117 0 150 -75q73 75 176 75q114 0 158.5 -74.5t12.5 -208.5h-352q-3 -27 -3 -56q0 -142 100 -142q93 0 128 93h100q-20 -68 -87.5 -113.5t-152.5 -45.5 q-133 0 -170 104q-111 -104 -234 -104q-62 0 -98 31.5t-36 83.5zM164 121q0 -63 81 -63q42 0 89 25.5t84 61.5q-3 38 1 79q-37 4 -78 4q-177 0 -177 -107zM529 311h250q13 76 -12 116t-80 40q-54 0 -96.5 -40t-61.5 -116z" />
<glyph unicode="&#xe7;" horiz-adv-x="533" d="M84 194q0 147 77.5 242.5t207.5 95.5q90 0 141 -49t45 -132h-100q3 116 -98 116q-75 0 -125 -73.5t-50 -199.5q0 -143 103 -143q99 0 136 113h100q-22 -77 -84.5 -125t-146.5 -53l-48 -52q42 3 70 -14.5t28 -55.5q0 -51 -43 -81.5t-98 -30.5q-41 0 -68 14l9 54 q25 -13 62 -13q24 0 44 12t20 34q0 17 -14.5 26t-34.5 9q-25 0 -43 -6l-14 34l67 73q-143 25 -143 205z" />
<glyph unicode="&#xe8;" horiz-adv-x="543" d="M84 193q0 147 80 243t201 96q114 0 158.5 -74.5t12.5 -208.5h-352q-3 -27 -3 -56q0 -142 100 -142q93 0 128 93h100q-20 -68 -88 -113.5t-153 -45.5q-93 0 -138.5 56t-45.5 152zM195 311h250q13 76 -12 116t-80 40q-54 0 -96.5 -40t-61.5 -116zM261 733h115l81 -151h-77z " />
<glyph unicode="&#xe9;" horiz-adv-x="543" d="M84 193q0 147 80 243t201 96q114 0 158.5 -74.5t12.5 -208.5h-352q-3 -27 -3 -56q0 -142 100 -142q93 0 128 93h100q-20 -68 -88 -113.5t-153 -45.5q-93 0 -138.5 56t-45.5 152zM195 311h250q13 76 -12 116t-80 40q-54 0 -96.5 -40t-61.5 -116zM287 582l126 151h126 l-168 -151h-84z" />
<glyph unicode="&#xea;" horiz-adv-x="543" d="M84 193q0 147 80 243t201 96q114 0 158.5 -74.5t12.5 -208.5h-352q-3 -27 -3 -56q0 -142 100 -142q93 0 128 93h100q-20 -68 -88 -113.5t-153 -45.5q-93 0 -138.5 56t-45.5 152zM195 311h250q13 76 -12 116t-80 40q-54 0 -96.5 -40t-61.5 -116zM212 582l138 151h104 l83 -151h-78l-67 86l-97 -86h-83z" />
<glyph unicode="&#xeb;" horiz-adv-x="543" d="M84 193q0 147 80 243t201 96q114 0 158.5 -74.5t12.5 -208.5h-352q-3 -27 -3 -56q0 -142 100 -142q93 0 128 93h100q-20 -68 -88 -113.5t-153 -45.5q-93 0 -138.5 56t-45.5 152zM195 311h250q13 76 -12 116t-80 40q-54 0 -96.5 -40t-61.5 -116zM232 653q0 28 22 48.5 t51 20.5q22 0 37 -15t15 -38q0 -28 -22 -48.5t-51 -20.5q-23 0 -37.5 15t-14.5 38zM421 653q0 28 22 48.5t51 20.5q22 0 37 -15t15 -38q0 -27 -22.5 -48t-50.5 -21q-23 0 -37.5 15t-14.5 38z" />
<glyph unicode="&#xec;" horiz-adv-x="249" d="M75 0l92 517h93l-91 -517h-94zM110 733h115l81 -151h-77z" />
<glyph unicode="&#xed;" horiz-adv-x="249" d="M75 0l92 517h93l-91 -517h-94zM145 582l126 151h126l-168 -151h-84z" />
<glyph unicode="&#xee;" horiz-adv-x="249" d="M62 582l138 151h104l83 -151h-78l-67 86l-97 -86h-83zM75 0l92 517h93l-91 -517h-94z" />
<glyph unicode="&#xef;" horiz-adv-x="249" d="M75 0l92 517h93l-91 -517h-94zM101 653q0 27 22 48t50 21q23 0 37.5 -15t14.5 -38q0 -28 -22 -48.5t-51 -20.5q-22 0 -36.5 15t-14.5 38zM252 653q0 27 22.5 48t50.5 21q23 0 37.5 -15t14.5 -38q0 -28 -22 -48.5t-51 -20.5q-22 0 -37 15t-15 38z" />
<glyph unicode="&#xf0;" horiz-adv-x="578" d="M83 195q0 130 79.5 223.5t200.5 93.5q58 0 99 -33q-24 71 -70 130l-139 -49l-29 56l125 44q-42 44 -98 84h124q33 -24 61 -53l126 44l30 -56l-112 -39q103 -137 103 -298q0 -152 -80.5 -254.5t-213.5 -102.5q-97 0 -151.5 57t-54.5 153zM182 199q0 -64 28 -105.5 t90 -41.5q83 0 134.5 74t51.5 207q0 35 -4 62q-43 52 -116 52q-77 0 -130.5 -68.5t-53.5 -179.5z" />
<glyph unicode="&#xf1;" horiz-adv-x="591" d="M75 0l92 517h93l-12 -67q94 82 196 82q71 0 108.5 -41t22.5 -128l-64 -363h-94l61 343q21 113 -83 113q-38 0 -82.5 -19.5t-74.5 -45.5l5 27l-74 -418h-94zM222 619q27 46 62 70t65 24t67.5 -23t50.5 -23q31 0 59 42l48 -26q-25 -45 -60 -69t-65 -24t-68 23t-52 23 q-28 0 -59 -43z" />
<glyph unicode="&#xf2;" horiz-adv-x="581" d="M85 203q0 143 81.5 236t215.5 93q96 0 148.5 -58.5t52.5 -158.5q0 -143 -82 -236.5t-216 -93.5q-96 0 -148 59t-52 159zM183 201q0 -74 30.5 -112t84.5 -38q81 0 134 69.5t53 196.5q0 73 -31 111.5t-84 38.5q-82 0 -134.5 -69.5t-52.5 -196.5zM283 733h115l81 -151h-77z " />
<glyph unicode="&#xf3;" horiz-adv-x="581" d="M85 203q0 143 81.5 236t215.5 93q96 0 148.5 -58.5t52.5 -158.5q0 -143 -82 -236.5t-216 -93.5q-96 0 -148 59t-52 159zM183 201q0 -74 30.5 -112t84.5 -38q81 0 134 69.5t53 196.5q0 73 -31 111.5t-84 38.5q-82 0 -134.5 -69.5t-52.5 -196.5zM301 582l126 151h126 l-168 -151h-84z" />
<glyph unicode="&#xf4;" horiz-adv-x="581" d="M85 203q0 143 81.5 236t215.5 93q96 0 148.5 -58.5t52.5 -158.5q0 -143 -82 -236.5t-216 -93.5q-96 0 -148 59t-52 159zM183 201q0 -74 30.5 -112t84.5 -38q81 0 134 69.5t53 196.5q0 73 -31 111.5t-84 38.5q-82 0 -134.5 -69.5t-52.5 -196.5zM227 582l138 151h104 l83 -151h-78l-67 86l-97 -86h-83z" />
<glyph unicode="&#xf5;" horiz-adv-x="581" d="M85 203q0 143 81.5 236t215.5 93q96 0 148.5 -58.5t52.5 -158.5q0 -143 -82 -236.5t-216 -93.5q-96 0 -148 59t-52 159zM183 201q0 -74 30.5 -112t84.5 -38q81 0 134 69.5t53 196.5q0 73 -31 111.5t-84 38.5q-82 0 -134.5 -69.5t-52.5 -196.5zM227 619q27 46 62 70t65 24 t67.5 -23t50.5 -23q31 0 59 42l48 -26q-25 -45 -60 -69t-65 -24t-68 23t-52 23q-28 0 -59 -43z" />
<glyph unicode="&#xf6;" horiz-adv-x="581" d="M85 203q0 143 81.5 236t215.5 93q96 0 148.5 -58.5t52.5 -158.5q0 -143 -82 -236.5t-216 -93.5q-96 0 -148 59t-52 159zM183 201q0 -74 30.5 -112t84.5 -38q81 0 134 69.5t53 196.5q0 73 -31 111.5t-84 38.5q-82 0 -134.5 -69.5t-52.5 -196.5zM248 653q0 28 22 48.5 t51 20.5q22 0 37 -15t15 -38q0 -28 -22 -48.5t-51 -20.5q-23 0 -37.5 15t-14.5 38zM437 653q0 28 22 48.5t51 20.5q22 0 37 -15t15 -38q0 -27 -22.5 -48t-50.5 -21q-23 0 -37.5 15t-14.5 38z" />
<glyph unicode="&#xf7;" horiz-adv-x="560" d="M105 327l12 77h463l-12 -77h-463zM247 170q0 27 22.5 47.5t50.5 20.5q22 0 36.5 -15t14.5 -37q0 -27 -22 -47.5t-50 -20.5q-22 0 -37 15t-15 37zM314 545q0 27 22 47.5t50 20.5q22 0 36.5 -14.5t14.5 -37.5q0 -27 -22 -47t-50 -20q-22 0 -36.5 14.5t-14.5 36.5z" />
<glyph unicode="&#xf8;" horiz-adv-x="581" d="M32 -80l99 131q-46 58 -46 152q0 143 81.5 236t215.5 93q54 0 95 -19l64 84h95l-99 -131q46 -58 46 -151q0 -143 -82 -236.5t-216 -93.5q-53 0 -95 20l-64 -85h-94zM183 201q0 -39 9 -68l239 317q-26 17 -61 17q-82 0 -134.5 -69.5t-52.5 -196.5zM237 67q25 -16 61 -16 q81 0 134 69.5t53 196.5q0 39 -9 68z" />
<glyph unicode="&#xf9;" horiz-adv-x="587" d="M103 155l64 362h93l-60 -342q-10 -58 9.5 -85.5t70.5 -27.5q38 0 81 18.5t74 45.5l69 391h94l-91 -517h-94l12 67q-96 -82 -193 -82q-71 0 -108 41.5t-21 128.5zM278 733h115l81 -151h-77z" />
<glyph unicode="&#xfa;" horiz-adv-x="587" d="M103 155l64 362h93l-60 -342q-10 -58 9.5 -85.5t70.5 -27.5q38 0 81 18.5t74 45.5l69 391h94l-91 -517h-94l12 67q-96 -82 -193 -82q-71 0 -108 41.5t-21 128.5zM313 582l126 151h126l-168 -151h-84z" />
<glyph unicode="&#xfb;" horiz-adv-x="587" d="M103 155l64 362h93l-60 -342q-10 -58 9.5 -85.5t70.5 -27.5q38 0 81 18.5t74 45.5l69 391h94l-91 -517h-94l12 67q-96 -82 -193 -82q-71 0 -108 41.5t-21 128.5zM230 582l138 151h104l83 -151h-78l-67 86l-97 -86h-83z" />
<glyph unicode="&#xfc;" horiz-adv-x="587" d="M103 155l64 362h93l-60 -342q-10 -58 9.5 -85.5t70.5 -27.5q38 0 81 18.5t74 45.5l69 391h94l-91 -517h-94l12 67q-96 -82 -193 -82q-71 0 -108 41.5t-21 128.5zM250 653q0 28 22 48.5t51 20.5q22 0 37 -15t15 -38q0 -28 -22 -48.5t-51 -20.5q-23 0 -37.5 15t-14.5 38z M439 653q0 28 22 48.5t51 20.5q22 0 37 -15t15 -38q0 -27 -22.5 -48t-50.5 -21q-23 0 -37.5 15t-14.5 38z" />
<glyph unicode="&#xfd;" horiz-adv-x="505" d="M89 -208l121 213l-107 512h100l51 -272l19 -130l65 130l143 272h95l-399 -725h-88zM269 582l126 151h126l-168 -151h-84z" />
<glyph unicode="&#xfe;" horiz-adv-x="582" d="M38 -208l168 952h94l-50 -282q82 70 177 70q69 0 113 -52.5t44 -154.5q0 -84 -25.5 -151t-67 -107t-90 -61t-99.5 -21q-83 0 -125 61l4 24l-49 -278h-94zM188 111q43 -52 116 -52q70 0 125.5 65.5t55.5 189.5q0 73 -28.5 108.5t-72.5 35.5q-81 0 -144 -56l6 36z" />
<glyph unicode="&#xff;" horiz-adv-x="505" d="M89 -208l121 213l-107 512h100l51 -272l19 -130l65 130l143 272h95l-399 -725h-88zM217 653q0 28 22 48.5t51 20.5q22 0 37 -15t15 -38q0 -28 -22 -48.5t-51 -20.5q-23 0 -37.5 15t-14.5 38zM406 653q0 28 22 48.5t51 20.5q22 0 37 -15t15 -38q0 -27 -22.5 -48t-50.5 -21 q-23 0 -37.5 15t-14.5 38z" />
<glyph unicode="&#x100;" horiz-adv-x="629" d="M7 0l371 700h102l139 -700h-103l-34 190h-277l-96 -190h-102zM243 265h225l-37 207l-19 131l-64 -131zM284 785l12 71h318l-13 -71h-317z" />
<glyph unicode="&#x101;" horiz-adv-x="582" d="M84 192q0 84 25.5 151t67 107t90.5 61t99 21q85 0 125 -61l8 46h94l-92 -517h-93l10 56q-82 -71 -177 -71q-69 0 -113 53t-44 154zM183 203q0 -73 28.5 -108.5t72.5 -35.5q81 0 144 56l-6 -37l58 329q-42 51 -116 51q-70 0 -125.5 -65t-55.5 -190zM253 612l12 71h296 l-12 -71h-296z" />
<glyph unicode="&#x102;" horiz-adv-x="629" d="M7 0l371 700h102l139 -700h-103l-34 190h-277l-96 -190h-102zM243 265h225l-37 207l-19 131l-64 -131zM312 892h67q-5 -31 13 -50.5t57 -19.5q40 0 63 19.5t28 50.5h71q-12 -71 -60 -109.5t-116 -38.5t-101.5 38.5t-21.5 109.5z" />
<glyph unicode="&#x103;" horiz-adv-x="582" d="M84 192q0 84 25.5 151t67 107t90.5 61t99 21q85 0 125 -61l8 46h94l-92 -517h-93l10 56q-82 -71 -177 -71q-69 0 -113 53t-44 154zM183 203q0 -73 28.5 -108.5t72.5 -35.5q81 0 144 56l-6 -37l58 329q-42 51 -116 51q-70 0 -125.5 -65t-55.5 -190zM283 733h65 q-7 -38 8 -61.5t51 -23.5q69 0 86 85h68q-14 -78 -60 -119t-108 -41t-93 41t-17 119z" />
<glyph unicode="&#x104;" horiz-adv-x="629" d="M7 0l371 700h102l139 -700h-1q-147 -69 -147 -145q0 -19 12 -30t30 -11q34 0 76 22l-10 -60q-48 -24 -100 -24q-42 0 -66 23.5t-24 60.5q0 93 140 164h-13l-34 190h-277l-96 -190h-102zM243 265h225l-37 207l-19 131l-64 -131z" />
<glyph unicode="&#x105;" horiz-adv-x="582" d="M84 192q0 84 25.5 151t67 107t90.5 61t99 21q85 0 125 -61l8 46h94l-92 -517h-1q-147 -69 -147 -145q0 -19 12 -30t30 -11q34 0 76 22l-10 -60q-48 -24 -100 -24q-42 0 -66 23.5t-24 60.5q0 93 140 164h-3l10 56q-82 -71 -177 -71q-69 0 -113 53t-44 154zM183 203 q0 -73 28.5 -108.5t72.5 -35.5q81 0 144 56l-6 -37l58 329q-42 51 -116 51q-70 0 -125.5 -65t-55.5 -190z" />
<glyph unicode="&#x106;" horiz-adv-x="665" d="M97 266q0 196 106.5 322.5t267.5 126.5q107 0 171 -61t58 -180h-111q4 83 -32.5 124t-99.5 41q-105 0 -179 -99.5t-74 -272.5q0 -102 40 -154t112 -52q63 0 113.5 41t75.5 124h111q-37 -119 -122 -180t-192 -61q-120 0 -182.5 75t-62.5 206zM346 752l152 140h136 l-195 -140h-93z" />
<glyph unicode="&#x107;" horiz-adv-x="533" d="M84 194q0 147 77.5 242.5t207.5 95.5q90 0 141 -49t45 -132h-100q3 116 -98 116q-75 0 -125 -73.5t-50 -199.5q0 -143 103 -143q99 0 136 113h100q-22 -81 -90.5 -130t-158.5 -49q-95 0 -141.5 55.5t-46.5 153.5zM275 582l126 151h126l-168 -151h-84z" />
<glyph unicode="&#x108;" horiz-adv-x="665" d="M97 266q0 196 106.5 322.5t267.5 126.5q107 0 171 -61t58 -180h-111q4 83 -32.5 124t-99.5 41q-105 0 -179 -99.5t-74 -272.5q0 -102 40 -154t112 -52q63 0 113.5 41t75.5 124h111q-37 -119 -122 -180t-192 -61q-120 0 -182.5 75t-62.5 206zM271 752l172 140h90l124 -140 h-90l-90 68l-112 -68h-94z" />
<glyph unicode="&#x109;" horiz-adv-x="533" d="M84 194q0 147 77.5 242.5t207.5 95.5q90 0 141 -49t45 -132h-100q3 116 -98 116q-75 0 -125 -73.5t-50 -199.5q0 -143 103 -143q99 0 136 113h100q-22 -81 -90.5 -130t-158.5 -49q-95 0 -141.5 55.5t-46.5 153.5zM208 582l138 151h104l83 -151h-78l-67 86l-97 -86h-83z " />
<glyph unicode="&#x10a;" horiz-adv-x="665" d="M97 266q0 196 106.5 322.5t267.5 126.5q107 0 171 -61t58 -180h-111q4 83 -32.5 124t-99.5 41q-105 0 -179 -99.5t-74 -272.5q0 -102 40 -154t112 -52q63 0 113.5 41t75.5 124h111q-37 -119 -122 -180t-192 -61q-120 0 -182.5 75t-62.5 206zM412 818q0 28 22.5 48.5 t51.5 20.5q23 0 38 -14.5t15 -37.5q0 -28 -22.5 -49t-51.5 -21q-23 0 -38 15t-15 38z" />
<glyph unicode="&#x10b;" horiz-adv-x="533" d="M84 194q0 147 77.5 242.5t207.5 95.5q90 0 141 -49t45 -132h-100q3 116 -98 116q-75 0 -125 -73.5t-50 -199.5q0 -143 103 -143q99 0 136 113h100q-22 -81 -90.5 -130t-158.5 -49q-95 0 -141.5 55.5t-46.5 153.5zM322 653q0 28 22.5 49t51.5 21q23 0 37.5 -15.5 t14.5 -38.5q0 -28 -22 -49t-51 -21q-23 0 -38 15.5t-15 38.5z" />
<glyph unicode="&#x10c;" horiz-adv-x="665" d="M97 266q0 196 106.5 322.5t267.5 126.5q107 0 171 -61t58 -180h-111q4 83 -32.5 124t-99.5 41q-105 0 -179 -99.5t-74 -272.5q0 -102 40 -154t112 -52q63 0 113.5 41t75.5 124h111q-37 -119 -122 -180t-192 -61q-120 0 -182.5 75t-62.5 206zM295 892h90l89 -68l113 68h94 l-172 -140h-90z" />
<glyph unicode="&#x10d;" horiz-adv-x="533" d="M84 194q0 147 77.5 242.5t207.5 95.5q90 0 141 -49t45 -132h-100q3 116 -98 116q-75 0 -125 -73.5t-50 -199.5q0 -143 103 -143q99 0 136 113h100q-22 -81 -90.5 -130t-158.5 -49q-95 0 -141.5 55.5t-46.5 153.5zM236 733h78l67 -86l97 86h83l-139 -151h-103z" />
<glyph unicode="&#x10e;" horiz-adv-x="703" d="M85 0l123 700h211q141 0 222 -75.5t81 -209.5q0 -188 -119 -301.5t-307 -113.5h-211zM198 76h112q64 0 118 19.5t96.5 59t66.5 105.5t24 152q0 108 -56.5 160t-152.5 52h-111zM263 892h90l89 -68l113 68h94l-172 -140h-90z" />
<glyph unicode="&#x10f;" horiz-adv-x="582" d="M84 192q0 84 25.5 151t67 107t90.5 61t99 21q85 0 125 -61l48 273h93l-131 -744h-93l10 56q-82 -71 -177 -71q-69 0 -113 53t-44 154zM183 203q0 -73 28.5 -108.5t72.5 -35.5q81 0 144 56l-6 -38l58 330q-42 51 -116 51q-70 0 -125.5 -65t-55.5 -190zM663 580l40 223h88 l-60 -223h-68z" />
<glyph unicode="&#x110;" horiz-adv-x="703" d="M33 309l13 77h107l55 314h211q141 0 222 -75.5t81 -209.5q0 -188 -119 -301.5t-307 -113.5h-211l54 309h-106zM198 76h112q64 0 118 19.5t96.5 59t66.5 105.5t24 152q0 108 -56.5 160t-152.5 52h-111l-42 -238h148l-13 -77h-149z" />
<glyph unicode="&#x111;" horiz-adv-x="582" d="M84 192q0 84 25.5 151t67 107t90.5 61t99 21q85 0 125 -61l24 135h-124l12 71h124l12 67h93l-12 -67h79l-12 -71h-79l-107 -606h-93l10 56q-82 -71 -177 -71q-69 0 -113 53t-44 154zM183 203q0 -73 28.5 -108.5t72.5 -35.5q81 0 144 56l-6 -38l58 330q-42 51 -116 51 q-70 0 -125.5 -65t-55.5 -190z" />
<glyph unicode="&#x112;" horiz-adv-x="548" d="M85 0l123 700h411l-13 -76h-311l-38 -217h290l-13 -77h-291l-45 -254h311l-13 -76h-411zM269 785l12 71h318l-13 -71h-317z" />
<glyph unicode="&#x113;" horiz-adv-x="543" d="M84 193q0 147 80 243t201 96q114 0 158.5 -74.5t12.5 -208.5h-352q-3 -27 -3 -56q0 -142 100 -142q93 0 128 93h100q-20 -68 -88 -113.5t-153 -45.5q-93 0 -138.5 56t-45.5 152zM195 311h250q13 76 -12 116t-80 40q-54 0 -96.5 -40t-61.5 -116zM228 612l12 71h296 l-12 -71h-296z" />
<glyph unicode="&#x114;" horiz-adv-x="548" d="M85 0l123 700h411l-13 -76h-311l-38 -217h290l-13 -77h-291l-45 -254h311l-13 -76h-411zM297 892h67q-5 -31 13 -50.5t57 -19.5q40 0 63 19.5t28 50.5h71q-12 -71 -60 -109.5t-116 -38.5t-101.5 38.5t-21.5 109.5z" />
<glyph unicode="&#x115;" horiz-adv-x="543" d="M84 193q0 147 80 243t201 96q114 0 158.5 -74.5t12.5 -208.5h-352q-3 -27 -3 -56q0 -142 100 -142q93 0 128 93h100q-20 -68 -88 -113.5t-153 -45.5q-93 0 -138.5 56t-45.5 152zM195 311h250q13 76 -12 116t-80 40q-54 0 -96.5 -40t-61.5 -116zM263 733h65 q-7 -38 8 -61.5t51 -23.5q69 0 86 85h68q-14 -78 -60 -119t-108 -41t-93 41t-17 119z" />
<glyph unicode="&#x116;" horiz-adv-x="548" d="M85 0l123 700h411l-13 -76h-311l-38 -217h290l-13 -77h-291l-45 -254h311l-13 -76h-411zM371 818q0 28 22.5 48.5t51.5 20.5q23 0 38 -14.5t15 -37.5q0 -28 -22.5 -49t-51.5 -21q-23 0 -38 15t-15 38z" />
<glyph unicode="&#x117;" horiz-adv-x="543" d="M84 193q0 147 80 243t201 96q114 0 158.5 -74.5t12.5 -208.5h-352q-3 -27 -3 -56q0 -142 100 -142q93 0 128 93h100q-20 -68 -88 -113.5t-153 -45.5q-93 0 -138.5 56t-45.5 152zM195 311h250q13 76 -12 116t-80 40q-54 0 -96.5 -40t-61.5 -116zM317 653q0 28 22.5 49 t51.5 21q23 0 37.5 -15.5t14.5 -38.5q0 -28 -22 -49t-51 -21q-23 0 -38 15.5t-15 38.5z" />
<glyph unicode="&#x118;" horiz-adv-x="548" d="M85 0l123 700h411l-13 -76h-311l-38 -217h290l-13 -77h-291l-45 -254h311l-13 -76h-1q-147 -69 -147 -145q0 -19 12 -30t30 -11q34 0 76 22l-10 -60q-48 -24 -100 -24q-42 0 -66 23.5t-24 60.5q0 93 140 164h-321z" />
<glyph unicode="&#x119;" horiz-adv-x="543" d="M84 193q0 147 80 243t201 96q114 0 158.5 -74.5t12.5 -208.5h-352q-3 -27 -3 -56q0 -142 100 -142q93 0 128 93h100q-10 -34 -35 -65h2q-8 -10 -30 -38t-30.5 -38.5t-25 -33t-23 -34t-15.5 -28t-12.5 -29t-3.5 -23.5q0 -19 12 -30t30 -11q34 0 76 22l-10 -60 q-48 -24 -100 -24q-42 0 -66 23.5t-24 60.5q0 35 17.5 67.5t69.5 91.5q-33 -10 -73 -10q-93 0 -138.5 56t-45.5 152zM195 311h250q13 76 -12 116t-80 40q-54 0 -96.5 -40t-61.5 -116z" />
<glyph unicode="&#x11a;" horiz-adv-x="548" d="M85 0l123 700h411l-13 -76h-311l-38 -217h290l-13 -77h-291l-45 -254h311l-13 -76h-411zM254 892h90l89 -68l113 68h94l-172 -140h-90z" />
<glyph unicode="&#x11b;" horiz-adv-x="543" d="M84 193q0 147 80 243t201 96q114 0 158.5 -74.5t12.5 -208.5h-352q-3 -27 -3 -56q0 -142 100 -142q93 0 128 93h100q-20 -68 -88 -113.5t-153 -45.5q-93 0 -138.5 56t-45.5 152zM195 311h250q13 76 -12 116t-80 40q-54 0 -96.5 -40t-61.5 -116zM240 733h78l67 -86l97 86 h83l-139 -151h-103z" />
<glyph unicode="&#x11c;" horiz-adv-x="673" d="M96 260q0 200 106.5 327.5t269.5 127.5q105 0 167 -58.5t58 -169.5h-111q2 75 -32.5 113.5t-95.5 38.5q-106 0 -179.5 -98.5t-73.5 -267.5q0 -104 41 -158t107 -54q96 0 185 76l25 140h-165l13 74h263l-62 -351h-98l12 67q-41 -36 -98.5 -59t-110.5 -23q-107 0 -164 73.5 t-57 201.5zM270 752l172 140h90l124 -140h-90l-90 68l-112 -68h-94z" />
<glyph unicode="&#x11d;" horiz-adv-x="577" d="M47 -54h98q-6 -53 21 -78t83 -25q57 0 100.5 36t57.5 115l11 63q-82 -70 -176 -70q-70 0 -114 52.5t-44 154.5q0 84 25.5 150.5t67 106.5t90 60.5t99.5 20.5q85 0 125 -61l8 46h94l-91 -511q-20 -113 -91.5 -171t-173.5 -58q-100 0 -150.5 45t-39.5 124zM183 205 q0 -73 28.5 -108.5t73.5 -35.5q81 0 144 56l51 290q-42 51 -116 51q-70 0 -125.5 -64.5t-55.5 -188.5zM232 582l138 151h104l83 -151h-78l-67 86l-97 -86h-83z" />
<glyph unicode="&#x11e;" horiz-adv-x="673" d="M96 260q0 200 106.5 327.5t269.5 127.5q105 0 167 -58.5t58 -169.5h-111q2 75 -32.5 113.5t-95.5 38.5q-106 0 -179.5 -98.5t-73.5 -267.5q0 -104 41 -158t107 -54q96 0 185 76l25 140h-165l13 74h263l-62 -351h-98l12 67q-41 -36 -98.5 -59t-110.5 -23q-107 0 -164 73.5 t-57 201.5zM337 892h67q-5 -31 13 -50.5t57 -19.5q40 0 63 19.5t28 50.5h71q-12 -71 -60 -109.5t-116 -38.5t-101.5 38.5t-21.5 109.5z" />
<glyph unicode="&#x11f;" horiz-adv-x="577" d="M47 -54h98q-6 -53 21 -78t83 -25q57 0 100.5 36t57.5 115l11 63q-82 -70 -176 -70q-70 0 -114 52.5t-44 154.5q0 84 25.5 150.5t67 106.5t90 60.5t99.5 20.5q85 0 125 -61l8 46h94l-91 -511q-20 -113 -91.5 -171t-173.5 -58q-100 0 -150.5 45t-39.5 124zM183 205 q0 -73 28.5 -108.5t73.5 -35.5q81 0 144 56l51 290q-42 51 -116 51q-70 0 -125.5 -64.5t-55.5 -188.5zM283 733h65q-7 -38 8 -61.5t51 -23.5q69 0 86 85h68q-14 -78 -60 -119t-108 -41t-93 41t-17 119z" />
<glyph unicode="&#x120;" horiz-adv-x="673" d="M96 260q0 200 106.5 327.5t269.5 127.5q105 0 167 -58.5t58 -169.5h-111q2 75 -32.5 113.5t-95.5 38.5q-106 0 -179.5 -98.5t-73.5 -267.5q0 -104 41 -158t107 -54q96 0 185 76l25 140h-165l13 74h263l-62 -351h-98l12 67q-41 -36 -98.5 -59t-110.5 -23q-107 0 -164 73.5 t-57 201.5zM410 818q0 28 22.5 48.5t51.5 20.5q23 0 38 -14.5t15 -37.5q0 -28 -22.5 -49t-51.5 -21q-23 0 -38 15t-15 38z" />
<glyph unicode="&#x121;" horiz-adv-x="577" d="M47 -54h98q-6 -53 21 -78t83 -25q57 0 100.5 36t57.5 115l11 63q-82 -70 -176 -70q-70 0 -114 52.5t-44 154.5q0 84 25.5 150.5t67 106.5t90 60.5t99.5 20.5q85 0 125 -61l8 46h94l-91 -511q-20 -113 -91.5 -171t-173.5 -58q-100 0 -150.5 45t-39.5 124zM183 205 q0 -73 28.5 -108.5t73.5 -35.5q81 0 144 56l51 290q-42 51 -116 51q-70 0 -125.5 -64.5t-55.5 -188.5zM321 653q0 28 22.5 49t51.5 21q23 0 37.5 -15.5t14.5 -38.5q0 -28 -22 -49t-51 -21q-23 0 -38 15.5t-15 38.5z" />
<glyph unicode="&#x122;" horiz-adv-x="673" d="M96 260q0 200 106.5 327.5t269.5 127.5q105 0 167 -58.5t58 -169.5h-111q2 75 -32.5 113.5t-95.5 38.5q-106 0 -179.5 -98.5t-73.5 -267.5q0 -104 41 -158t107 -54q96 0 185 76l25 140h-165l13 74h263l-62 -351h-98l12 67q-41 -36 -98.5 -59t-110.5 -23q-107 0 -164 73.5 t-57 201.5zM239 -248l53 183h90l-74 -183h-69z" />
<glyph unicode="&#x123;" horiz-adv-x="577" d="M47 -54h98q-6 -53 21 -78t83 -25q57 0 100.5 36t57.5 115l11 63q-82 -70 -176 -70q-70 0 -114 52.5t-44 154.5q0 84 25.5 150.5t67 106.5t90 60.5t99.5 20.5q85 0 125 -61l8 46h94l-91 -511q-20 -113 -91.5 -171t-173.5 -58q-100 0 -150.5 45t-39.5 124zM183 205 q0 -73 28.5 -108.5t73.5 -35.5q81 0 144 56l51 290q-42 51 -116 51q-70 0 -125.5 -64.5t-55.5 -188.5zM321 584l74 183h69l-53 -183h-90z" />
<glyph unicode="&#x124;" horiz-adv-x="726" d="M85 0l123 700h100l-51 -293h351l52 293h99l-123 -700h-99l58 330h-352l-58 -330h-100zM300 752l172 140h90l124 -140h-90l-90 68l-112 -68h-94z" />
<glyph unicode="&#x125;" horiz-adv-x="592" d="M64 782l172 140h90l124 -140h-90l-90 68l-112 -68h-94zM75 0l131 744h94l-52 -294q94 82 196 82q71 0 108.5 -41t22.5 -128l-64 -363h-94l61 343q21 113 -83 113q-38 0 -82.5 -19.5t-74.5 -45.5l4 23l-73 -414h-94z" />
<glyph unicode="&#x126;" horiz-adv-x="726" d="M85 0l91 517h-78l13 77h78l19 106h100l-19 -106h352l19 106h99l-19 -106h79l-14 -77h-78l-91 -517h-99l57 324h-352l-57 -324h-100zM255 400h352l21 117h-352z" />
<glyph unicode="&#x127;" horiz-adv-x="592" d="M75 0l107 606h-78l12 71h78l12 67h94l-12 -67h124l-12 -71h-124l-28 -156q94 82 196 82q71 0 108.5 -41t22.5 -128l-64 -363h-94l61 343q21 113 -83 113q-38 0 -82.5 -19.5t-74.5 -45.5l4 23l-73 -414h-94z" />
<glyph unicode="&#x128;" horiz-adv-x="275" d="M85 0l123 700h100l-123 -700h-100zM96 795q27 46 61 70t66 24q30 0 76.5 -23t59.5 -23q33 0 61 42l48 -26q-26 -46 -59.5 -69.5t-66.5 -23.5q-29 0 -75.5 23t-60.5 23q-32 0 -62 -43z" />
<glyph unicode="&#x129;" horiz-adv-x="249" d="M62 619q27 46 62 70t65 24t67.5 -23t50.5 -23q31 0 59 42l48 -26q-25 -45 -60 -69t-65 -24t-68 23t-52 23q-28 0 -59 -43zM75 0l92 517h93l-91 -517h-94z" />
<glyph unicode="&#x12a;" horiz-adv-x="275" d="M85 0l123 700h100l-123 -700h-100zM154 785l13 71h240l-12 -71h-241z" />
<glyph unicode="&#x12b;" horiz-adv-x="249" d="M75 0l92 517h93l-91 -517h-94zM121 612l12 71h219l-12 -71h-219z" />
<glyph unicode="&#x12c;" horiz-adv-x="275" d="M85 0l123 700h100l-123 -700h-100zM144 892h67q-5 -31 13 -50.5t57 -19.5q40 0 63 19.5t28 50.5h71q-12 -71 -60 -109.5t-116 -38.5t-101.5 38.5t-21.5 109.5z" />
<glyph unicode="&#x12d;" horiz-adv-x="249" d="M75 0l92 517h93l-91 -517h-94zM113 733h65q-7 -38 8 -61.5t51 -23.5q69 0 86 85h68q-14 -78 -60 -119t-108 -41t-93 41t-17 119z" />
<glyph unicode="&#x12e;" horiz-adv-x="275" d="M-44 -164q0 93 140 164h-11l123 700h100l-123 -700q-147 -69 -147 -145q0 -19 12 -30t30 -11q34 0 76 22l-10 -60q-48 -24 -100 -24q-42 0 -66 23.5t-24 60.5z" />
<glyph unicode="&#x12f;" horiz-adv-x="249" d="M-60 -164q0 93 140 164h-5l92 517h93l-91 -517q-147 -69 -147 -145q0 -19 12 -30t30 -11q34 0 76 22l-10 -60q-48 -24 -100 -24q-42 0 -66 23.5t-24 60.5zM176 653q0 28 22.5 49t51.5 21q22 0 36.5 -15.5t14.5 -38.5q0 -28 -22 -49t-51 -21q-23 0 -37.5 15.5t-14.5 38.5z " />
<glyph unicode="&#x130;" horiz-adv-x="275" d="M85 0l123 700h100l-123 -700h-100zM218 818q0 28 22.5 48.5t51.5 20.5q23 0 38 -14.5t15 -37.5q0 -28 -22.5 -49t-51.5 -21q-23 0 -38 15t-15 38z" />
<glyph unicode="&#x131;" horiz-adv-x="249" d="M75 0l92 517h93l-91 -517h-94z" />
<glyph unicode="&#x132;" horiz-adv-x="840" d="M85 0l123 700h100l-123 -700h-100zM341 224h105q-12 -89 12 -126.5t83 -37.5q57 0 98 32t53 95l90 513h99l-86 -493q-20 -112 -93.5 -167t-173.5 -55q-99 0 -152.5 57t-34.5 182z" />
<glyph unicode="&#x133;" horiz-adv-x="499" d="M75 0l92 517h93l-91 -517h-94zM176 653q0 28 22.5 49t51.5 21q22 0 36.5 -15.5t14.5 -38.5q0 -28 -22 -49t-51 -21q-23 0 -37.5 15.5t-14.5 38.5zM288 -208l128 725h93l-128 -725h-93zM425 653q0 28 22.5 49t51.5 21q22 0 36.5 -15.5t14.5 -38.5q0 -28 -22 -49t-51 -21 q-23 0 -37.5 15.5t-14.5 38.5z" />
<glyph unicode="&#x134;" horiz-adv-x="565" d="M66 224h105q-12 -89 12 -126.5t83 -37.5q57 0 98 32t53 95l90 513h99l-86 -493q-20 -112 -93.5 -167t-173.5 -55q-99 0 -152.5 57t-34.5 182zM374 752l172 140h90l124 -140h-90l-90 68l-112 -68h-94z" />
<glyph unicode="&#x135;" horiz-adv-x="249" d="M39 -208l128 725h93l-128 -725h-93zM62 582l138 151h104l83 -151h-78l-67 86l-97 -86h-83z" />
<glyph unicode="&#x136;" horiz-adv-x="615" d="M85 0l123 700h100l-58 -331l309 331h111l-318 -331l234 -369h-120l-218 361l-63 -361h-100zM177 -248l53 183h90l-74 -183h-69z" />
<glyph unicode="&#x137;" horiz-adv-x="507" d="M75 0l131 744h94l-82 -465l247 238h107l-258 -240l188 -277h-109l-176 271l-48 -271h-94zM129 -248l53 183h90l-74 -183h-69z" />
<glyph unicode="&#x138;" horiz-adv-x="507" d="M75 0l92 517h93l-42 -238l247 238h107l-258 -240l188 -277h-109l-176 271l-48 -271h-94z" />
<glyph unicode="&#x139;" horiz-adv-x="518" d="M85 0l123 700h100l-110 -624h278l-14 -76h-377zM178 752l152 140h136l-195 -140h-93z" />
<glyph unicode="&#x13a;" horiz-adv-x="249" d="M75 0l131 744h94l-131 -744h-94zM173 782l152 140h136l-195 -140h-93z" />
<glyph unicode="&#x13b;" horiz-adv-x="518" d="M85 0l123 700h100l-110 -624h278l-14 -76h-377zM155 -248l53 183h90l-74 -183h-69z" />
<glyph unicode="&#x13c;" horiz-adv-x="249" d="M19 -248l53 183h90l-74 -183h-69zM75 0l131 744h94l-131 -744h-94z" />
<glyph unicode="&#x13d;" horiz-adv-x="518" d="M85 0l123 700h100l-110 -624h278l-14 -76h-377zM345 580l40 223h88l-60 -223h-68z" />
<glyph unicode="&#x13e;" horiz-adv-x="249" d="M75 0l131 744h94l-131 -744h-94zM331 580l40 223h88l-60 -223h-68z" />
<glyph unicode="&#x13f;" horiz-adv-x="518" d="M85 0l123 700h100l-110 -624h278l-14 -76h-377zM330 355q0 32 23.5 54t55.5 22q25 0 40 -15.5t15 -40.5q0 -32 -23.5 -54t-54.5 -22q-25 0 -40.5 15.5t-15.5 40.5z" />
<glyph unicode="&#x140;" horiz-adv-x="305" d="M75 0l131 744h94l-131 -744h-94zM271 355q0 32 23.5 54t55.5 22q25 0 40 -15.5t15 -40.5q0 -32 -23.5 -54t-54.5 -22q-25 0 -40.5 15.5t-15.5 40.5z" />
<glyph unicode="&#x141;" horiz-adv-x="518" d="M34 218l15 87l99 52l60 343h100l-50 -284l157 83l-16 -87l-156 -83l-45 -253h278l-14 -76h-377l48 270z" />
<glyph unicode="&#x142;" horiz-adv-x="249" d="M41 261l14 79l88 47l63 357h94l-53 -303l90 48l-14 -80l-90 -47l-64 -362h-94l54 307z" />
<glyph unicode="&#x143;" horiz-adv-x="715" d="M85 0l123 700h106l247 -562l19 126l77 436h90l-123 -700h-105l-247 562l-20 -126l-76 -436h-91zM387 752l152 140h136l-195 -140h-93z" />
<glyph unicode="&#x144;" horiz-adv-x="591" d="M75 0l92 517h93l-12 -67q94 82 196 82q71 0 108.5 -41t22.5 -128l-64 -363h-94l61 343q21 113 -83 113q-38 0 -82.5 -19.5t-74.5 -45.5l5 27l-74 -418h-94zM293 582l126 151h126l-168 -151h-84z" />
<glyph unicode="&#x145;" horiz-adv-x="715" d="M85 0l123 700h106l247 -562l19 126l77 436h90l-123 -700h-105l-247 562l-20 -126l-76 -436h-91zM247 -248l53 183h90l-74 -183h-69z" />
<glyph unicode="&#x146;" horiz-adv-x="591" d="M75 0l92 517h93l-12 -67q94 82 196 82q71 0 108.5 -41t22.5 -128l-64 -363h-94l61 343q21 113 -83 113q-38 0 -82.5 -19.5t-74.5 -45.5l5 27l-74 -418h-94zM184 -248l53 183h90l-74 -183h-69z" />
<glyph unicode="&#x147;" horiz-adv-x="715" d="M85 0l123 700h106l247 -562l19 126l77 436h90l-123 -700h-105l-247 562l-20 -126l-76 -436h-91zM319 892h90l89 -68l113 68h94l-172 -140h-90z" />
<glyph unicode="&#x148;" horiz-adv-x="591" d="M75 0l92 517h93l-12 -67q94 82 196 82q71 0 108.5 -41t22.5 -128l-64 -363h-94l61 343q21 113 -83 113q-38 0 -82.5 -19.5t-74.5 -45.5l5 27l-74 -418h-94zM250 733h78l67 -86l97 86h83l-139 -151h-103z" />
<glyph unicode="&#x14a;" horiz-adv-x="715" d="M85 0l123 700h106l247 -562l19 126l77 436h90l-123 -700q-11 -62 -37.5 -107.5t-63.5 -69.5t-76.5 -35t-84.5 -11q-48 0 -76 17l12 70q41 -12 77 -12q63 0 100.5 29t50.5 103l-254 578l-20 -126l-76 -436h-91z" />
<glyph unicode="&#x14b;" horiz-adv-x="591" d="M75 0l92 517h93l-12 -67q94 82 196 82q71 0 108.5 -41t22.5 -128l-101 -571h-94l98 551q21 113 -83 113q-38 0 -82.5 -19.5t-74.5 -45.5l5 27l-74 -418h-94z" />
<glyph unicode="&#x14c;" horiz-adv-x="735" d="M98 276q0 192 110.5 315.5t282.5 123.5q125 0 194.5 -78.5t69.5 -212.5q0 -192 -110.5 -315.5t-282.5 -123.5q-125 0 -194.5 78.5t-69.5 212.5zM205 276q0 -105 46.5 -160t124.5 -55q118 0 195.5 98t77.5 265q0 105 -46.5 160t-125.5 55q-117 0 -194.5 -98.5 t-77.5 -264.5zM345 785l12 71h318l-13 -71h-317z" />
<glyph unicode="&#x14d;" horiz-adv-x="581" d="M85 203q0 143 81.5 236t215.5 93q96 0 148.5 -58.5t52.5 -158.5q0 -143 -82 -236.5t-216 -93.5q-96 0 -148 59t-52 159zM183 201q0 -74 30.5 -112t84.5 -38q81 0 134 69.5t53 196.5q0 73 -31 111.5t-84 38.5q-82 0 -134.5 -69.5t-52.5 -196.5zM248 612l12 71h296l-12 -71 h-296z" />
<glyph unicode="&#x14e;" horiz-adv-x="735" d="M98 276q0 192 110.5 315.5t282.5 123.5q125 0 194.5 -78.5t69.5 -212.5q0 -192 -110.5 -315.5t-282.5 -123.5q-125 0 -194.5 78.5t-69.5 212.5zM205 276q0 -105 46.5 -160t124.5 -55q118 0 195.5 98t77.5 265q0 105 -46.5 160t-125.5 55q-117 0 -194.5 -98.5 t-77.5 -264.5zM372 892h67q-5 -31 13 -50.5t57 -19.5q40 0 63 19.5t28 50.5h71q-12 -71 -60 -109.5t-116 -38.5t-101.5 38.5t-21.5 109.5z" />
<glyph unicode="&#x14f;" horiz-adv-x="581" d="M85 203q0 143 81.5 236t215.5 93q96 0 148.5 -58.5t52.5 -158.5q0 -143 -82 -236.5t-216 -93.5q-96 0 -148 59t-52 159zM183 201q0 -74 30.5 -112t84.5 -38q81 0 134 69.5t53 196.5q0 73 -31 111.5t-84 38.5q-82 0 -134.5 -69.5t-52.5 -196.5zM278 733h65q-7 -38 8 -61.5 t51 -23.5q69 0 86 85h68q-14 -78 -60 -119t-108 -41t-93 41t-17 119z" />
<glyph unicode="&#x150;" horiz-adv-x="735" d="M98 276q0 192 110.5 315.5t282.5 123.5q125 0 194.5 -78.5t69.5 -212.5q0 -192 -110.5 -315.5t-282.5 -123.5q-125 0 -194.5 78.5t-69.5 212.5zM205 276q0 -105 46.5 -160t124.5 -55q118 0 195.5 98t77.5 265q0 105 -46.5 160t-125.5 55q-117 0 -194.5 -98.5 t-77.5 -264.5zM320 752l133 140h126l-174 -140h-85zM504 752l133 140h127l-175 -140h-85z" />
<glyph unicode="&#x151;" horiz-adv-x="581" d="M85 203q0 143 81.5 236t215.5 93q96 0 148.5 -58.5t52.5 -158.5q0 -143 -82 -236.5t-216 -93.5q-96 0 -148 59t-52 159zM183 201q0 -74 30.5 -112t84.5 -38q81 0 134 69.5t53 196.5q0 73 -31 111.5t-84 38.5q-82 0 -134.5 -69.5t-52.5 -196.5zM245 582l108 151h114 l-143 -151h-79zM405 582l108 151h114l-143 -151h-79z" />
<glyph unicode="&#x152;" horiz-adv-x="941" d="M99 285q0 188 118.5 301.5t307.5 113.5h487l-12 -76h-311l-39 -217h291l-13 -77h-291l-45 -254h311l-14 -76h-487q-142 0 -222.5 75.5t-80.5 209.5zM206 288q0 -108 56.5 -160t153.5 -52h77l96 548h-77q-135 0 -220.5 -84t-85.5 -252z" />
<glyph unicode="&#x153;" horiz-adv-x="931" d="M85 203q0 143 81.5 236t215.5 93q131 0 174 -105q37 50 90 77.5t107 27.5q114 0 158.5 -74.5t12.5 -208.5h-352q-3 -27 -3 -56q0 -142 100 -142q93 0 128 93h100q-20 -68 -87.5 -113.5t-152.5 -45.5q-128 0 -164 101q-77 -101 -208 -101q-96 0 -148 59t-52 159zM183 201 q0 -74 30.5 -112t84.5 -38q81 0 134 69.5t53 196.5q0 73 -31 111.5t-84 38.5q-80 0 -133.5 -70t-53.5 -196zM583 311h250q13 76 -12 116t-80 40q-54 0 -96.5 -40t-61.5 -116z" />
<glyph unicode="&#x154;" horiz-adv-x="612" d="M85 0l123 700h213q93 0 154 -44.5t61 -133.5q0 -99 -57 -159t-147 -80l152 -283h-115l-134 274h-102l-48 -274h-100zM246 349h113q79 0 126.5 41t47.5 125q0 109 -125 109h-113zM306 752l152 140h136l-195 -140h-93z" />
<glyph unicode="&#x155;" horiz-adv-x="401" d="M75 0l92 517h93l-16 -90q83 105 167 105q38 0 58 -25l-14 -77q-37 16 -67 16q-43 0 -86 -27.5t-71 -65.5l-62 -353h-94zM216 582l126 151h126l-168 -151h-84z" />
<glyph unicode="&#x156;" horiz-adv-x="612" d="M85 0l123 700h213q93 0 154 -44.5t61 -133.5q0 -99 -57 -159t-147 -80l152 -283h-115l-134 274h-102l-48 -274h-100zM188 -248l53 183h90l-74 -183h-69zM246 349h113q79 0 126.5 41t47.5 125q0 109 -125 109h-113z" />
<glyph unicode="&#x157;" horiz-adv-x="401" d="M17 -248l53 183h90l-74 -183h-69zM75 0l92 517h93l-16 -90q83 105 167 105q38 0 58 -25l-14 -77q-37 16 -67 16q-43 0 -86 -27.5t-71 -65.5l-62 -353h-94z" />
<glyph unicode="&#x158;" horiz-adv-x="612" d="M85 0l123 700h213q93 0 154 -44.5t61 -133.5q0 -99 -57 -159t-147 -80l152 -283h-115l-134 274h-102l-48 -274h-100zM240 892h90l89 -68l113 68h94l-172 -140h-90zM246 349h113q79 0 126.5 41t47.5 125q0 109 -125 109h-113z" />
<glyph unicode="&#x159;" horiz-adv-x="401" d="M75 0l92 517h93l-16 -90q83 105 167 105q38 0 58 -25l-14 -77q-37 16 -67 16q-43 0 -86 -27.5t-71 -65.5l-62 -353h-94zM176 733h78l67 -86l97 86h83l-139 -151h-103z" />
<glyph unicode="&#x15a;" horiz-adv-x="601" d="M83 207h105q-7 -78 29.5 -112t100.5 -34q72 0 121.5 38t49.5 107q0 23 -9 40.5t-21 28t-35 19.5t-38.5 13t-45.5 10q-41 9 -70.5 19.5t-61.5 29.5t-49 50t-17 73q0 101 80 163.5t197 62.5q111 0 170 -55.5t46 -156.5h-106q6 71 -28 103.5t-95 32.5q-71 0 -116 -32.5 t-45 -98.5q0 -22 9 -39.5t19.5 -27t34.5 -19t37.5 -13t44.5 -10.5q33 -7 56.5 -14t53.5 -21t48.5 -31t31.5 -44.5t13 -61.5q0 -104 -86.5 -173t-202.5 -69q-112 0 -174 57.5t-47 164.5zM312 752l152 140h136l-195 -140h-93z" />
<glyph unicode="&#x15b;" horiz-adv-x="510" d="M71 147h98q-1 -48 23.5 -72.5t81.5 -24.5q52 0 88 26.5t36 72.5q0 16 -8 28.5t-17 20t-28.5 14t-30 8.5t-34.5 7q-28 6 -46 10.5t-43.5 15t-40.5 23t-26 33.5t-11 48q0 81 64.5 128t165.5 47q90 0 135.5 -38.5t37.5 -108.5h-98q3 82 -91 82q-53 0 -87 -23t-34 -65 q0 -16 7.5 -28.5t15 -19t27.5 -13t28 -8.5t34 -7q29 -6 47 -10.5t44.5 -15t42 -23t27 -33.5t11.5 -48q0 -81 -67.5 -134.5t-165.5 -53.5q-99 0 -146.5 43.5t-39.5 118.5zM252 582l126 151h126l-168 -151h-84z" />
<glyph unicode="&#x15c;" horiz-adv-x="601" d="M83 207h105q-7 -78 29.5 -112t100.5 -34q72 0 121.5 38t49.5 107q0 23 -9 40.5t-21 28t-35 19.5t-38.5 13t-45.5 10q-41 9 -70.5 19.5t-61.5 29.5t-49 50t-17 73q0 101 80 163.5t197 62.5q111 0 170 -55.5t46 -156.5h-106q6 71 -28 103.5t-95 32.5q-71 0 -116 -32.5 t-45 -98.5q0 -22 9 -39.5t19.5 -27t34.5 -19t37.5 -13t44.5 -10.5q33 -7 56.5 -14t53.5 -21t48.5 -31t31.5 -44.5t13 -61.5q0 -104 -86.5 -173t-202.5 -69q-112 0 -174 57.5t-47 164.5zM240 752l172 140h90l124 -140h-90l-90 68l-112 -68h-94z" />
<glyph unicode="&#x15d;" horiz-adv-x="510" d="M71 147h98q-1 -48 23.5 -72.5t81.5 -24.5q52 0 88 26.5t36 72.5q0 16 -8 28.5t-17 20t-28.5 14t-30 8.5t-34.5 7q-28 6 -46 10.5t-43.5 15t-40.5 23t-26 33.5t-11 48q0 81 64.5 128t165.5 47q90 0 135.5 -38.5t37.5 -108.5h-98q3 82 -91 82q-53 0 -87 -23t-34 -65 q0 -16 7.5 -28.5t15 -19t27.5 -13t28 -8.5t34 -7q29 -6 47 -10.5t44.5 -15t42 -23t27 -33.5t11.5 -48q0 -81 -67.5 -134.5t-165.5 -53.5q-99 0 -146.5 43.5t-39.5 118.5zM191 582l138 151h104l83 -151h-78l-67 86l-97 -86h-83z" />
<glyph unicode="&#x15e;" horiz-adv-x="601" d="M83 207h105q-7 -78 29.5 -112t100.5 -34q72 0 121.5 38t49.5 107q0 23 -9 40.5t-21 28t-35 19.5t-38.5 13t-45.5 10q-41 9 -70.5 19.5t-61.5 29.5t-49 50t-17 73q0 101 80 163.5t197 62.5q111 0 170 -55.5t46 -156.5h-106q6 71 -28 103.5t-95 32.5q-71 0 -116 -32.5 t-45 -98.5q0 -22 9 -39.5t19.5 -27t34.5 -19t37.5 -13t44.5 -10.5q33 -7 56.5 -14t53.5 -21t48.5 -31t31.5 -44.5t13 -61.5q0 -100 -80.5 -168t-190.5 -74l-48 -51q42 3 70 -14.5t28 -55.5q0 -51 -43 -81.5t-98 -30.5q-41 0 -68 14l9 54q25 -13 62 -13q24 0 44 12t20 34 q0 17 -14.5 26t-34.5 9q-25 0 -43 -6l-14 34l67 72q-93 11 -141 67t-35 152z" />
<glyph unicode="&#x15f;" horiz-adv-x="510" d="M71 147h98q-1 -48 23.5 -72.5t81.5 -24.5q52 0 88 26.5t36 72.5q0 16 -8 28.5t-17 20t-28.5 14t-30 8.5t-34.5 7q-28 6 -46 10.5t-43.5 15t-40.5 23t-26 33.5t-11 48q0 81 64.5 128t165.5 47q90 0 135.5 -38.5t37.5 -108.5h-98q3 82 -91 82q-53 0 -87 -23t-34 -65 q0 -16 7.5 -28.5t15 -19t27.5 -13t28 -8.5t34 -7q29 -6 47 -10.5t44.5 -15t42 -23t27 -33.5t11.5 -48q0 -77 -61.5 -130t-154.5 -58l-48 -51q42 3 70 -14.5t28 -55.5q0 -51 -43 -81.5t-98 -30.5q-41 0 -68 14l9 54q25 -13 62 -13q24 0 44 12t20 34q0 17 -14.5 26t-34.5 9 q-25 0 -43 -6l-14 34l67 72q-76 10 -111.5 52t-28.5 107z" />
<glyph unicode="&#x160;" horiz-adv-x="601" d="M83 207h105q-7 -78 29.5 -112t100.5 -34q72 0 121.5 38t49.5 107q0 23 -9 40.5t-21 28t-35 19.5t-38.5 13t-45.5 10q-41 9 -70.5 19.5t-61.5 29.5t-49 50t-17 73q0 101 80 163.5t197 62.5q111 0 170 -55.5t46 -156.5h-106q6 71 -28 103.5t-95 32.5q-71 0 -116 -32.5 t-45 -98.5q0 -22 9 -39.5t19.5 -27t34.5 -19t37.5 -13t44.5 -10.5q33 -7 56.5 -14t53.5 -21t48.5 -31t31.5 -44.5t13 -61.5q0 -104 -86.5 -173t-202.5 -69q-112 0 -174 57.5t-47 164.5zM254 892h90l89 -68l113 68h94l-172 -140h-90z" />
<glyph unicode="&#x161;" horiz-adv-x="510" d="M71 147h98q-1 -48 23.5 -72.5t81.5 -24.5q52 0 88 26.5t36 72.5q0 16 -8 28.5t-17 20t-28.5 14t-30 8.5t-34.5 7q-28 6 -46 10.5t-43.5 15t-40.5 23t-26 33.5t-11 48q0 81 64.5 128t165.5 47q90 0 135.5 -38.5t37.5 -108.5h-98q3 82 -91 82q-53 0 -87 -23t-34 -65 q0 -16 7.5 -28.5t15 -19t27.5 -13t28 -8.5t34 -7q29 -6 47 -10.5t44.5 -15t42 -23t27 -33.5t11.5 -48q0 -81 -67.5 -134.5t-165.5 -53.5q-99 0 -146.5 43.5t-39.5 118.5zM210 733h78l67 -86l97 86h83l-139 -151h-103z" />
<glyph unicode="&#x162;" horiz-adv-x="542" d="M136 624l12 76h486l-13 -76h-193l-110 -624h-6l-61 -66q42 3 70 -14.5t28 -55.5q0 -51 -43 -81.5t-98 -30.5q-41 0 -68 14l9 54q25 -13 62 -13q24 0 44 12t20 34q0 17 -14.5 26t-34.5 9q-25 0 -43 -6l-14 34l78 84h-28l110 624h-193z" />
<glyph unicode="&#x163;" horiz-adv-x="383" d="M76 -234l9 54q25 -13 62 -13q24 0 44 12t20 34q0 17 -14.5 26t-34.5 9q-25 0 -43 -6l-14 34l74 79q-71 30 -54 126l58 331h-88l11 65h88l25 143h94l-25 -143h146l-12 -65h-145l-55 -312q-15 -85 54 -85q37 0 87 16l-11 -63q-49 -23 -117 -23h-1l-47 -51q42 3 70 -14.5 t28 -55.5q0 -51 -43 -81.5t-98 -30.5q-41 0 -68 14z" />
<glyph unicode="&#x164;" horiz-adv-x="542" d="M136 624l12 76h486l-13 -76h-193l-110 -624h-99l110 624h-193zM233 892h90l89 -68l113 68h94l-172 -140h-90z" />
<glyph unicode="&#x165;" horiz-adv-x="383" d="M95 452l11 65h88l25 143h94l-25 -143h146l-12 -65h-145l-55 -312q-15 -85 54 -85q37 0 87 16l-11 -63q-49 -23 -117 -23q-60 0 -91 35t-19 101l58 331h-88zM350 580l40 223h88l-60 -223h-68z" />
<glyph unicode="&#x166;" horiz-adv-x="542" d="M136 624l12 76h486l-13 -76h-193l-42 -238h137l-14 -77h-137l-54 -309h-99l54 309h-134l13 77h135l42 238h-193z" />
<glyph unicode="&#x167;" horiz-adv-x="383" d="M73 268l12 71h78l20 113h-88l11 65h88l25 143h94l-25 -143h146l-12 -65h-145l-20 -113h124l-12 -71h-125l-22 -128q-15 -85 54 -85q37 0 87 16l-11 -63q-49 -23 -117 -23q-60 0 -91 35t-19 101l26 147h-78z" />
<glyph unicode="&#x168;" horiz-adv-x="707" d="M117 228l83 472h99l-79 -452q-16 -93 15.5 -140t123.5 -47q178 0 207 167l83 472h90l-79 -452q-22 -124 -106 -193.5t-209 -69.5q-126 0 -187 63.5t-41 179.5zM306 795q27 46 61 70t66 24q30 0 76.5 -23t59.5 -23q33 0 61 42l48 -26q-26 -46 -59.5 -69.5t-66.5 -23.5 q-29 0 -75.5 23t-60.5 23q-32 0 -62 -43z" />
<glyph unicode="&#x169;" horiz-adv-x="587" d="M103 155l64 362h93l-60 -342q-10 -58 9.5 -85.5t70.5 -27.5q38 0 81 18.5t74 45.5l69 391h94l-91 -517h-94l12 67q-96 -82 -193 -82q-71 0 -108 41.5t-21 128.5zM230 619q27 46 62 70t65 24t67.5 -23t50.5 -23q31 0 59 42l48 -26q-25 -45 -60 -69t-65 -24t-68 23t-52 23 q-28 0 -59 -43z" />
<glyph unicode="&#x16a;" horiz-adv-x="707" d="M117 228l83 472h99l-79 -452q-16 -93 15.5 -140t123.5 -47q178 0 207 167l83 472h90l-79 -452q-22 -124 -106 -193.5t-209 -69.5q-126 0 -187 63.5t-41 179.5zM326 785l12 71h318l-13 -71h-317z" />
<glyph unicode="&#x16b;" horiz-adv-x="587" d="M103 155l64 362h93l-60 -342q-10 -58 9.5 -85.5t70.5 -27.5q38 0 81 18.5t74 45.5l69 391h94l-91 -517h-94l12 67q-96 -82 -193 -82q-71 0 -108 41.5t-21 128.5zM251 612l12 71h296l-12 -71h-296z" />
<glyph unicode="&#x16c;" horiz-adv-x="707" d="M117 228l83 472h99l-79 -452q-16 -93 15.5 -140t123.5 -47q178 0 207 167l83 472h90l-79 -452q-22 -124 -106 -193.5t-209 -69.5q-126 0 -187 63.5t-41 179.5zM354 892h67q-5 -31 13 -50.5t57 -19.5q40 0 63 19.5t28 50.5h71q-12 -71 -60 -109.5t-116 -38.5t-101.5 38.5 t-21.5 109.5z" />
<glyph unicode="&#x16d;" horiz-adv-x="587" d="M103 155l64 362h93l-60 -342q-10 -58 9.5 -85.5t70.5 -27.5q38 0 81 18.5t74 45.5l69 391h94l-91 -517h-94l12 67q-96 -82 -193 -82q-71 0 -108 41.5t-21 128.5zM281 733h65q-7 -38 8 -61.5t51 -23.5q69 0 86 85h68q-14 -78 -60 -119t-108 -41t-93 41t-17 119z" />
<glyph unicode="&#x16e;" horiz-adv-x="707" d="M117 228l83 472h99l-79 -452q-16 -93 15.5 -140t123.5 -47q178 0 207 167l83 472h90l-79 -452q-22 -124 -106 -193.5t-209 -69.5q-126 0 -187 63.5t-41 179.5zM376 806q0 50 38.5 81t92.5 31q43 0 70 -22.5t27 -60.5q0 -50 -38.5 -80.5t-92.5 -30.5q-43 0 -70 22t-27 60z M447 806q6 -33 42 -26q22 2 34.5 17t9.5 38q-6 33 -42 26q-22 -2 -34 -16.5t-10 -38.5z" />
<glyph unicode="&#x16f;" horiz-adv-x="587" d="M103 155l64 362h93l-60 -342q-10 -58 9.5 -85.5t70.5 -27.5q38 0 81 18.5t74 45.5l69 391h94l-91 -517h-94l12 67q-96 -82 -193 -82q-71 0 -108 41.5t-21 128.5zM292 642q0 50 38 80.5t93 30.5q43 0 70.5 -22t27.5 -60q0 -49 -38.5 -79.5t-92.5 -30.5q-44 0 -71 21.5 t-27 59.5zM363 643q8 -32 43 -27q21 2 33.5 16.5t9.5 38.5q-6 32 -42 27q-22 -2 -34 -17t-10 -38z" />
<glyph unicode="&#x170;" horiz-adv-x="707" d="M117 228l83 472h99l-79 -452q-16 -93 15.5 -140t123.5 -47q178 0 207 167l83 472h90l-79 -452q-22 -124 -106 -193.5t-209 -69.5q-126 0 -187 63.5t-41 179.5zM301 752l133 140h126l-174 -140h-85zM485 752l133 140h127l-175 -140h-85z" />
<glyph unicode="&#x171;" horiz-adv-x="587" d="M103 155l64 362h93l-60 -342q-10 -58 9.5 -85.5t70.5 -27.5q38 0 81 18.5t74 45.5l69 391h94l-91 -517h-94l12 67q-96 -82 -193 -82q-71 0 -108 41.5t-21 128.5zM247 582l108 151h114l-143 -151h-79zM407 582l108 151h114l-143 -151h-79z" />
<glyph unicode="&#x172;" horiz-adv-x="707" d="M117 228l83 472h99l-79 -452q-16 -93 15.5 -140t123.5 -47q178 0 207 167l83 472h90l-79 -452q-18 -100 -76.5 -165t-147.5 -87q-138 -67 -138 -141q0 -19 12 -30t30 -11q34 0 76 22l-10 -60q-48 -24 -100 -24q-42 0 -66 23.5t-24 60.5q0 83 113 149q-118 5 -174.5 68 t-37.5 175z" />
<glyph unicode="&#x173;" horiz-adv-x="587" d="M103 155l64 362h93l-60 -342q-10 -58 9.5 -85.5t70.5 -27.5q38 0 81 18.5t74 45.5l69 391h94l-91 -517h-1q-147 -69 -147 -145q0 -19 12 -30t30 -11q34 0 76 22l-10 -60q-48 -24 -100 -24q-42 0 -66 23.5t-24 60.5q0 93 140 164h-4l12 67q-96 -82 -193 -82 q-71 0 -108 41.5t-21 128.5z" />
<glyph unicode="&#x174;" horiz-adv-x="913" d="M128 700h102l36 -447l9 -131l55 131l197 447h107l45 -447l11 -134l53 134l181 447h100l-303 -700h-104l-48 438l-11 135l-57 -135l-198 -438h-103zM393 752l172 140h90l124 -140h-90l-90 68l-112 -68h-94z" />
<glyph unicode="&#x175;" horiz-adv-x="789" d="M103 517h97l36 -285l13 -130l57 130l131 285h88l35 -285l15 -130l58 130l133 285h94l-259 -517h-88l-36 267l-15 130l-60 -130l-125 -267h-90zM330 582l138 151h104l83 -151h-78l-67 86l-97 -86h-83z" />
<glyph unicode="&#x176;" horiz-adv-x="589" d="M145 700h102l113 -359l224 359h100l-291 -442l-46 -258h-99l45 258zM232 752l172 140h90l124 -140h-90l-90 68l-112 -68h-94z" />
<glyph unicode="&#x177;" horiz-adv-x="505" d="M89 -208l121 213l-107 512h100l51 -272l19 -130l65 130l143 272h95l-399 -725h-88zM197 582l138 151h104l83 -151h-78l-67 86l-97 -86h-83z" />
<glyph unicode="&#x178;" horiz-adv-x="589" d="M145 700h102l113 -359l224 359h100l-291 -442l-46 -258h-99l45 258zM268 819q0 27 22.5 47.5t50.5 20.5q23 0 37.5 -14.5t14.5 -37.5q0 -28 -22 -48.5t-51 -20.5q-22 0 -37 15t-15 38zM483 818q0 28 22 48.5t51 20.5q22 0 37 -14.5t15 -37.5q0 -28 -22.5 -48.5 t-50.5 -20.5q-23 0 -37.5 15t-14.5 37z" />
<glyph unicode="&#x179;" horiz-adv-x="534" d="M38 0l14 76l437 548h-332l13 76h446l-12 -76l-437 -548h340l-14 -76h-455zM308 752l152 140h136l-195 -140h-93z" />
<glyph unicode="&#x17a;" horiz-adv-x="446" d="M38 0l12 66l331 386h-253l12 65h356l-12 -65l-330 -386h262l-12 -66h-366zM244 582l126 151h126l-168 -151h-84z" />
<glyph unicode="&#x17b;" horiz-adv-x="534" d="M38 0l14 76l437 548h-332l13 76h446l-12 -76l-437 -548h340l-14 -76h-455zM349 818q0 28 22.5 48.5t51.5 20.5q23 0 38 -14.5t15 -37.5q0 -28 -22.5 -49t-51.5 -21q-23 0 -38 15t-15 38z" />
<glyph unicode="&#x17c;" horiz-adv-x="446" d="M38 0l12 66l331 386h-253l12 65h356l-12 -65l-330 -386h262l-12 -66h-366zM275 653q0 28 22.5 49t51.5 21q23 0 37.5 -15.5t14.5 -38.5q0 -28 -22 -49t-51 -21q-23 0 -38 15.5t-15 38.5z" />
<glyph unicode="&#x17d;" horiz-adv-x="534" d="M38 0l14 76l437 548h-332l13 76h446l-12 -76l-437 -548h340l-14 -76h-455zM231 892h90l89 -68l113 68h94l-172 -140h-90z" />
<glyph unicode="&#x17e;" horiz-adv-x="446" d="M38 0l12 66l331 386h-253l12 65h356l-12 -65l-330 -386h262l-12 -66h-366zM191 733h78l67 -86l97 86h83l-139 -151h-103z" />
<glyph unicode="&#x17f;" horiz-adv-x="304" d="M101 0l107 608q27 151 186 151q49 0 78 -16l-11 -63q-37 10 -63 10q-81 0 -97 -82l-107 -608h-93z" />
<glyph unicode="&#x192;" horiz-adv-x="615" d="M-53 -39h106q-7 -108 77 -108q41 0 74.5 28t44.5 91l42 236h-159l13 76h159l40 223q17 97 82 152.5t151 55.5q91 0 135.5 -48t33.5 -136h-106q8 108 -77 108q-41 0 -74 -28.5t-44 -90.5l-41 -236h159l-14 -76h-159l-39 -223q-17 -97 -82.5 -152.5t-150.5 -55.5 q-91 0 -136 48t-35 136z" />
<glyph unicode="&#x1fc;" horiz-adv-x="941" d="M7 0l593 700h412l-13 -76h-311l-38 -217h291l-14 -77h-291l-44 -254h311l-14 -76h-410l33 190h-234l-157 -190h-114zM339 265h186l51 291l-98 -123zM637 752l152 140h136l-195 -140h-93z" />
<glyph unicode="&#x1fd;" horiz-adv-x="877" d="M65 100q0 75 68 132t212 57q32 0 84 -5l10 62q21 121 -79 121q-110 0 -136 -121h-98q16 88 84.5 137t162.5 49q117 0 150 -75q73 75 176 75q114 0 158.5 -74.5t12.5 -208.5h-352q-3 -27 -3 -56q0 -142 100 -142q93 0 128 93h100q-20 -68 -87.5 -113.5t-152.5 -45.5 q-133 0 -170 104q-111 -104 -234 -104q-62 0 -98 31.5t-36 83.5zM164 121q0 -63 81 -63q42 0 89 25.5t84 61.5q-3 38 1 79q-37 4 -78 4q-177 0 -177 -107zM392 582l126 151h126l-168 -151h-84zM529 311h250q13 76 -12 116t-80 40q-54 0 -96.5 -40t-61.5 -116z" />
<glyph unicode="&#x218;" horiz-adv-x="601" d="M83 207h105q-7 -78 29.5 -112t100.5 -34q72 0 121.5 38t49.5 107q0 23 -9 40.5t-21 28t-35 19.5t-38.5 13t-45.5 10q-41 9 -70.5 19.5t-61.5 29.5t-49 50t-17 73q0 101 80 163.5t197 62.5q111 0 170 -55.5t46 -156.5h-106q6 71 -28 103.5t-95 32.5q-71 0 -116 -32.5 t-45 -98.5q0 -22 9 -39.5t19.5 -27t34.5 -19t37.5 -13t44.5 -10.5q33 -7 56.5 -14t53.5 -21t48.5 -31t31.5 -44.5t13 -61.5q0 -104 -86.5 -173t-202.5 -69q-112 0 -174 57.5t-47 164.5zM192 -248l53 183h90l-74 -183h-69z" />
<glyph unicode="&#x219;" horiz-adv-x="510" d="M71 147h98q-1 -48 23.5 -72.5t81.5 -24.5q52 0 88 26.5t36 72.5q0 16 -8 28.5t-17 20t-28.5 14t-30 8.5t-34.5 7q-28 6 -46 10.5t-43.5 15t-40.5 23t-26 33.5t-11 48q0 81 64.5 128t165.5 47q90 0 135.5 -38.5t37.5 -108.5h-98q3 82 -91 82q-53 0 -87 -23t-34 -65 q0 -16 7.5 -28.5t15 -19t27.5 -13t28 -8.5t34 -7q29 -6 47 -10.5t44.5 -15t42 -23t27 -33.5t11.5 -48q0 -81 -67.5 -134.5t-165.5 -53.5q-99 0 -146.5 43.5t-39.5 118.5zM154 -248l53 183h90l-74 -183h-69z" />
<glyph unicode="&#x21a;" horiz-adv-x="542" d="M136 624l12 76h486l-13 -76h-193l-110 -624h-99l110 624h-193zM160 -248l53 183h90l-74 -183h-69z" />
<glyph unicode="&#x21b;" horiz-adv-x="383" d="M87 -248l53 183h90l-74 -183h-69zM95 452l11 65h88l25 143h94l-25 -143h146l-12 -65h-145l-55 -312q-15 -85 54 -85q37 0 87 16l-11 -63q-49 -23 -117 -23q-60 0 -91 35t-19 101l58 331h-88z" />
<glyph unicode="&#x2c6;" horiz-adv-x="425" d="M152 582l138 151h104l83 -151h-78l-67 86l-97 -86h-83z" />
<glyph unicode="&#x2c7;" horiz-adv-x="425" d="M180 733h78l67 -86l97 86h83l-139 -151h-103z" />
<glyph unicode="&#x2d8;" horiz-adv-x="379" d="M180 733h65q-7 -38 8 -61.5t51 -23.5q69 0 86 85h68q-14 -78 -60 -119t-108 -41t-93 41t-17 119z" />
<glyph unicode="&#x2d9;" horiz-adv-x="225" d="M166 653q0 28 22.5 49t51.5 21q23 0 37.5 -15.5t14.5 -38.5q0 -28 -22 -49t-51 -21q-23 0 -38 15.5t-15 38.5z" />
<glyph unicode="&#x2da;" horiz-adv-x="325" d="M164 642q0 50 38 80.5t93 30.5q43 0 70.5 -22t27.5 -60q0 -49 -38.5 -79.5t-92.5 -30.5q-44 0 -71 21.5t-27 59.5zM235 643q8 -32 43 -27q21 2 33.5 16.5t9.5 38.5q-6 32 -42 27q-22 -2 -34 -17t-10 -38z" />
<glyph unicode="&#x2db;" horiz-adv-x="301" d="M22 -164q0 93 140 164h89q-147 -69 -147 -145q0 -19 12 -30t30 -11q34 0 76 22l-10 -60q-48 -24 -100 -24q-42 0 -66 23.5t-24 60.5z" />
<glyph unicode="&#x2dc;" horiz-adv-x="441" d="M159 619q27 46 62 70t65 24t67.5 -23t50.5 -23q31 0 59 42l48 -26q-25 -45 -60 -69t-65 -24t-68 23t-52 23q-28 0 -59 -43z" />
<glyph unicode="&#x2dd;" horiz-adv-x="454" d="M152 582l108 151h114l-143 -151h-79zM312 582l108 151h114l-143 -151h-79z" />
<glyph unicode="&#x326;" horiz-adv-x="0" d="M-205 -248l53 183h90l-74 -183h-69z" />
<glyph unicode="&#x3c0;" horiz-adv-x="591" d="M75 0l92 517h435l-91 -517h-94l80 452h-248l-80 -452h-94z" />
<glyph unicode="&#xe3f;" horiz-adv-x="624" d="M85 0l123 700h169l21 120h90l-21 -122q78 -6 126.5 -41t48.5 -106q0 -64 -43.5 -118t-102.5 -69q53 -7 86 -39t33 -90q0 -105 -76.5 -167.5t-195.5 -67.5l-21 -120h-90l21 120h-168zM198 76h69l42 239h-69zM254 390h68l41 234h-68zM357 76q78 4 116 44.5t38 104.5 q0 83 -112 90zM413 393q57 10 90.5 48t33.5 97q0 73 -84 84z" />
<glyph unicode="&#x1e80;" horiz-adv-x="913" d="M128 700h102l36 -447l9 -131l55 131l197 447h107l45 -447l11 -134l53 134l181 447h100l-303 -700h-104l-48 438l-11 135l-57 -135l-198 -438h-103zM455 892h126l114 -140h-85z" />
<glyph unicode="&#x1e81;" horiz-adv-x="789" d="M103 517h97l36 -285l13 -130l57 130l131 285h88l35 -285l15 -130l58 130l133 285h94l-259 -517h-88l-36 267l-15 130l-60 -130l-125 -267h-90zM375 733h115l81 -151h-77z" />
<glyph unicode="&#x1e82;" horiz-adv-x="913" d="M128 700h102l36 -447l9 -131l55 131l197 447h107l45 -447l11 -134l53 134l181 447h100l-303 -700h-104l-48 438l-11 135l-57 -135l-198 -438h-103zM477 752l152 140h136l-195 -140h-93z" />
<glyph unicode="&#x1e83;" horiz-adv-x="789" d="M103 517h97l36 -285l13 -130l57 130l131 285h88l35 -285l15 -130l58 130l133 285h94l-259 -517h-88l-36 267l-15 130l-60 -130l-125 -267h-90zM413 582l126 151h126l-168 -151h-84z" />
<glyph unicode="&#x1e84;" horiz-adv-x="913" d="M128 700h102l36 -447l9 -131l55 131l197 447h107l45 -447l11 -134l53 134l181 447h100l-303 -700h-104l-48 438l-11 135l-57 -135l-198 -438h-103zM429 819q0 27 22.5 47.5t50.5 20.5q22 0 37 -14.5t15 -37.5q0 -28 -22 -48.5t-51 -20.5q-22 0 -37 15t-15 38zM644 818 q0 28 22 48.5t51 20.5q23 0 37.5 -14.5t14.5 -37.5q0 -28 -22.5 -48.5t-50.5 -20.5q-23 0 -37.5 15t-14.5 37z" />
<glyph unicode="&#x1e85;" horiz-adv-x="789" d="M103 517h97l36 -285l13 -130l57 130l131 285h88l35 -285l15 -130l58 130l133 285h94l-259 -517h-88l-36 267l-15 130l-60 -130l-125 -267h-90zM350 653q0 28 22 48.5t51 20.5q22 0 37 -15t15 -38q0 -28 -22 -48.5t-51 -20.5q-23 0 -37.5 15t-14.5 38zM539 653 q0 28 22 48.5t51 20.5q22 0 37 -15t15 -38q0 -27 -22.5 -48t-50.5 -21q-23 0 -37.5 15t-14.5 38z" />
<glyph unicode="&#x1e9e;" horiz-adv-x="734" d="M85 0l71 400q52 300 312 300h237l-13 -76l-203 -230q48 -9 82.5 -29.5t52 -47.5t25.5 -53t8 -53q0 -71 -38.5 -124.5t-92 -77.5t-111.5 -24q-83 0 -125.5 39.5t-31.5 105.5h103q-4 -36 15.5 -54t55.5 -18q52 0 87 36.5t35 105.5q0 55 -38.5 89t-111.5 34h-31l13 77 l198 224h-129q-79 0 -128.5 -51t-68.5 -163l-73 -410h-100z" />
<glyph unicode="&#x1ef2;" horiz-adv-x="589" d="M145 700h102l113 -359l224 359h100l-291 -442l-46 -258h-99l45 258zM293 892h126l114 -140h-85z" />
<glyph unicode="&#x1ef3;" horiz-adv-x="505" d="M89 -208l121 213l-107 512h100l51 -272l19 -130l65 130l143 272h95l-399 -725h-88zM233 733h115l81 -151h-77z" />
<glyph unicode="&#x2000;" horiz-adv-x="467" />
<glyph unicode="&#x2001;" horiz-adv-x="935" />
<glyph unicode="&#x2002;" horiz-adv-x="467" />
<glyph unicode="&#x2003;" horiz-adv-x="935" />
<glyph unicode="&#x2004;" horiz-adv-x="311" />
<glyph unicode="&#x2005;" horiz-adv-x="233" />
<glyph unicode="&#x2006;" horiz-adv-x="155" />
<glyph unicode="&#x2007;" horiz-adv-x="155" />
<glyph unicode="&#x2008;" horiz-adv-x="116" />
<glyph unicode="&#x2009;" horiz-adv-x="187" />
<glyph unicode="&#x200a;" horiz-adv-x="51" />
<glyph unicode="&#x2010;" horiz-adv-x="286" d="M46 238l14 77h241l-13 -77h-242z" />
<glyph unicode="&#x2011;" horiz-adv-x="286" d="M46 238l14 77h241l-13 -77h-242z" />
<glyph unicode="&#x2012;" horiz-adv-x="286" d="M46 238l14 77h241l-13 -77h-242z" />
<glyph unicode="&#x2013;" horiz-adv-x="499" d="M81 238l14 77h420l-14 -77h-420z" />
<glyph unicode="&#x2014;" horiz-adv-x="999" d="M81 238l14 77h920l-14 -77h-920z" />
<glyph unicode="&#x2018;" horiz-adv-x="244" d="M143 605l134 255h83l-116 -255h-101z" />
<glyph unicode="&#x2019;" horiz-adv-x="244" d="M143 605l116 255h101l-135 -255h-82z" />
<glyph unicode="&#x201a;" horiz-adv-x="244" d="M7 -160l117 254h101l-135 -254h-83z" />
<glyph unicode="&#x201c;" horiz-adv-x="404" d="M143 605l134 255h83l-116 -255h-101zM303 605l135 255h83l-117 -255h-101z" />
<glyph unicode="&#x201d;" horiz-adv-x="404" d="M143 605l116 255h101l-135 -255h-82zM303 605l116 255h102l-135 -255h-83z" />
<glyph unicode="&#x201e;" horiz-adv-x="404" d="M7 -160l117 254h101l-135 -254h-83zM168 -160l116 254h101l-134 -254h-83z" />
<glyph unicode="&#x2020;" horiz-adv-x="483" d="M124 454l13 76h145l30 170h99l-30 -170h145l-13 -76h-145l-80 -454h-99l80 454h-145z" />
<glyph unicode="&#x2021;" horiz-adv-x="483" d="M74 170l13 76h145l37 208h-145l13 76h145l30 170h99l-30 -170h145l-13 -76h-145l-37 -208h145l-13 -76h-145l-30 -170h-99l30 170h-145z" />
<glyph unicode="&#x2022;" horiz-adv-x="339" d="M102 331q0 59 45 101t103 42q45 0 74.5 -29.5t29.5 -75.5q0 -60 -45 -101.5t-103 -41.5q-45 0 -74.5 29.5t-29.5 75.5z" />
<glyph unicode="&#x2026;" horiz-adv-x="817" d="M62 41q0 32 23.5 54t55.5 22q25 0 40 -15.5t15 -40.5q0 -32 -23.5 -54t-55.5 -22q-24 0 -39.5 15.5t-15.5 40.5zM350 41q0 32 24 54t55 22q25 0 40 -15.5t15 -40.5q0 -32 -23.5 -54t-55.5 -22q-24 0 -39.5 15.5t-15.5 40.5zM639 41q0 32 23.5 54t55.5 22q24 0 39.5 -15.5 t15.5 -40.5q0 -32 -24 -54t-55 -22q-25 0 -40 15.5t-15 40.5z" />
<glyph unicode="&#x202f;" horiz-adv-x="187" />
<glyph unicode="&#x2030;" horiz-adv-x="1402" d="M131 445q0 114 65.5 189t162.5 75q71 0 111.5 -47t40.5 -127q0 -115 -66 -189.5t-163 -74.5q-70 0 -110.5 47t-40.5 127zM219 444q0 -54 20 -81t55 -27q54 0 91 52.5t37 147.5q0 108 -74 108q-54 0 -91.5 -52.5t-37.5 -147.5zM223 0l564 700h101l-564 -700h-101zM601 165 q0 114 65.5 189t162.5 75q71 0 111.5 -47t40.5 -127q0 -115 -66 -189.5t-163 -74.5q-70 0 -110.5 47t-40.5 127zM689 164q0 -54 20 -81t55 -27q54 0 91 52.5t37 147.5q0 108 -74 108q-54 0 -91.5 -52.5t-37.5 -147.5zM1013 165q0 114 65.5 189t162.5 75q71 0 111.5 -47 t40.5 -127q0 -115 -66 -189.5t-163 -74.5q-70 0 -110.5 47t-40.5 127zM1101 164q0 -54 20 -81t55 -27q54 0 91 52.5t37 147.5q0 108 -74 108q-54 0 -91.5 -52.5t-37.5 -147.5z" />
<glyph unicode="&#x2039;" horiz-adv-x="340" d="M90 227l15 85l275 197l-20 -110l-182 -131l137 -129l-19 -109z" />
<glyph unicode="&#x203a;" horiz-adv-x="340" d="M55 30l19 111l183 130l-137 130l19 108l206 -197l-15 -85z" />
<glyph unicode="&#x2044;" horiz-adv-x="586" d="M20 0l564 700h101l-564 -700h-101z" />
<glyph unicode="&#x205f;" horiz-adv-x="233" />
<glyph unicode="&#x20a1;" horiz-adv-x="665" d="M8 -120l116 238q-27 61 -27 148q0 177 88 299t228 145l54 110h96l-52 -107q33 -4 66 -17l60 124h96l-84 -173q57 -63 51 -173h-111q1 23 -2 47l-225 -460q61 2 110 43t73 122h111q-37 -119 -122 -180t-192 -61h-17l-51 -105h-96l60 124q-29 11 -57 34l-77 -158h-96z M194 261l175 358q-77 -36 -126 -127t-49 -225v-6zM225 128q19 -32 50 -49l262 537q-26 19 -63 22z" />
<glyph unicode="&#x20a5;" horiz-adv-x="921" d="M75 0l92 517h93l-12 -67q94 82 193 82q109 0 129 -87q60 53 132 75l99 116h101l-91 -107q55 -9 81.5 -50t12.5 -116l-64 -363h-94l61 343q18 102 -60 112l-205 -240l-38 -215h-94l14 76l-159 -186h-101l286 336l21 117q21 113 -80 113q-38 0 -80.5 -19t-73.5 -46l5 27 l-74 -418h-94zM569 364l50 58q-28 -17 -46 -33q-2 -16 -4 -25z" />
<glyph unicode="&#x20a6;" horiz-adv-x="727" d="M49 213l14 78h98l22 123h-98l13 78h98l37 208h106l82 -208h193l36 208h90l-37 -208h100l-14 -78h-99l-22 -123h100l-14 -78h-100l-37 -213h-105l-84 213h-190l-38 -213h-90l37 213h-98zM251 291h146l-48 123h-76zM286 492h32l-23 59zM451 414l49 -123h79l21 123h-149z M530 213l26 -65l10 65h-36z" />
<glyph unicode="&#x20a8;" horiz-adv-x="587" d="M119 468l14 76h311q-17 80 -122 80h-175l13 76h102h394l-13 -76h-138q35 -35 42 -80h82l-13 -76h-70q-16 -95 -95 -146t-183 -53l235 -269h-123l-229 269l14 76h107q147 0 171 123h-324z" />
<glyph unicode="&#x20a9;" horiz-adv-x="936" d="M49 214l14 76h136l-11 125h-103l13 76h83l-18 209h102l11 -209h176l90 209h107l17 -209h173l80 209h100l-88 -209h81l-14 -76h-99l-52 -125h129l-13 -76h-148l-90 -214h-104l-17 214h-183l-94 -214h-103l-19 214h-156zM280 415l7 -125h79l54 125h-140zM291 214l5 -92 l38 92h-43zM454 290h144l-10 125h-79zM541 491h41l-7 82zM673 415l10 -125h78l48 125h-136zM689 214l6 -95l37 95h-43z" />
<glyph unicode="&#x20aa;" horiz-adv-x="750" d="M91 0l123 700h196q99 0 148 -43.5t49 -144.5q0 -102 -76 -313h-84q39 115 55.5 179t16.5 112q0 68 -31.5 100t-100.5 32h-97l-110 -622h-89zM255 0l89 500h89l-75 -422h95q52 0 89.5 20.5t62 56t40.5 95t23.5 126t11.5 160.5q3 57 3 164h83q3 -36 3 -125 q0 -303 -79.5 -439t-240.5 -136h-194z" />
<glyph unicode="&#x20ab;" horiz-adv-x="572" d="M48 0l14 74h503l-13 -74h-504zM105 304q0 65 22 117t58.5 83.5t79.5 48t87 16.5q41 0 73.5 -16.5t47.5 -43.5l17 98h-124l12 71h124l12 66h92l-12 -66h77l-12 -71h-77l-81 -464h-92l19 107l-10 -52q-67 -70 -159 -70q-65 0 -109.5 45.5t-44.5 130.5zM204 314 q0 -56 25 -84t65 -28q70 0 135 55l33 187q-42 51 -111 51q-57 0 -102 -46.5t-45 -134.5z" />
<glyph unicode="&#x20ac;" horiz-adv-x="668" d="M54 208l13 76h70q3 64 17 125h-65l14 76h76q43 107 124.5 168.5t184.5 61.5q100 0 160.5 -61.5t54.5 -179.5h-111q4 82 -29 122.5t-89 40.5q-58 0 -108.5 -39t-82.5 -113h201l-14 -76h-211q-15 -60 -16 -125h205l-13 -76h-191q16 -145 129 -145q56 0 103 40.5t73 122.5 h110q-37 -118 -118.5 -179.5t-181.5 -61.5q-99 0 -154 59t-66 164h-85z" />
<glyph unicode="&#x20ad;" horiz-adv-x="595" d="M61 329l14 77h89l52 294h99l-52 -294h4l275 294h112l-283 -294h236l-13 -77h-234l209 -329h-119l-199 329h-1l-58 -329h-99l58 329h-90z" />
<glyph unicode="&#x20ae;" horiz-adv-x="542" d="M113 128l16 85l137 56l16 88l-138 -56l15 85l138 56l32 182h-193l12 76h486l-13 -76h-193l-24 -138l138 56l-15 -85l-138 -56l-16 -88l138 56l-16 -85l-137 -56l-40 -228h-99l33 185z" />
<glyph unicode="&#x20b1;" horiz-adv-x="621" d="M80 437l13 77h90l33 186h196q90 0 151.5 -48.5t62.5 -137.5h73l-12 -77h-71q-26 -89 -106 -137t-176 -48h-97l-45 -252h-99l77 437h-90zM250 328h97q59 0 103 28t62 81h-242zM283 514h239q-2 54 -35 82t-88 28h-96z" />
<glyph unicode="&#x20b4;" horiz-adv-x="625" d="M92 140q0 107 103 169h-92l13 77h260q83 30 126.5 65t43.5 93q0 95 -116 95q-134 0 -165 -119h-106q21 92 94.5 143.5t190.5 51.5q98 0 151 -42t53 -113q0 -110 -106 -174h103l-13 -77h-273q-81 -31 -123.5 -64t-42.5 -89q0 -95 116 -95q143 0 174 119h106 q-21 -91 -98.5 -143t-194.5 -52q-98 0 -151 42t-53 113z" />
<glyph unicode="&#x20b5;" horiz-adv-x="665" d="M97 266q0 180 90.5 302.5t233.5 142.5l19 109h90l-19 -107q90 -11 142 -71.5t47 -167.5h-111q6 135 -92 160l-100 -568q107 24 148 160h111q-33 -107 -106 -167.5t-167 -71.5l-19 -107h-90l19 109q-96 15 -146 88t-50 189zM204 267q0 -165 103 -199l100 565 q-88 -23 -145.5 -119t-57.5 -247z" />
<glyph unicode="&#x2113;" horiz-adv-x="467" d="M23 180v64q45 25 88 53v132q0 138 44 212t119 74q52 0 87 -31.5t35 -105.5q0 -69 -53 -144.5t-138 -142.5v-149q0 -86 72 -86q31 0 83 16v-64q-48 -23 -114 -23q-60 0 -97.5 35t-37.5 101v105q-48 -29 -88 -46zM205 373q102 102 102 205q0 70 -36 70q-66 0 -66 -219v-56z " />
<glyph unicode="&#x2117;" horiz-adv-x="830" d="M50 350q0 152 105 258.5t260 106.5t260 -106.5t105 -258.5t-105 -258.5t-260 -106.5t-260 106.5t-105 258.5zM121 350q0 -125 85 -213t209 -88t209 88t85 213t-85 213t-209 88t-209 -88t-85 -213zM295 143v413h134q63 0 108.5 -34t45.5 -98q0 -63 -45.5 -97.5 t-108.5 -34.5h-62v-149h-72zM367 348h62q39 0 61 19.5t22 56.5q0 76 -83 76h-62v-152z" />
<glyph unicode="&#x2120;" horiz-adv-x="699" d="M50 490h63q6 -46 59 -46q21 0 37 9.5t16 31.5q0 14 -11 23t-21 11.5t-37 8.5q-23 4 -36 7.5t-31 13t-26.5 27.5t-8.5 44q0 40 31 64t80 24q52 0 83.5 -24t32.5 -67h-63q-5 40 -53 40q-51 0 -51 -33q0 -14 11 -23t21.5 -11.5t35.5 -7.5q24 -5 36.5 -8.5t31 -13t27 -27.5 t8.5 -44q0 -43 -32.5 -69.5t-80.5 -26.5q-53 0 -86 25t-36 72zM336 401v299h64l96 -215l94 215h59v-299h-60v102l2 80l-77 -175h-41l-81 182l1 -88v-101h-57z" />
<glyph unicode="&#x2122;" horiz-adv-x="679" d="M50 651v49h221v-49h-81v-250h-61v250h-79zM316 401v299h64l96 -215l95 215h58v-299h-60v102l2 80l-77 -175h-41l-81 182l1 -88v-101h-57z" />
<glyph unicode="&#x2126;" horiz-adv-x="739" d="M38 0l14 76h175q-51 40 -84 111t-33 149q0 156 109.5 267.5t273.5 111.5q126 0 197 -77t71 -198q0 -112 -64.5 -211.5t-153.5 -152.5h167l-14 -76h-253l13 76q82 54 139.5 145t57.5 210q0 101 -47.5 154.5t-126.5 53.5q-113 0 -189.5 -90t-76.5 -239q0 -77 26 -138 t66 -96l-13 -76h-254z" />
<glyph unicode="&#x212e;" horiz-adv-x="774" d="M50 321q0 144 98 241t239 97t239 -97t98 -241h-523v-239q79 -65 186 -65q75 0 138 34t104 93h47q-45 -74 -121.5 -117t-167.5 -43q-141 0 -239 96.5t-98 240.5zM201 354h373l-1 206q-80 66 -186 66t-186 -66v-206z" />
<glyph unicode="&#x2153;" horiz-adv-x="878" d="M124 0l564 700h101l-564 -700h-101zM149 572l13 75l113 53h85l-74 -420h-85l61 345zM514 112h87q-1 -30 16 -43.5t56 -13.5q90 0 90 75q0 55 -83 55h-54l11 64h54q44 0 68.5 18.5t24.5 53.5q0 44 -60 44q-63 0 -84 -57h-88q15 57 64 89t119 32q62 0 98.5 -27t36.5 -74 q0 -37 -26.5 -67t-73.5 -41q41 -6 60 -30t19 -55q0 -62 -57 -103t-131 -41q-77 0 -116 32t-31 89z" />
<glyph unicode="&#x2154;" horiz-adv-x="982" d="M108 280l11 64q27 20 64.5 47.5t58 42.5t46.5 35.5t39.5 34t26.5 29.5t18.5 31t5.5 31q0 50 -57 50q-62 0 -84 -72h-88q15 65 64 100.5t119 35.5q60 0 96 -28t36 -80q0 -60 -44 -106t-174 -142q-9 -6 -13 -9h189l-10 -64h-304zM228 0l564 700h101l-564 -700h-101z M618 112h87q-1 -30 16 -43.5t56 -13.5q90 0 90 75q0 55 -83 55h-54l11 64h54q44 0 68.5 18.5t24.5 53.5q0 44 -60 44q-63 0 -84 -57h-88q15 57 64 89t119 32q62 0 98.5 -27t36.5 -74q0 -37 -26.5 -67t-73.5 -41q41 -6 60 -30t19 -55q0 -62 -57 -103t-131 -41q-77 0 -116 32 t-31 89z" />
<glyph unicode="&#x215b;" horiz-adv-x="881" d="M124 0l564 700h101l-564 -700h-101zM149 572l13 75l113 53h85l-74 -420h-85l61 345zM509 94q0 45 31 79t81 45q-63 20 -63 81q0 59 50.5 94.5t127.5 35.5q64 0 101.5 -26.5t37.5 -72.5q0 -84 -97 -112q34 -9 54 -33.5t20 -56.5q0 -68 -54.5 -102.5t-138.5 -34.5 q-68 0 -109 25.5t-41 77.5zM598 109q0 -54 72 -54q41 0 68.5 18t27.5 58q0 53 -72 53q-46 0 -71 -19.5t-25 -55.5zM643 295q0 -48 62 -48q40 0 60.5 18.5t20.5 50.5q0 49 -61 49q-35 0 -58.5 -17t-23.5 -53z" />
<glyph unicode="&#x215c;" horiz-adv-x="967" d="M119 392h87q-1 -30 16 -43.5t56 -13.5q90 0 90 75q0 55 -83 55h-54l11 64h54q44 0 68.5 18.5t24.5 53.5q0 44 -60 44q-63 0 -84 -57h-88q15 57 64 89t119 32q62 0 98.5 -27t36.5 -74q0 -37 -26.5 -67t-73.5 -41q41 -6 60 -30t19 -55q0 -62 -57 -103t-131 -41 q-77 0 -116 32t-31 89zM210 0l564 700h101l-564 -700h-101zM595 94q0 45 31 79t81 45q-63 20 -63 81q0 59 50.5 94.5t127.5 35.5q64 0 101.5 -26.5t37.5 -72.5q0 -84 -97 -112q34 -9 54 -33.5t20 -56.5q0 -68 -54.5 -102.5t-138.5 -34.5q-68 0 -109 25.5t-41 77.5zM684 109 q0 -54 72 -54q41 0 68.5 18t27.5 58q0 53 -72 53q-46 0 -71 -19.5t-25 -55.5zM729 295q0 -48 62 -48q40 0 60.5 18.5t20.5 50.5q0 49 -61 49q-35 0 -58.5 -17t-23.5 -53z" />
<glyph unicode="&#x215d;" horiz-adv-x="947" d="M117 382h88q0 -47 58 -47q44 0 68.5 26.5t24.5 77.5q0 63 -60 63q-48 0 -78 -32h-74l41 230h275l-12 -65h-202l-17 -102q38 32 99 32q51 0 83 -31.5t32 -88.5q0 -81 -58 -127.5t-133 -46.5q-71 0 -106.5 29t-28.5 82zM190 0l564 700h101l-564 -700h-101zM575 94 q0 45 31 79t81 45q-63 20 -63 81q0 59 50.5 94.5t127.5 35.5q64 0 101.5 -26.5t37.5 -72.5q0 -84 -97 -112q34 -9 54 -33.5t20 -56.5q0 -68 -54.5 -102.5t-138.5 -34.5q-68 0 -109 25.5t-41 77.5zM664 109q0 -54 72 -54q41 0 68.5 18t27.5 58q0 53 -72 53q-46 0 -71 -19.5 t-25 -55.5zM709 295q0 -48 62 -48q40 0 60.5 18.5t20.5 50.5q0 49 -61 49q-35 0 -58.5 -17t-23.5 -53z" />
<glyph unicode="&#x215e;" horiz-adv-x="838" d="M81 0l564 700h101l-564 -700h-101zM132 280l226 355h-198l12 65h280l-12 -65l-223 -355h-85zM466 94q0 45 31 79t81 45q-63 20 -63 81q0 59 50.5 94.5t127.5 35.5q64 0 101.5 -26.5t37.5 -72.5q0 -84 -97 -112q34 -9 54 -33.5t20 -56.5q0 -68 -54.5 -102.5t-138.5 -34.5 q-68 0 -109 25.5t-41 77.5zM555 109q0 -54 72 -54q41 0 68.5 18t27.5 58q0 53 -72 53q-46 0 -71 -19.5t-25 -55.5zM600 295q0 -48 62 -48q40 0 60.5 18.5t20.5 50.5q0 49 -61 49q-35 0 -58.5 -17t-23.5 -53z" />
<glyph unicode="&#x2190;" horiz-adv-x="743" d="M87 270l354 300l47 -57l-240 -205h509l-14 -78h-516l170 -208l-62 -52z" />
<glyph unicode="&#x2191;" horiz-adv-x="680" d="M93 300l353 301l247 -301l-63 -53l-171 206l-91 -515h-77l89 510l-240 -205z" />
<glyph unicode="&#x2192;" horiz-adv-x="743" d="M80 230l14 78h517l-171 208l63 53l247 -300l-353 -300l-47 57l239 204h-509z" />
<glyph unicode="&#x2193;" horiz-adv-x="680" d="M83 238l63 54l170 -207l92 516h78l-91 -510l241 204l47 -57l-353 -300z" />
<glyph unicode="&#x2196;" horiz-adv-x="615" d="M96 93l75 424h425l-14 -77h-294l299 -363l-62 -55l-299 365l-52 -294h-78z" />
<glyph unicode="&#x2197;" horiz-adv-x="615" d="M52 77l426 363h-290l14 77h424l-75 -424h-78l51 289l-426 -362z" />
<glyph unicode="&#x2198;" horiz-adv-x="615" d="M114 22l14 78h293l-298 363l63 53l298 -363l51 294h78l-75 -425h-424z" />
<glyph unicode="&#x2199;" horiz-adv-x="615" d="M84 22l74 425h78l-51 -292l426 364l46 -58l-425 -361h290l-14 -78h-424z" />
<glyph unicode="&#x2202;" horiz-adv-x="617" d="M51 184q0 124 71.5 196.5t184.5 72.5q51 0 96.5 -23.5t70.5 -60.5q4 40 4 97q0 111 -37 167.5t-95 56.5q-91 0 -125 -97h-101q22 78 83 122t156 44q99 0 158.5 -83.5t59.5 -226.5q0 -215 -84.5 -339.5t-237.5 -124.5q-88 0 -146 54.5t-58 144.5zM151 186q0 -60 32 -96 t85 -36q72 0 123.5 62t72.5 180q-19 35 -60 58t-90 23q-78 0 -120.5 -52.5t-42.5 -138.5z" />
<glyph unicode="&#x2205;" horiz-adv-x="659" d="M108 322q0 136 100.5 231t234.5 95q65 0 115 -27l59 72l55 -43l-57 -70q64 -69 64 -170q0 -136 -100.5 -231t-234.5 -95q-63 0 -113 26l-59 -72l-56 44l57 70q-65 67 -65 170zM187 333q0 -70 39 -117l279 341q-33 15 -76 15q-98 0 -170 -68.5t-72 -170.5zM283 174 q34 -14 74 -14q98 0 170.5 68.5t72.5 170.5q0 69 -39 116z" />
<glyph unicode="&#x2206;" horiz-adv-x="622" d="M31 0l14 75l330 625h103l124 -625l-14 -75h-557zM146 75h354l-71 397l-20 131l-64 -131z" />
<glyph unicode="&#x220f;" horiz-adv-x="726" d="M85 0l123 700h551l-123 -700h-99l110 624h-352l-110 -624h-100z" />
<glyph unicode="&#x2211;" horiz-adv-x="565" d="M85 0l14 76l267 291l-170 257l12 76h428l-13 -76h-321l149 -227l-13 -77l-227 -244h315l-13 -76h-428z" />
<glyph unicode="&#x2212;" horiz-adv-x="560" d="M105 327l12 77h463l-12 -77h-463z" />
<glyph unicode="&#x221a;" horiz-adv-x="650" d="M113 452l12 65h175l48 -286l18 -129l62 129l230 469h95l-362 -700h-90l-85 452h-103z" />
<glyph unicode="&#x221e;" horiz-adv-x="795" d="M102 323q0 88 62 150.5t145 62.5q52 0 88 -31.5t70 -87.5q54 56 102 87.5t100 31.5q64 0 103.5 -43.5t39.5 -109.5q0 -88 -62 -150.5t-145 -62.5q-52 0 -88 31.5t-71 87.5q-113 -119 -201 -119q-64 0 -103.5 43.5t-39.5 109.5zM183 334q0 -38 21 -63.5t57 -25.5 q33 0 67 27t83 81q-30 53 -55 80.5t-58 27.5q-48 0 -81.5 -37.5t-33.5 -89.5zM503 353q30 -54 54.5 -81t58.5 -27q48 0 81.5 37.5t33.5 89.5q0 38 -21 63.5t-57 25.5q-33 0 -67 -27t-83 -81z" />
<glyph unicode="&#x222b;" horiz-adv-x="418" d="M16 -223l13 76q43 0 76.5 28t44.5 90l95 536q17 97 82.5 152.5t152.5 55.5l-13 -76q-43 0 -76.5 -28t-44.5 -90l-94 -536q-17 -97 -82.5 -152.5t-153.5 -55.5z" />
<glyph unicode="&#x2248;" horiz-adv-x="564" d="M65 224q80 122 176 122q41 0 74.5 -21.5t61 -43t53.5 -21.5q44 0 98 79l60 -35q-80 -122 -176 -122q-32 0 -60.5 13.5t-46 29.5t-39 29.5t-42.5 13.5q-46 0 -100 -79zM101 427q80 122 176 122q32 0 60.5 -13.5t46 -29.5t39 -29.5t42.5 -13.5q44 0 100 79l58 -35 q-80 -122 -176 -122q-32 0 -60.5 13.5t-45.5 29.5t-39 29.5t-43 13.5q-45 0 -100 -79z" />
<glyph unicode="&#x2260;" horiz-adv-x="560" d="M86 226l14 76h165l71 127h-214l14 76h242l94 170h84l-94 -170h137l-14 -76h-165l-71 -127h214l-14 -76h-242l-95 -171h-84l95 171h-137z" />
<glyph unicode="&#x2264;" horiz-adv-x="557" d="M44 0l13 76h463l-13 -76h-463zM103 337l14 81l498 199l-14 -82l-396 -159l341 -157l-15 -80z" />
<glyph unicode="&#x2265;" horiz-adv-x="557" d="M46 0l13 76h463l-13 -76h-463zM71 139l14 82l395 158l-340 158l15 80l427 -199l-13 -81z" />
<glyph unicode="&#x25ca;" horiz-adv-x="567" d="M104 350l255 350h91l133 -350l-256 -350h-91zM191 349l101 -266l205 268l-103 265z" />
<glyph unicode="&#x25fc;" horiz-adv-x="515" d="M0 0v515h515v-515h-515z" />
<glyph unicode="&#x27f5;" horiz-adv-x="1367" d="M87 270l354 300l47 -57l-240 -205h1133l-14 -78h-1140l170 -208l-62 -52z" />
<glyph unicode="&#x27f6;" horiz-adv-x="1367" d="M80 230l14 78h1141l-171 208l62 53l248 -300l-354 -300l-47 57l240 204h-1133z" />
<glyph unicode="&#x301a;" horiz-adv-x="359" d="M98 -125l167 950h218l-11 -65h-72l-144 -820h71l-11 -65h-218zM166 -60h33l145 820h-34z" />
<glyph unicode="&#x301b;" horiz-adv-x="362" d="M-3 -125l11 65h71l145 820h-72l12 65h217l-167 -950h-217zM136 -60h33l145 820h-34z" />
<glyph horiz-adv-x="735" d="M98 276q0 192 110.5 315.5t282.5 123.5q125 0 194.5 -78.5t69.5 -212.5q0 -192 -110.5 -315.5t-282.5 -123.5q-125 0 -194.5 78.5t-69.5 212.5zM205 276q0 -105 46.5 -160t124.5 -55q118 0 195.5 98t77.5 265q0 105 -46.5 160t-125.5 55q-117 0 -194.5 -98.5 t-77.5 -264.5zM211 -137l13 76h365l-14 -76h-364z" />
<glyph horiz-adv-x="552" d="M65 100q0 75 68 132t212 57q31 0 83 -5l11 62q21 121 -79 121q-110 0 -136 -121h-98q16 88 84.5 137t162.5 49q82 0 130 -40t32 -135l-63 -357h-94l11 63q-97 -78 -190 -78q-62 0 -98 31.5t-36 83.5zM164 121q0 -63 89 -63q35 0 75.5 19.5t71.5 47.5v-3l18 103 q-42 3 -77 3q-177 0 -177 -107z" />
<glyph horiz-adv-x="581" d="M16 -91q0 41 26.5 80.5t69.5 68.5q-25 21 -25 61q0 60 67 123q-44 38 -44 99q0 90 73.5 140.5t180.5 50.5q55 0 97 -15h180l-11 -65h-87q15 -27 15 -63q0 -90 -73 -141t-180 -51q-63 0 -111 20q-19 -34 -19 -60q0 -37 44 -37h158q71 0 112.5 -32t41.5 -86 q0 -92 -93.5 -158.5t-215.5 -66.5q-102 0 -154 35t-52 97zM110 -58q0 -101 138 -101q80 0 130.5 36t50.5 95q0 33 -23 49.5t-57 16.5h-169q-17 0 -29 3q-41 -46 -41 -99zM207 345q0 -85 109 -85q66 0 106 30.5t40 94.5q0 84 -109 84q-146 0 -146 -124z" />
<glyph horiz-adv-x="249" d="M-106 -207l11 63q30 -10 67 -10q35 0 59.5 20.5t31.5 61.5l104 589h93l-104 -589q-13 -75 -62.5 -113t-128.5 -38q-41 0 -71 16zM176 653q0 28 22.5 49t51.5 21q22 0 36.5 -15.5t14.5 -38.5q0 -28 -22 -49t-51 -21q-23 0 -37.5 15.5t-14.5 38.5z" />
<glyph horiz-adv-x="364" d="M95 452l11 65h117l25 143h93l-25 -143h118l-12 -65h-118l-79 -452h-93l79 452h-116z" />
<glyph horiz-adv-x="499" d="M75 0l92 517h93l-91 -517h-94zM143 -207l11 63q30 -10 67 -10q35 0 59.5 20.5t31.5 61.5l104 589h93l-104 -589q-13 -75 -62.5 -113t-128.5 -38q-41 0 -71 16zM176 653q0 28 22.5 49t51.5 21q22 0 36.5 -15.5t14.5 -38.5q0 -28 -22 -49t-51 -21q-23 0 -37.5 15.5 t-14.5 38.5zM425 653q0 28 22.5 49t51.5 21q22 0 36.5 -15.5t14.5 -38.5q0 -28 -22 -49t-51 -21q-23 0 -37.5 15.5t-14.5 38.5z" />
<glyph horiz-adv-x="552" d="M65 100q0 75 68 132t212 57q31 0 83 -5l11 62q21 121 -79 121q-110 0 -136 -121h-98q16 88 84.5 137t162.5 49q82 0 130 -40t32 -135l-63 -357h-94l11 63q-97 -78 -190 -78q-62 0 -98 31.5t-36 83.5zM164 121q0 -63 89 -63q35 0 75.5 19.5t71.5 47.5v-3l18 103 q-42 3 -77 3q-177 0 -177 -107zM289 582l126 151h126l-168 -151h-84z" />
<glyph horiz-adv-x="552" d="M65 100q0 75 68 132t212 57q31 0 83 -5l11 62q21 121 -79 121q-110 0 -136 -121h-98q16 88 84.5 137t162.5 49q82 0 130 -40t32 -135l-63 -357h-94l11 63q-97 -78 -190 -78q-62 0 -98 31.5t-36 83.5zM164 121q0 -63 89 -63q35 0 75.5 19.5t71.5 47.5v-3l18 103 q-42 3 -77 3q-177 0 -177 -107zM263 733h65q-7 -38 8 -61.5t51 -23.5q69 0 86 85h68q-14 -78 -60 -119t-108 -41t-93 41t-17 119z" />
<glyph horiz-adv-x="552" d="M65 100q0 75 68 132t212 57q31 0 83 -5l11 62q21 121 -79 121q-110 0 -136 -121h-98q16 88 84.5 137t162.5 49q82 0 130 -40t32 -135l-63 -357h-94l11 63q-97 -78 -190 -78q-62 0 -98 31.5t-36 83.5zM164 121q0 -63 89 -63q35 0 75.5 19.5t71.5 47.5v-3l18 103 q-42 3 -77 3q-177 0 -177 -107zM212 582l138 151h104l83 -151h-78l-67 86l-97 -86h-83z" />
<glyph horiz-adv-x="552" d="M65 100q0 75 68 132t212 57q31 0 83 -5l11 62q21 121 -79 121q-110 0 -136 -121h-98q16 88 84.5 137t162.5 49q82 0 130 -40t32 -135l-63 -357h-94l11 63q-97 -78 -190 -78q-62 0 -98 31.5t-36 83.5zM164 121q0 -63 89 -63q35 0 75.5 19.5t71.5 47.5v-3l18 103 q-42 3 -77 3q-177 0 -177 -107zM232 653q0 28 22 48.5t51 20.5q22 0 37 -15t15 -38q0 -28 -22 -48.5t-51 -20.5q-23 0 -37.5 15t-14.5 38zM421 653q0 28 22 48.5t51 20.5q22 0 37 -15t15 -38q0 -27 -22.5 -48t-50.5 -21q-23 0 -37.5 15t-14.5 38z" />
<glyph horiz-adv-x="552" d="M65 100q0 75 68 132t212 57q31 0 83 -5l11 62q21 121 -79 121q-110 0 -136 -121h-98q16 88 84.5 137t162.5 49q82 0 130 -40t32 -135l-63 -357h-94l11 63q-97 -78 -190 -78q-62 0 -98 31.5t-36 83.5zM164 121q0 -63 89 -63q35 0 75.5 19.5t71.5 47.5v-3l18 103 q-42 3 -77 3q-177 0 -177 -107zM264 733h115l81 -151h-77z" />
<glyph horiz-adv-x="552" d="M65 100q0 75 68 132t212 57q31 0 83 -5l11 62q21 121 -79 121q-110 0 -136 -121h-98q16 88 84.5 137t162.5 49q82 0 130 -40t32 -135l-63 -357h-94l11 63q-97 -78 -190 -78q-62 0 -98 31.5t-36 83.5zM164 121q0 -63 89 -63q35 0 75.5 19.5t71.5 47.5v-3l18 103 q-42 3 -77 3q-177 0 -177 -107zM232 612l12 71h296l-12 -71h-296z" />
<glyph horiz-adv-x="552" d="M65 100q0 75 68 132t212 57q31 0 83 -5l11 62q21 121 -79 121q-110 0 -136 -121h-98q16 88 84.5 137t162.5 49q82 0 130 -40t32 -135l-63 -357h-1q-147 -69 -147 -145q0 -19 12 -30t30 -11q34 0 76 22l-10 -60q-48 -24 -100 -24q-42 0 -66 23.5t-24 60.5q0 93 140 164h-4 l11 63q-97 -78 -190 -78q-62 0 -98 31.5t-36 83.5zM164 121q0 -63 89 -63q35 0 75.5 19.5t71.5 47.5v-3l18 103q-42 3 -77 3q-177 0 -177 -107z" />
<glyph horiz-adv-x="552" d="M65 100q0 75 68 132t212 57q31 0 83 -5l11 62q21 121 -79 121q-110 0 -136 -121h-98q16 88 84.5 137t162.5 49q82 0 130 -40t32 -135l-63 -357h-94l11 63q-97 -78 -190 -78q-62 0 -98 31.5t-36 83.5zM164 121q0 -63 89 -63q35 0 75.5 19.5t71.5 47.5v-3l18 103 q-42 3 -77 3q-177 0 -177 -107zM274 642q0 50 38 80.5t93 30.5q43 0 70.5 -22t27.5 -60q0 -49 -38.5 -79.5t-92.5 -30.5q-44 0 -71 21.5t-27 59.5zM345 643q8 -32 43 -27q21 2 33.5 16.5t9.5 38.5q-6 32 -42 27q-22 -2 -34 -17t-10 -38z" />
<glyph horiz-adv-x="552" d="M65 100q0 75 68 132t212 57q31 0 83 -5l11 62q21 121 -79 121q-110 0 -136 -121h-98q16 88 84.5 137t162.5 49q82 0 130 -40t32 -135l-63 -357h-94l11 63q-97 -78 -190 -78q-62 0 -98 31.5t-36 83.5zM164 121q0 -63 89 -63q35 0 75.5 19.5t71.5 47.5v-3l18 103 q-42 3 -77 3q-177 0 -177 -107zM211 619q27 46 62 70t65 24t67.5 -23t50.5 -23q31 0 59 42l48 -26q-25 -45 -60 -69t-65 -24t-68 23t-52 23q-28 0 -59 -43z" />
<glyph horiz-adv-x="581" d="M16 -91q0 41 26.5 80.5t69.5 68.5q-25 21 -25 61q0 60 67 123q-44 38 -44 99q0 90 73.5 140.5t180.5 50.5q55 0 97 -15h180l-11 -65h-87q15 -27 15 -63q0 -90 -73 -141t-180 -51q-63 0 -111 20q-19 -34 -19 -60q0 -37 44 -37h158q71 0 112.5 -32t41.5 -86 q0 -92 -93.5 -158.5t-215.5 -66.5q-102 0 -154 35t-52 97zM110 -58q0 -101 138 -101q80 0 130.5 36t50.5 95q0 33 -23 49.5t-57 16.5h-169q-17 0 -29 3q-41 -46 -41 -99zM207 345q0 -85 109 -85q66 0 106 30.5t40 94.5q0 84 -109 84q-146 0 -146 -124zM265 733h65 q-7 -38 8 -61.5t51 -23.5q69 0 86 85h68q-14 -78 -60 -119t-108 -41t-93 41t-17 119z" />
<glyph horiz-adv-x="581" d="M16 -91q0 41 26.5 80.5t69.5 68.5q-25 21 -25 61q0 60 67 123q-44 38 -44 99q0 90 73.5 140.5t180.5 50.5q55 0 97 -15h180l-11 -65h-87q15 -27 15 -63q0 -90 -73 -141t-180 -51q-63 0 -111 20q-19 -34 -19 -60q0 -37 44 -37h158q71 0 112.5 -32t41.5 -86 q0 -92 -93.5 -158.5t-215.5 -66.5q-102 0 -154 35t-52 97zM110 -58q0 -101 138 -101q80 0 130.5 36t50.5 95q0 33 -23 49.5t-57 16.5h-169q-17 0 -29 3q-41 -46 -41 -99zM207 345q0 -85 109 -85q66 0 106 30.5t40 94.5q0 84 -109 84q-146 0 -146 -124zM214 582l138 151h104 l83 -151h-78l-67 86l-97 -86h-83z" />
<glyph horiz-adv-x="581" d="M16 -91q0 41 26.5 80.5t69.5 68.5q-25 21 -25 61q0 60 67 123q-44 38 -44 99q0 90 73.5 140.5t180.5 50.5q55 0 97 -15h180l-11 -65h-87q15 -27 15 -63q0 -90 -73 -141t-180 -51q-63 0 -111 20q-19 -34 -19 -60q0 -37 44 -37h158q71 0 112.5 -32t41.5 -86 q0 -92 -93.5 -158.5t-215.5 -66.5q-102 0 -154 35t-52 97zM110 -58q0 -101 138 -101q80 0 130.5 36t50.5 95q0 33 -23 49.5t-57 16.5h-169q-17 0 -29 3q-41 -46 -41 -99zM207 345q0 -85 109 -85q66 0 106 30.5t40 94.5q0 84 -109 84q-146 0 -146 -124zM314 584l74 183h69 l-53 -183h-90z" />
<glyph horiz-adv-x="581" d="M16 -91q0 41 26.5 80.5t69.5 68.5q-25 21 -25 61q0 60 67 123q-44 38 -44 99q0 90 73.5 140.5t180.5 50.5q55 0 97 -15h180l-11 -65h-87q15 -27 15 -63q0 -90 -73 -141t-180 -51q-63 0 -111 20q-19 -34 -19 -60q0 -37 44 -37h158q71 0 112.5 -32t41.5 -86 q0 -92 -93.5 -158.5t-215.5 -66.5q-102 0 -154 35t-52 97zM110 -58q0 -101 138 -101q80 0 130.5 36t50.5 95q0 33 -23 49.5t-57 16.5h-169q-17 0 -29 3q-41 -46 -41 -99zM207 345q0 -85 109 -85q66 0 106 30.5t40 94.5q0 84 -109 84q-146 0 -146 -124zM327 653q0 28 22.5 49 t51.5 21q23 0 37.5 -15.5t14.5 -38.5q0 -28 -22 -49t-51 -21q-23 0 -38 15.5t-15 38.5z" />
<glyph horiz-adv-x="249" d="M75 0l92 517h93l-91 -517h-94zM176 653q0 28 22.5 49t51.5 21q22 0 36.5 -15.5t14.5 -38.5q0 -28 -22 -49t-51 -21q-23 0 -37.5 15.5t-14.5 38.5z" />
<glyph horiz-adv-x="249" d="M-106 -207l11 63q30 -10 67 -10q35 0 59.5 20.5t31.5 61.5l104 589h93l-104 -589q-13 -75 -62.5 -113t-128.5 -38q-41 0 -71 16zM62 582l138 151h104l83 -151h-78l-67 86l-97 -86h-83z" />
<glyph horiz-adv-x="364" d="M82 267l13 71h96l20 114h-116l11 65h117l25 143h93l-25 -143h118l-12 -65h-118l-20 -114h100l-13 -71h-99l-47 -267h-93l47 267h-97z" />
<glyph horiz-adv-x="364" d="M95 452l11 65h117l25 143h93l-25 -143h118l-12 -65h-118l-79 -452h-93l79 452h-116zM378 580l40 223h88l-60 -223h-68z" />
<glyph horiz-adv-x="364" d="M49 -234l9 54q25 -13 62 -13q24 0 44 12t20 34q0 17 -14.5 26t-34.5 9q-25 0 -43 -6l-14 34l78 84h-24l79 452h-116l11 65h117l25 143h93l-25 -143h118l-12 -65h-118l-79 -452h-4l-61 -66q42 3 70 -14.5t28 -55.5q0 -51 -43 -81.5t-98 -30.5q-41 0 -68 14z" />
<glyph horiz-adv-x="364" d="M70 -248l53 183h90l-74 -183h-69zM95 452l11 65h117l25 143h93l-25 -143h118l-12 -65h-118l-79 -452h-93l79 452h-116z" />
<glyph horiz-adv-x="527" d="M7 0l302 543h84l124 -543h-99l-28 142h-212l-75 -142h-96zM214 211h162l-26 128l-18 98l-50 -98z" />
<glyph horiz-adv-x="549" d="M85 0l96 543h192q81 0 129.5 -30t48.5 -93q0 -51 -32.5 -88t-80.5 -50q40 -6 67 -33t27 -73q0 -85 -66 -130.5t-173 -45.5h-208zM191 67h114q72 0 101.5 24.5t29.5 77.5q0 71 -100 71h-115zM233 307h98q124 0 124 103q0 66 -95 66h-98z" />
<glyph horiz-adv-x="567" d="M88 210q0 151 83 249t219 98q86 0 143 -49.5t53 -140.5h-102q3 63 -27 93t-80 30q-86 0 -138 -77.5t-52 -202.5q0 -76 29.5 -117t84.5 -41q50 0 90 30.5t59 92.5h101q-28 -91 -102 -140.5t-160 -49.5q-97 0 -149 60.5t-52 164.5z" />
<glyph d="M85 0l96 543h171q121 0 187.5 -58.5t66.5 -164.5q0 -147 -95.5 -233.5t-254.5 -86.5h-171zM191 68h77q108 0 173.5 60t65.5 189q0 82 -45 120t-123 38h-77z" />
<glyph horiz-adv-x="476" d="M85 0l96 543h343l-13 -68h-249l-27 -156h233l-12 -68h-234l-31 -183h249l-12 -68h-343z" />
<glyph horiz-adv-x="454" d="M85 0l96 543h334l-12 -68h-241l-30 -172h225l-12 -68h-225l-42 -235h-93z" />
<glyph horiz-adv-x="578" d="M87 202q0 156 83 255.5t220 99.5q85 0 142.5 -47.5t54.5 -131.5h-102q1 56 -29 84t-79 28q-87 0 -139 -78.5t-52 -206.5q0 -153 110 -153q77 0 148 62l17 92h-131l12 67h221l-48 -273h-91l9 50q-32 -28 -78.5 -46.5t-89.5 -18.5q-86 0 -132 58.5t-46 158.5z" />
<glyph horiz-adv-x="626" d="M85 0l96 543h93l-39 -224h269l40 224h92l-96 -543h-92l44 251h-270l-44 -251h-93z" />
<glyph horiz-adv-x="265" d="M85 0l96 543h93l-96 -543h-93z" />
<glyph horiz-adv-x="486" d="M58 176h102q-8 -65 12.5 -94.5t57.5 -29.5q45 0 74.5 26.5t38.5 76.5l68 388h93l-66 -372q-16 -91 -75 -138.5t-146 -47.5q-79 0 -126.5 46.5t-32.5 144.5z" />
<glyph horiz-adv-x="539" d="M85 0l96 543h93l-46 -257l245 257h104l-253 -258l189 -285h-110l-175 280l-50 -280h-93z" />
<glyph horiz-adv-x="467" d="M96 0l96 543h93l-84 -475h223l-13 -68h-315z" />
<glyph horiz-adv-x="725" d="M85 0l96 543h104l98 -426l259 426h92l-96 -543h-89l51 285l16 84l-211 -354h-78l-90 377l-16 -97l-52 -295h-84z" />
<glyph horiz-adv-x="616" d="M85 0l96 543h97l191 -424l16 99l57 325h84l-96 -543h-96l-192 423l-15 -98l-58 -325h-84z" />
<glyph horiz-adv-x="620" d="M89 217q0 147 92 243.5t227 96.5q101 0 159.5 -63t58.5 -169q0 -147 -92 -243.5t-227 -96.5q-102 0 -160 63t-58 169zM188 218q0 -79 35.5 -122.5t95.5 -43.5q89 0 148.5 74t59.5 198q0 79 -36 122.5t-96 43.5q-88 0 -147.5 -74t-59.5 -198z" />
<glyph horiz-adv-x="508" d="M85 0l96 543h187q74 0 123 -39t49 -110q0 -96 -70 -150t-164 -54h-94l-34 -190h-93zM224 258h94q59 0 92.5 32.5t33.5 100.5q0 84 -88 84h-94z" />
<glyph horiz-adv-x="620" d="M89 217q0 147 92 243.5t227 96.5q101 0 159.5 -63t58.5 -169q0 -111 -54 -195t-143 -121l107 -126h-112l-85 104q-20 -2 -32 -2q-102 0 -160 63t-58 169zM188 218q0 -79 35.5 -122.5t95.5 -43.5q89 0 148.5 74t59.5 198q0 79 -36 122.5t-96 43.5q-88 0 -147.5 -74 t-59.5 -198z" />
<glyph horiz-adv-x="620" d="M89 217q0 147 92 243.5t227 96.5q101 0 159.5 -63t58.5 -169q0 -147 -92 -243.5t-227 -96.5q-102 0 -160 63t-58 169zM186 -121l12 68h293l-13 -68h-292zM188 218q0 -79 35.5 -122.5t95.5 -43.5q89 0 148.5 74t59.5 198q0 79 -36 122.5t-96 43.5q-88 0 -147.5 -74 t-59.5 -198z" />
<glyph horiz-adv-x="524" d="M85 0l96 543h183q74 0 123 -37t49 -106q0 -73 -44 -120t-114 -65l121 -215h-105l-105 206h-75l-36 -206h-93zM227 273h89q124 0 124 123q0 79 -89 79h-89z" />
<glyph horiz-adv-x="522" d="M76 160h97q-4 -55 28 -82t80 -27q53 0 92 27t39 74q0 39 -31 58t-86 31q-38 8 -63 16t-53 23t-42.5 40t-14.5 59q0 80 65 129t165 49q95 0 146.5 -44.5t41.5 -123.5h-97q4 51 -25.5 76t-77.5 25q-51 0 -87.5 -24.5t-36.5 -67.5q0 -16 7 -29t16 -20.5t26.5 -14.5 t30.5 -10.5t35 -8.5q36 -7 63 -16.5t55 -25.5t43 -41.5t15 -59.5q0 -83 -69.5 -135t-168.5 -52q-97 0 -151 46t-42 129z" />
<glyph horiz-adv-x="447" d="M113 475l12 68h391l-12 -68h-149l-84 -475h-93l84 475h-149z" />
<glyph horiz-adv-x="610" d="M119 185l63 358h93l-60 -343q-26 -148 101 -148q67 0 106.5 38t49.5 95l64 358h84l-61 -343q-17 -100 -86 -157.5t-169 -57.5q-103 0 -152.5 52.5t-32.5 147.5z" />
<glyph horiz-adv-x="527" d="M105 543h100l67 -332l20 -102l52 102l176 332h95l-302 -543h-84z" />
<glyph horiz-adv-x="756" d="M105 543h99l31 -315l9 -101l44 101l148 315h86l42 -315l12 -102l42 102l132 315h94l-249 -543h-84l-43 316l-11 104l-45 -104l-150 -316h-86z" />
<glyph horiz-adv-x="492" d="M14 0l227 272l-128 271h100l85 -192l154 192h99l-214 -255l137 -288h-98l-96 210l-167 -210h-99z" />
<glyph horiz-adv-x="526" d="M134 543h102l87 -265l173 265h91l-235 -338l-37 -205h-93l37 208z" />
<glyph horiz-adv-x="440" d="M38 0l13 68l339 407h-261l12 68h359l-12 -68l-339 -407h267l-12 -68h-366z" />
<glyph horiz-adv-x="782" d="M7 0l478 543h345l-12 -67h-250l-27 -157h233l-12 -68h-233l-32 -183h249l-12 -68h-342l25 142h-182l-120 -142h-108zM294 211h135l37 207l-76 -93z" />
<glyph d="M43 235l12 68h84l42 240h171q121 0 187.5 -58.5t66.5 -164.5q0 -147 -95.5 -233.5t-254.5 -86.5h-171l42 235h-84zM191 68h77q108 0 173.5 60t65.5 189q0 82 -45 120t-123 38h-77l-30 -172h106l-12 -68h-106z" />
<glyph horiz-adv-x="751" d="M85 0l96 543h93l-96 -543h-93zM322 176h102q-8 -65 12.5 -94.5t57.5 -29.5q45 0 74.5 26.5t38.5 76.5l68 388h93l-66 -372q-16 -91 -75 -138.5t-146 -47.5q-79 0 -126.5 46.5t-32.5 144.5z" />
<glyph horiz-adv-x="616" d="M85 0l96 543h97l191 -424l16 99l57 325h84l-96 -543q-17 -93 -74 -133t-135 -40q-44 0 -67 13l11 66q34 -9 66 -9q94 0 110 89l-199 437l-15 -98l-58 -325h-84z" />
<glyph horiz-adv-x="620" d="M57 -70l88 120q-56 64 -56 167q0 147 92 243.5t227 96.5q54 0 94 -18l53 73h103l-88 -121q56 -62 56 -166q0 -147 -92 -243.5t-227 -96.5q-52 0 -94 17l-53 -72h-103zM188 218q0 -52 15 -88l253 346q-28 14 -61 14q-88 0 -147.5 -74t-59.5 -198zM259 66q28 -14 60 -14 q89 0 148.5 74t59.5 198q0 52 -15 88z" />
<glyph horiz-adv-x="787" d="M89 222q0 147 96 234t255 87h395l-12 -68h-250l-27 -156h233l-12 -68h-233l-32 -183h249l-12 -68h-395q-121 0 -188 58.5t-67 163.5zM188 225q0 -157 168 -157h53l71 407h-52q-109 0 -174.5 -60t-65.5 -190z" />
<glyph horiz-adv-x="507" d="M85 0l96 543h93l-15 -87h94q74 0 122.5 -39t48.5 -110q0 -95 -70 -149t-164 -54h-93l-19 -104h-93zM209 171h94q58 0 91.5 32.5t33.5 100.5q0 84 -88 84h-93z" />
<glyph horiz-adv-x="632" d="M85 0l53 301q22 122 93.5 182t179.5 60h183l-12 -68l-151 -167q70 -15 99 -57t29 -89q0 -82 -60.5 -129.5t-134.5 -47.5q-67 0 -100.5 34t-23.5 92h82q-2 -28 13 -44.5t44 -16.5q37 0 61.5 28t24.5 75q0 42 -29 68t-84 26h-23l12 67l144 161h-88q-65 0 -106.5 -36.5 t-57.5 -127.5l-55 -311h-93z" />
<glyph horiz-adv-x="527" d="M7 0l302 543h84l124 -543h-99l-28 142h-212l-75 -142h-96zM214 211h162l-26 128l-18 98l-50 -98zM274 583l121 109h122l-155 -109h-88z" />
<glyph horiz-adv-x="527" d="M7 0l302 543h84l124 -543h-99l-28 142h-212l-75 -142h-96zM214 211h162l-26 128l-18 98l-50 -98zM247 692h66q-4 -21 8.5 -33.5t43.5 -12.5q56 0 65 46h69q-9 -55 -49.5 -85.5t-96.5 -30.5t-85.5 30.5t-20.5 85.5z" />
<glyph horiz-adv-x="527" d="M7 0l302 543h84l124 -543h-99l-28 142h-212l-75 -142h-96zM195 583l144 109h72l104 -109h-83l-68 44l-82 -44h-87zM214 211h162l-26 128l-18 98l-50 -98z" />
<glyph horiz-adv-x="527" d="M7 0l302 543h84l124 -543h-99l-28 142h-212l-75 -142h-96zM214 211h162l-26 128l-18 98l-50 -98zM223 634q0 25 20 42t44 17q20 0 33.5 -12.5t13.5 -31.5q0 -25 -20 -42t-45 -17q-20 0 -33 12.5t-13 31.5zM395 634q0 25 20 42t44 17q20 0 33.5 -12.5t13.5 -31.5 q0 -25 -20 -42t-45 -17q-20 0 -33 12.5t-13 31.5z" />
<glyph horiz-adv-x="527" d="M7 0l302 543h84l124 -543h-99l-28 142h-212l-75 -142h-96zM214 211h162l-26 128l-18 98l-50 -98zM233 692h113l91 -109h-79z" />
<glyph horiz-adv-x="527" d="M7 0l302 543h84l124 -543h-99l-28 142h-212l-75 -142h-96zM214 211h162l-26 128l-18 98l-50 -98zM232 603l11 65h254l-11 -65h-254z" />
<glyph horiz-adv-x="527" d="M7 0l302 543h84l124 -543h-1q-147 -69 -147 -145q0 -19 12 -30t30 -11q34 0 76 22l-10 -60q-48 -24 -100 -24q-42 0 -66 23.5t-24 60.5q0 93 140 164h-9l-28 142h-212l-75 -142h-96zM214 211h162l-26 128l-18 98l-50 -98z" />
<glyph horiz-adv-x="527" d="M7 0l302 543h84l124 -543h-99l-28 142h-212l-75 -142h-96zM214 211h162l-26 128l-18 98l-50 -98zM276 627q0 39 30.5 62.5t74.5 23.5q36 0 57.5 -17t21.5 -47q0 -38 -30.5 -61.5t-74.5 -23.5q-36 0 -57.5 17t-21.5 46zM338 628q5 -23 30 -18q33 3 30 38q-5 23 -30 18 q-33 -3 -30 -38z" />
<glyph horiz-adv-x="527" d="M7 0l302 543h84l124 -543h-99l-28 142h-212l-75 -142h-96zM212 619q43 72 101 72q23 0 62.5 -16t51.5 -16q22 0 44 29l46 -25q-42 -72 -101 -72q-23 0 -63 15.5t-52 15.5q-22 0 -43 -28zM214 211h162l-26 128l-18 98l-50 -98z" />
<glyph horiz-adv-x="567" d="M88 210q0 151 83 249t219 98q86 0 143 -49.5t53 -140.5h-102q3 63 -27 93t-80 30q-86 0 -138 -77.5t-52 -202.5q0 -76 29.5 -117t84.5 -41q50 0 90 30.5t59 92.5h101q-28 -91 -102 -140.5t-160 -49.5q-97 0 -149 60.5t-52 164.5zM296 583l121 109h122l-155 -109h-88z" />
<glyph horiz-adv-x="567" d="M88 210q0 151 83 249t219 98q86 0 143 -49.5t53 -140.5h-102q3 63 -27 93t-80 30q-86 0 -138 -77.5t-52 -202.5q0 -76 29.5 -117t84.5 -41q50 0 90 30.5t59 92.5h101q-28 -91 -102 -140.5t-160 -49.5q-97 0 -149 60.5t-52 164.5zM245 692h83l67 -44l83 44h87l-143 -109 h-72z" />
<glyph horiz-adv-x="567" d="M88 210q0 151 83 249t219 98q86 0 143 -49.5t53 -140.5h-102q3 63 -27 93t-80 30q-86 0 -138 -77.5t-52 -202.5q0 -76 29.5 -117t84.5 -41q50 0 90 30.5t59 92.5h101q-26 -84 -91.5 -133t-145.5 -56l-48 -52q42 3 70 -14.5t28 -55.5q0 -51 -43 -81.5t-98 -30.5 q-41 0 -68 14l9 54q25 -13 62 -13q24 0 44 12t20 34q0 17 -14.5 26t-34.5 9q-25 0 -43 -6l-14 34l67 72q-79 12 -121 71t-42 151z" />
<glyph horiz-adv-x="567" d="M88 210q0 151 83 249t219 98q86 0 143 -49.5t53 -140.5h-102q3 63 -27 93t-80 30q-86 0 -138 -77.5t-52 -202.5q0 -76 29.5 -117t84.5 -41q50 0 90 30.5t59 92.5h101q-28 -91 -102 -140.5t-160 -49.5q-97 0 -149 60.5t-52 164.5zM226 583l144 109h72l104 -109h-83l-68 44 l-82 -44h-87z" />
<glyph horiz-adv-x="567" d="M88 210q0 151 83 249t219 98q86 0 143 -49.5t53 -140.5h-102q3 63 -27 93t-80 30q-86 0 -138 -77.5t-52 -202.5q0 -76 29.5 -117t84.5 -41q50 0 90 30.5t59 92.5h101q-28 -91 -102 -140.5t-160 -49.5q-97 0 -149 60.5t-52 164.5zM340 633q0 25 20 42.5t45 17.5 q20 0 33.5 -12.5t13.5 -31.5q0 -25 -20 -42.5t-46 -17.5q-19 0 -32.5 12.5t-13.5 31.5z" />
<glyph d="M85 0l96 543h171q121 0 187.5 -58.5t66.5 -164.5q0 -147 -95.5 -233.5t-254.5 -86.5h-171zM191 68h77q108 0 173.5 60t65.5 189q0 82 -45 120t-123 38h-77zM231 692h83l67 -44l83 44h87l-143 -109h-72z" />
<glyph d="M43 235l12 68h84l42 240h171q121 0 187.5 -58.5t66.5 -164.5q0 -147 -95.5 -233.5t-254.5 -86.5h-171l42 235h-84zM191 68h77q108 0 173.5 60t65.5 189q0 82 -45 120t-123 38h-77l-30 -172h106l-12 -68h-106z" />
<glyph horiz-adv-x="476" d="M85 0l96 543h343l-13 -68h-249l-27 -156h233l-12 -68h-234l-31 -183h249l-12 -68h-343zM250 583l121 109h122l-155 -109h-88z" />
<glyph horiz-adv-x="476" d="M85 0l96 543h343l-13 -68h-249l-27 -156h233l-12 -68h-234l-31 -183h249l-12 -68h-343zM247 692h66q-4 -21 8.5 -33.5t43.5 -12.5q56 0 65 46h69q-9 -55 -49.5 -85.5t-96.5 -30.5t-85.5 30.5t-20.5 85.5z" />
<glyph horiz-adv-x="476" d="M85 0l96 543h343l-13 -68h-249l-27 -156h233l-12 -68h-234l-31 -183h249l-12 -68h-343zM213 692h83l67 -44l83 44h87l-143 -109h-72z" />
<glyph horiz-adv-x="476" d="M85 0l96 543h343l-13 -68h-249l-27 -156h233l-12 -68h-234l-31 -183h249l-12 -68h-343zM194 583l144 109h72l104 -109h-83l-68 44l-82 -44h-87z" />
<glyph horiz-adv-x="476" d="M85 0l96 543h343l-13 -68h-249l-27 -156h233l-12 -68h-234l-31 -183h249l-12 -68h-343zM223 634q0 25 20 42t44 17q20 0 33.5 -12.5t13.5 -31.5q0 -25 -20 -42t-45 -17q-20 0 -33 12.5t-13 31.5zM395 634q0 25 20 42t44 17q20 0 33.5 -12.5t13.5 -31.5q0 -25 -20 -42 t-45 -17q-20 0 -33 12.5t-13 31.5z" />
<glyph horiz-adv-x="476" d="M85 0l96 543h343l-13 -68h-249l-27 -156h233l-12 -68h-234l-31 -183h249l-12 -68h-343zM307 633q0 25 20 42.5t45 17.5q20 0 33.5 -12.5t13.5 -31.5q0 -25 -20 -42.5t-46 -17.5q-19 0 -32.5 12.5t-13.5 31.5z" />
<glyph horiz-adv-x="476" d="M85 0l96 543h343l-13 -68h-249l-27 -156h233l-12 -68h-234l-31 -183h249l-12 -68h-343zM236 692h113l91 -109h-79z" />
<glyph horiz-adv-x="476" d="M85 0l96 543h343l-13 -68h-249l-27 -156h233l-12 -68h-234l-31 -183h249l-12 -68h-343zM230 603l11 65h254l-11 -65h-254z" />
<glyph horiz-adv-x="476" d="M85 0l96 543h343l-13 -68h-249l-27 -156h233l-12 -68h-234l-31 -183h249l-12 -68h-1q-147 -69 -147 -145q0 -19 12 -30t30 -11q34 0 76 22l-10 -60q-48 -24 -100 -24q-42 0 -66 23.5t-24 60.5q0 93 140 164h-253z" />
<glyph horiz-adv-x="578" d="M87 202q0 156 83 255.5t220 99.5q85 0 142.5 -47.5t54.5 -131.5h-102q1 56 -29 84t-79 28q-87 0 -139 -78.5t-52 -206.5q0 -153 110 -153q77 0 148 62l17 92h-131l12 67h221l-48 -273h-91l9 50q-32 -28 -78.5 -46.5t-89.5 -18.5q-86 0 -132 58.5t-46 158.5zM280 692h66 q-4 -21 8.5 -33.5t43.5 -12.5q56 0 65 46h69q-9 -55 -49.5 -85.5t-96.5 -30.5t-85.5 30.5t-20.5 85.5z" />
<glyph horiz-adv-x="578" d="M87 202q0 156 83 255.5t220 99.5q85 0 142.5 -47.5t54.5 -131.5h-102q1 56 -29 84t-79 28q-87 0 -139 -78.5t-52 -206.5q0 -153 110 -153q77 0 148 62l17 92h-131l12 67h221l-48 -273h-91l9 50q-32 -28 -78.5 -46.5t-89.5 -18.5q-86 0 -132 58.5t-46 158.5zM228 583 l144 109h72l104 -109h-83l-68 44l-82 -44h-87z" />
<glyph horiz-adv-x="578" d="M87 202q0 156 83 255.5t220 99.5q85 0 142.5 -47.5t54.5 -131.5h-102q1 56 -29 84t-79 28q-87 0 -139 -78.5t-52 -206.5q0 -153 110 -153q77 0 148 62l17 92h-131l12 67h221l-48 -273h-91l9 50q-32 -28 -78.5 -46.5t-89.5 -18.5q-86 0 -132 58.5t-46 158.5zM185 -248 l53 183h90l-74 -183h-69z" />
<glyph horiz-adv-x="578" d="M87 202q0 156 83 255.5t220 99.5q85 0 142.5 -47.5t54.5 -131.5h-102q1 56 -29 84t-79 28q-87 0 -139 -78.5t-52 -206.5q0 -153 110 -153q77 0 148 62l17 92h-131l12 67h221l-48 -273h-91l9 50q-32 -28 -78.5 -46.5t-89.5 -18.5q-86 0 -132 58.5t-46 158.5zM341 633 q0 25 20 42.5t45 17.5q20 0 33.5 -12.5t13.5 -31.5q0 -25 -20 -42.5t-46 -17.5q-19 0 -32.5 12.5t-13.5 31.5z" />
<glyph horiz-adv-x="626" d="M85 0l70 394h-57l12 69h57l14 80h93l-14 -80h270l14 80h92l-14 -80h56l-12 -69h-56l-70 -394h-92l43 246h-269l-44 -246h-93zM234 314h270l14 80h-270z" />
<glyph horiz-adv-x="626" d="M85 0l96 543h93l-39 -224h269l40 224h92l-96 -543h-92l44 251h-270l-44 -251h-93zM255 583l144 109h72l104 -109h-83l-68 44l-82 -44h-87z" />
<glyph horiz-adv-x="265" d="M85 0l96 543h93l-96 -543h-93zM154 583l121 109h122l-155 -109h-88z" />
<glyph horiz-adv-x="265" d="M85 0l96 543h93l-96 -543h-93zM129 692h66q-4 -21 8.5 -33.5t43.5 -12.5q56 0 65 46h69q-9 -55 -49.5 -85.5t-96.5 -30.5t-85.5 30.5t-20.5 85.5z" />
<glyph horiz-adv-x="265" d="M77 583l144 109h72l104 -109h-83l-68 44l-82 -44h-87zM85 0l96 543h93l-96 -543h-93z" />
<glyph horiz-adv-x="265" d="M85 0l96 543h93l-96 -543h-93zM114 634q0 25 20 42t45 17q20 0 33 -12.5t13 -31.5q0 -25 -19.5 -42t-45.5 -17q-19 0 -32.5 12.5t-13.5 31.5zM267 634q0 25 20 42t45 17q20 0 33 -12.5t13 -31.5q0 -25 -19.5 -42t-45.5 -17q-19 0 -32.5 12.5t-13.5 31.5z" />
<glyph horiz-adv-x="265" d="M85 0l96 543h93l-96 -543h-93zM114 692h113l91 -109h-79z" />
<glyph horiz-adv-x="265" d="M85 0l96 543h93l-96 -543h-93zM115 603l11 65h251l-11 -65h-251z" />
<glyph horiz-adv-x="265" d="M-51 -164q0 93 140 164h-4l96 543h93l-96 -543q-147 -69 -147 -145q0 -19 12 -30t30 -11q34 0 76 22l-10 -60q-48 -24 -100 -24q-42 0 -66 23.5t-24 60.5z" />
<glyph horiz-adv-x="265" d="M85 0l96 543h93l-96 -543h-93zM95 619q43 72 101 72q23 0 62.5 -16t51.5 -16q22 0 44 29l46 -25q-42 -72 -101 -72q-23 0 -63 15.5t-52 15.5q-22 0 -43 -28z" />
<glyph horiz-adv-x="486" d="M58 176h102q-8 -65 12.5 -94.5t57.5 -29.5q45 0 74.5 26.5t38.5 76.5l68 388h93l-66 -372q-16 -91 -75 -138.5t-146 -47.5q-79 0 -126.5 46.5t-32.5 144.5zM305 583l144 109h72l104 -109h-83l-68 44l-82 -44h-87z" />
<glyph horiz-adv-x="539" d="M85 0l96 543h93l-46 -257l245 257h104l-253 -258l189 -285h-110l-175 280l-50 -280h-93zM151 -248l53 183h90l-74 -183h-69z" />
<glyph horiz-adv-x="467" d="M96 0l96 543h93l-84 -475h223l-13 -68h-315zM181 583l121 109h122l-155 -109h-88z" />
<glyph horiz-adv-x="467" d="M96 0l96 543h93l-84 -475h223l-13 -68h-315zM349 379l40 223h88l-60 -223h-68z" />
<glyph horiz-adv-x="467" d="M96 0l96 543h93l-84 -475h223l-13 -68h-315zM142 -248l53 183h90l-74 -183h-69z" />
<glyph horiz-adv-x="467" d="M96 0l96 543h93l-84 -475h223l-13 -68h-315zM366 258q0 25 20 42.5t45 17.5q20 0 33.5 -12.5t13.5 -31.5q0 -25 -20 -42.5t-46 -17.5q-19 0 -32.5 12.5t-13.5 31.5z" />
<glyph horiz-adv-x="467" d="M61 167l15 81l70 37l46 258h93l-36 -205l114 60l-15 -80l-113 -60l-34 -190h223l-13 -68h-315l36 204z" />
<glyph horiz-adv-x="616" d="M85 0l96 543h97l191 -424l16 99l57 325h84l-96 -543h-96l-192 423l-15 -98l-58 -325h-84zM327 583l121 109h122l-155 -109h-88z" />
<glyph horiz-adv-x="616" d="M85 0l96 543h97l191 -424l16 99l57 325h84l-96 -543h-96l-192 423l-15 -98l-58 -325h-84zM268 692h83l67 -44l83 44h87l-143 -109h-72z" />
<glyph horiz-adv-x="616" d="M85 0l96 543h97l191 -424l16 99l57 325h84l-96 -543h-96l-192 423l-15 -98l-58 -325h-84zM210 -248l53 183h90l-74 -183h-69z" />
<glyph horiz-adv-x="616" d="M85 0l96 543h97l191 -424l16 99l57 325h84l-96 -543h-96l-192 423l-15 -98l-58 -325h-84zM266 619q43 72 101 72q23 0 62.5 -16t51.5 -16q22 0 44 29l46 -25q-42 -72 -101 -72q-23 0 -63 15.5t-52 15.5q-22 0 -43 -28z" />
<glyph horiz-adv-x="620" d="M89 217q0 147 92 243.5t227 96.5q101 0 159.5 -63t58.5 -169q0 -147 -92 -243.5t-227 -96.5q-102 0 -160 63t-58 169zM188 218q0 -79 35.5 -122.5t95.5 -43.5q89 0 148.5 74t59.5 198q0 79 -36 122.5t-96 43.5q-88 0 -147.5 -74t-59.5 -198zM329 583l121 109h122 l-155 -109h-88z" />
<glyph horiz-adv-x="620" d="M89 217q0 147 92 243.5t227 96.5q101 0 159.5 -63t58.5 -169q0 -147 -92 -243.5t-227 -96.5q-102 0 -160 63t-58 169zM188 218q0 -79 35.5 -122.5t95.5 -43.5q89 0 148.5 74t59.5 198q0 79 -36 122.5t-96 43.5q-88 0 -147.5 -74t-59.5 -198zM305 692h66q-4 -21 8.5 -33.5 t43.5 -12.5q56 0 65 46h69q-9 -55 -49.5 -85.5t-96.5 -30.5t-85.5 30.5t-20.5 85.5z" />
<glyph horiz-adv-x="620" d="M89 217q0 147 92 243.5t227 96.5q101 0 159.5 -63t58.5 -169q0 -147 -92 -243.5t-227 -96.5q-102 0 -160 63t-58 169zM188 218q0 -79 35.5 -122.5t95.5 -43.5q89 0 148.5 74t59.5 198q0 79 -36 122.5t-96 43.5q-88 0 -147.5 -74t-59.5 -198zM253 583l144 109h72l104 -109 h-83l-68 44l-82 -44h-87z" />
<glyph horiz-adv-x="620" d="M89 217q0 147 92 243.5t227 96.5q101 0 159.5 -63t58.5 -169q0 -147 -92 -243.5t-227 -96.5q-102 0 -160 63t-58 169zM188 218q0 -79 35.5 -122.5t95.5 -43.5q89 0 148.5 74t59.5 198q0 79 -36 122.5t-96 43.5q-88 0 -147.5 -74t-59.5 -198zM281 634q0 25 20 42t44 17 q20 0 33.5 -12.5t13.5 -31.5q0 -25 -20 -42t-45 -17q-20 0 -33 12.5t-13 31.5zM453 634q0 25 20 42t44 17q20 0 33.5 -12.5t13.5 -31.5q0 -25 -20 -42t-45 -17q-20 0 -33 12.5t-13 31.5z" />
<glyph horiz-adv-x="620" d="M89 217q0 147 92 243.5t227 96.5q101 0 159.5 -63t58.5 -169q0 -147 -92 -243.5t-227 -96.5q-102 0 -160 63t-58 169zM188 218q0 -79 35.5 -122.5t95.5 -43.5q89 0 148.5 74t59.5 198q0 79 -36 122.5t-96 43.5q-88 0 -147.5 -74t-59.5 -198zM291 692h113l91 -109h-79z " />
<glyph horiz-adv-x="620" d="M89 217q0 147 92 243.5t227 96.5q101 0 159.5 -63t58.5 -169q0 -147 -92 -243.5t-227 -96.5q-102 0 -160 63t-58 169zM188 218q0 -79 35.5 -122.5t95.5 -43.5q89 0 148.5 74t59.5 198q0 79 -36 122.5t-96 43.5q-88 0 -147.5 -74t-59.5 -198zM262 583l106 109h114 l-139 -109h-81zM422 583l106 109h114l-139 -109h-81z" />
<glyph horiz-adv-x="620" d="M89 217q0 147 92 243.5t227 96.5q101 0 159.5 -63t58.5 -169q0 -147 -92 -243.5t-227 -96.5q-102 0 -160 63t-58 169zM188 218q0 -79 35.5 -122.5t95.5 -43.5q89 0 148.5 74t59.5 198q0 79 -36 122.5t-96 43.5q-88 0 -147.5 -74t-59.5 -198zM289 603l11 65h254l-11 -65 h-254z" />
<glyph horiz-adv-x="620" d="M89 217q0 147 92 243.5t227 96.5q101 0 159.5 -63t58.5 -169q0 -147 -92 -243.5t-227 -96.5q-102 0 -160 63t-58 169zM188 218q0 -79 35.5 -122.5t95.5 -43.5q89 0 148.5 74t59.5 198q0 79 -36 122.5t-96 43.5q-88 0 -147.5 -74t-59.5 -198zM270 619q43 72 101 72 q23 0 62.5 -16t51.5 -16q22 0 44 29l46 -25q-42 -72 -101 -72q-23 0 -63 15.5t-52 15.5q-22 0 -43 -28z" />
<glyph horiz-adv-x="524" d="M85 0l96 543h183q74 0 123 -37t49 -106q0 -73 -44 -120t-114 -65l121 -215h-105l-105 206h-75l-36 -206h-93zM227 273h89q124 0 124 123q0 79 -89 79h-89zM255 583l121 109h122l-155 -109h-88z" />
<glyph horiz-adv-x="524" d="M85 0l96 543h183q74 0 123 -37t49 -106q0 -73 -44 -120t-114 -65l121 -215h-105l-105 206h-75l-36 -206h-93zM210 692h83l67 -44l83 44h87l-143 -109h-72zM227 273h89q124 0 124 123q0 79 -89 79h-89z" />
<glyph horiz-adv-x="524" d="M85 0l96 543h183q74 0 123 -37t49 -106q0 -73 -44 -120t-114 -65l121 -215h-105l-105 206h-75l-36 -206h-93zM154 -248l53 183h90l-74 -183h-69zM227 273h89q124 0 124 123q0 79 -89 79h-89z" />
<glyph horiz-adv-x="522" d="M76 160h97q-4 -55 28 -82t80 -27q53 0 92 27t39 74q0 39 -31 58t-86 31q-38 8 -63 16t-53 23t-42.5 40t-14.5 59q0 80 65 129t165 49q95 0 146.5 -44.5t41.5 -123.5h-97q4 51 -25.5 76t-77.5 25q-51 0 -87.5 -24.5t-36.5 -67.5q0 -16 7 -29t16 -20.5t26.5 -14.5 t30.5 -10.5t35 -8.5q36 -7 63 -16.5t55 -25.5t43 -41.5t15 -59.5q0 -83 -69.5 -135t-168.5 -52q-97 0 -151 46t-42 129zM272 583l121 109h122l-155 -109h-88z" />
<glyph horiz-adv-x="522" d="M76 160h97q-4 -55 28 -82t80 -27q53 0 92 27t39 74q0 39 -31 58t-86 31q-38 8 -63 16t-53 23t-42.5 40t-14.5 59q0 80 65 129t165 49q95 0 146.5 -44.5t41.5 -123.5h-97q4 51 -25.5 76t-77.5 25q-51 0 -87.5 -24.5t-36.5 -67.5q0 -16 7 -29t16 -20.5t26.5 -14.5 t30.5 -10.5t35 -8.5q36 -7 63 -16.5t55 -25.5t43 -41.5t15 -59.5q0 -83 -69.5 -135t-168.5 -52q-97 0 -151 46t-42 129zM218 692h83l67 -44l83 44h87l-143 -109h-72z" />
<glyph horiz-adv-x="522" d="M76 160h97q-4 -55 28 -82t80 -27q53 0 92 27t39 74q0 39 -31 58t-86 31q-38 8 -63 16t-53 23t-42.5 40t-14.5 59q0 80 65 129t165 49q95 0 146.5 -44.5t41.5 -123.5h-97q4 51 -25.5 76t-77.5 25q-51 0 -87.5 -24.5t-36.5 -67.5q0 -16 7 -29t16 -20.5t26.5 -14.5 t30.5 -10.5t35 -8.5q36 -7 63 -16.5t55 -25.5t43 -41.5t15 -59.5q0 -83 -69.5 -135t-168.5 -52q-97 0 -151 46t-42 129zM153 -248l53 183h90l-74 -183h-69z" />
<glyph horiz-adv-x="522" d="M76 160h97q-4 -55 28 -82t80 -27q53 0 92 27t39 74q0 39 -31 58t-86 31q-38 8 -63 16t-53 23t-42.5 40t-14.5 59q0 80 65 129t165 49q95 0 146.5 -44.5t41.5 -123.5h-97q4 51 -25.5 76t-77.5 25q-51 0 -87.5 -24.5t-36.5 -67.5q0 -16 7 -29t16 -20.5t26.5 -14.5 t30.5 -10.5t35 -8.5q36 -7 63 -16.5t55 -25.5t43 -41.5t15 -59.5q0 -83 -69.5 -135t-168.5 -52q-97 0 -151 46t-42 129zM199 583l144 109h72l104 -109h-83l-68 44l-82 -44h-87z" />
<glyph horiz-adv-x="522" d="M76 160h97q-4 -55 28 -82t80 -27q53 0 92 27t39 74q0 39 -31 58t-86 31q-38 8 -63 16t-53 23t-42.5 40t-14.5 59q0 80 65 129t165 49q95 0 146.5 -44.5t41.5 -123.5h-97q4 51 -25.5 76t-77.5 25q-51 0 -87.5 -24.5t-36.5 -67.5q0 -16 7 -29t16 -20.5t26.5 -14.5 t30.5 -10.5t35 -8.5q36 -7 63 -16.5t55 -25.5t43 -41.5t15 -59.5q0 -80 -64.5 -131t-158.5 -56l-47 -51q42 3 70 -14.5t28 -55.5q0 -51 -43 -81.5t-98 -30.5q-41 0 -68 14l9 54q25 -13 62 -13q24 0 44 12t20 34q0 17 -14.5 26t-34.5 9q-25 0 -43 -6l-14 34l67 72 q-76 11 -116 55.5t-30 116.5z" />
<glyph horiz-adv-x="447" d="M113 475l12 68h391l-12 -68h-149l-30 -172h105l-12 -68h-105l-42 -235h-93l42 235h-104l12 68h104l30 172h-149z" />
<glyph horiz-adv-x="447" d="M113 475l12 68h391l-12 -68h-149l-84 -475h-93l84 475h-149zM187 692h83l67 -44l83 44h87l-143 -109h-72z" />
<glyph horiz-adv-x="447" d="M94 -234l9 54q25 -13 62 -13q24 0 44 12t20 34q0 17 -14.5 26t-34.5 9q-25 0 -43 -6l-14 34l78 84h-23l84 475h-149l12 68h391l-12 -68h-149l-84 -475h-5l-61 -66q42 3 70 -14.5t28 -55.5q0 -51 -43 -81.5t-98 -30.5q-41 0 -68 14z" />
<glyph horiz-adv-x="447" d="M113 475l12 68h391l-12 -68h-149l-84 -475h-93l84 475h-149zM116 -248l53 183h90l-74 -183h-69z" />
<glyph horiz-adv-x="610" d="M119 185l63 358h93l-60 -343q-26 -148 101 -148q67 0 106.5 38t49.5 95l64 358h84l-61 -343q-17 -100 -86 -157.5t-169 -57.5q-103 0 -152.5 52.5t-32.5 147.5zM317 583l121 109h122l-155 -109h-88z" />
<glyph horiz-adv-x="610" d="M119 185l63 358h93l-60 -343q-26 -148 101 -148q67 0 106.5 38t49.5 95l64 358h84l-61 -343q-17 -100 -86 -157.5t-169 -57.5q-103 0 -152.5 52.5t-32.5 147.5zM300 692h66q-4 -21 8.5 -33.5t43.5 -12.5q56 0 65 46h69q-9 -55 -49.5 -85.5t-96.5 -30.5t-85.5 30.5 t-20.5 85.5z" />
<glyph horiz-adv-x="610" d="M119 185l63 358h93l-60 -343q-26 -148 101 -148q67 0 106.5 38t49.5 95l64 358h84l-61 -343q-17 -100 -86 -157.5t-169 -57.5q-103 0 -152.5 52.5t-32.5 147.5zM248 583l144 109h72l104 -109h-83l-68 44l-82 -44h-87z" />
<glyph horiz-adv-x="610" d="M119 185l63 358h93l-60 -343q-26 -148 101 -148q67 0 106.5 38t49.5 95l64 358h84l-61 -343q-17 -100 -86 -157.5t-169 -57.5q-103 0 -152.5 52.5t-32.5 147.5zM276 634q0 25 20 42t44 17q20 0 33.5 -12.5t13.5 -31.5q0 -25 -20 -42t-45 -17q-20 0 -33 12.5t-13 31.5z M448 634q0 25 20 42t44 17q20 0 33.5 -12.5t13.5 -31.5q0 -25 -20 -42t-45 -17q-20 0 -33 12.5t-13 31.5z" />
<glyph horiz-adv-x="610" d="M119 185l63 358h93l-60 -343q-26 -148 101 -148q67 0 106.5 38t49.5 95l64 358h84l-61 -343q-17 -100 -86 -157.5t-169 -57.5q-103 0 -152.5 52.5t-32.5 147.5zM293 692h113l91 -109h-79z" />
<glyph horiz-adv-x="610" d="M119 185l63 358h93l-60 -343q-26 -148 101 -148q67 0 106.5 38t49.5 95l64 358h84l-61 -343q-17 -100 -86 -157.5t-169 -57.5q-103 0 -152.5 52.5t-32.5 147.5zM257 583l106 109h114l-139 -109h-81zM417 583l106 109h114l-139 -109h-81z" />
<glyph horiz-adv-x="610" d="M119 185l63 358h93l-60 -343q-26 -148 101 -148q67 0 106.5 38t49.5 95l64 358h84l-61 -343q-17 -100 -86 -157.5t-169 -57.5q-103 0 -152.5 52.5t-32.5 147.5zM284 603l11 65h254l-11 -65h-254z" />
<glyph horiz-adv-x="610" d="M119 185l63 358h93l-60 -343q-26 -148 101 -148q67 0 106.5 38t49.5 95l64 358h84l-61 -343q-13 -80 -61 -133.5t-120 -72.5q-135 -66 -135 -139q0 -19 12 -30t30 -11q34 0 76 22l-10 -60q-48 -24 -100 -24q-42 0 -66 23.5t-24 60.5q0 84 114 150q-89 8 -130.5 59.5 t-25.5 139.5z" />
<glyph horiz-adv-x="610" d="M119 185l63 358h93l-60 -343q-26 -148 101 -148q67 0 106.5 38t49.5 95l64 358h84l-61 -343q-17 -100 -86 -157.5t-169 -57.5q-103 0 -152.5 52.5t-32.5 147.5zM325 627q0 39 30.5 62.5t74.5 23.5q36 0 57.5 -17t21.5 -47q0 -38 -30.5 -61.5t-74.5 -23.5q-36 0 -57.5 17 t-21.5 46zM387 628q5 -23 30 -18q33 3 30 38q-5 23 -30 18q-33 -3 -30 -38z" />
<glyph horiz-adv-x="610" d="M119 185l63 358h93l-60 -343q-26 -148 101 -148q67 0 106.5 38t49.5 95l64 358h84l-61 -343q-17 -100 -86 -157.5t-169 -57.5q-103 0 -152.5 52.5t-32.5 147.5zM265 619q43 72 101 72q23 0 62.5 -16t51.5 -16q22 0 44 29l46 -25q-42 -72 -101 -72q-23 0 -63 15.5 t-52 15.5q-22 0 -43 -28z" />
<glyph horiz-adv-x="756" d="M105 543h99l31 -315l9 -101l44 101l148 315h86l42 -315l12 -102l42 102l132 315h94l-249 -543h-84l-43 316l-11 104l-45 -104l-150 -316h-86zM408 583l121 109h122l-155 -109h-88z" />
<glyph horiz-adv-x="756" d="M105 543h99l31 -315l9 -101l44 101l148 315h86l42 -315l12 -102l42 102l132 315h94l-249 -543h-84l-43 316l-11 104l-45 -104l-150 -316h-86zM330 583l144 109h72l104 -109h-83l-68 44l-82 -44h-87z" />
<glyph horiz-adv-x="756" d="M105 543h99l31 -315l9 -101l44 101l148 315h86l42 -315l12 -102l42 102l132 315h94l-249 -543h-84l-43 316l-11 104l-45 -104l-150 -316h-86zM359 634q0 25 20 42t44 17q20 0 33.5 -12.5t13.5 -31.5q0 -25 -20 -42t-45 -17q-20 0 -33 12.5t-13 31.5zM531 634q0 25 20 42 t44 17q20 0 33.5 -12.5t13.5 -31.5q0 -25 -20 -42t-45 -17q-20 0 -33 12.5t-13 31.5z" />
<glyph horiz-adv-x="756" d="M105 543h99l31 -315l9 -101l44 101l148 315h86l42 -315l12 -102l42 102l132 315h94l-249 -543h-84l-43 316l-11 104l-45 -104l-150 -316h-86zM359 692h113l91 -109h-79z" />
<glyph horiz-adv-x="526" d="M134 543h102l87 -265l173 265h91l-235 -338l-37 -205h-93l37 208zM287 583l121 109h122l-155 -109h-88z" />
<glyph horiz-adv-x="526" d="M134 543h102l87 -265l173 265h91l-235 -338l-37 -205h-93l37 208zM212 583l144 109h72l104 -109h-83l-68 44l-82 -44h-87z" />
<glyph horiz-adv-x="526" d="M134 543h102l87 -265l173 265h91l-235 -338l-37 -205h-93l37 208zM241 634q0 25 20 42t44 17q20 0 33.5 -12.5t13.5 -31.5q0 -25 -20 -42t-45 -17q-20 0 -33 12.5t-13 31.5zM413 634q0 25 20 42t44 17q20 0 33.5 -12.5t13.5 -31.5q0 -25 -20 -42t-45 -17q-20 0 -33 12.5 t-13 31.5z" />
<glyph horiz-adv-x="526" d="M134 543h102l87 -265l173 265h91l-235 -338l-37 -205h-93l37 208zM243 692h113l91 -109h-79z" />
<glyph horiz-adv-x="440" d="M38 0l13 68l339 407h-261l12 68h359l-12 -68l-339 -407h267l-12 -68h-366zM235 583l121 109h122l-155 -109h-88z" />
<glyph horiz-adv-x="440" d="M38 0l13 68l339 407h-261l12 68h359l-12 -68l-339 -407h267l-12 -68h-366zM188 692h83l67 -44l83 44h87l-143 -109h-72z" />
<glyph horiz-adv-x="440" d="M38 0l13 68l339 407h-261l12 68h359l-12 -68l-339 -407h267l-12 -68h-366zM279 633q0 25 20 42.5t45 17.5q20 0 33.5 -12.5t13.5 -31.5q0 -25 -20 -42.5t-46 -17.5q-19 0 -32.5 12.5t-13.5 31.5z" />
<glyph horiz-adv-x="782" d="M7 0l478 543h345l-12 -67h-250l-27 -157h233l-12 -68h-233l-32 -183h249l-12 -68h-342l25 142h-182l-120 -142h-108zM294 211h135l37 207l-76 -93zM499 583l121 109h122l-155 -109h-88z" />
<glyph d="M95 452l11 65h89l15 91q27 151 186 151q48 0 77 -16l-11 -63q-37 10 -61 10q-83 0 -97 -82l-16 -91h323l-104 -589q-13 -75 -62.5 -113t-128.5 -38q-41 0 -71 16l11 63q30 -10 67 -10q35 0 59.5 20.5t31.5 61.5l92 524h-229l-80 -452h-94l80 452h-88zM527 653 q0 27 22.5 48.5t50.5 21.5q23 0 37.5 -15.5t14.5 -38.5q0 -28 -22 -49t-51 -21q-23 0 -37.5 15.5t-14.5 38.5z" />
<glyph horiz-adv-x="659" d="M95 452l11 65h88l16 91q27 151 186 151q50 0 79 -16l-11 -63q-38 10 -63 10q-83 0 -97 -82l-16 -91h229l25 143h94l-25 -143h117l-11 -65h-118l-79 -452h-94l79 452h-228l-80 -452h-94l80 452h-88z" />
<glyph horiz-adv-x="925" d="M95 452l11 65h88l16 91q27 151 186 151q50 0 79 -16l-11 -63q-38 10 -63 10q-83 0 -97 -82l-16 -91h231l16 91q27 151 186 151q48 0 77 -16l-11 -63q-38 10 -62 10q-81 0 -97 -82l-15 -91h323l-104 -589q-13 -75 -62.5 -113t-128.5 -38q-40 0 -72 16l11 63q32 -10 67 -10 t59.5 20.5t31.5 61.5l93 524h-230l-80 -452h-93l80 452h-231l-80 -452h-94l80 452h-88zM852 653q0 27 22.5 48.5t50.5 21.5q23 0 37.5 -15.5t14.5 -38.5q0 -27 -22.5 -48.5t-50.5 -21.5q-23 0 -37.5 15.5t-14.5 38.5z" />
<glyph horiz-adv-x="983" d="M95 452l11 65h89l15 91q27 151 186 151q50 0 79 -16l-11 -63q-38 10 -63 10q-83 0 -97 -82l-16 -91h231l16 91q27 151 186 151q49 0 78 -16l-11 -63q-37 10 -63 10q-81 0 -97 -82l-15 -91h229l25 143h93l-25 -143h118l-12 -65h-118l-79 -452h-93l79 452h-229l-80 -452 h-93l80 452h-231l-80 -452h-94l80 452h-88z" />
<glyph horiz-adv-x="704" d="M95 452l11 65h117l25 143h93l-25 -143h247l25 143h93l-25 -143h118l-12 -65h-118l-79 -452h-93l79 452h-247l-79 -452h-93l79 452h-116z" />
<glyph horiz-adv-x="341" d="M118 553q0 91 51 141t117 50q43 0 70 -34l4 25h73l-51 -295h-73l5 30q-47 -39 -95 -39q-43 0 -72 31.5t-29 90.5zM194 558q0 -69 54 -69q36 0 75 32l23 135q-25 30 -62 30q-40 0 -65 -32t-25 -96z" />
<glyph horiz-adv-x="341" d="M115 440l74 424h73l-28 -159q50 39 95 39q43 0 72 -31t29 -90q0 -91 -50.5 -141.5t-116.5 -50.5q-45 0 -71 34l-4 -25h-73zM202 519q25 -30 62 -30q40 0 65 32t25 96q0 69 -54 69q-37 0 -75 -33z" />
<glyph horiz-adv-x="320" d="M119 556q0 82 50 135t128 53q55 0 88 -28.5t29 -75.5h-76q-3 51 -50 51q-39 0 -66 -33.5t-27 -102.5q0 -71 56 -71q46 0 68 50h76q-13 -47 -55.5 -75t-97.5 -28q-60 0 -91.5 34t-31.5 91z" />
<glyph horiz-adv-x="341" d="M118 553q0 91 51 141t117 50q44 0 70 -35l27 155h73l-74 -424h-73l5 30q-47 -39 -95 -39q-43 0 -72 31.5t-29 90.5zM194 558q0 -69 54 -69q36 0 75 32l24 134q-24 31 -63 31q-40 0 -65 -32t-25 -96z" />
<glyph horiz-adv-x="321" d="M119 557q0 81 51 134t123 53q70 0 99.5 -42.5t10.5 -126.5h-208q-1 -7 -1 -21q0 -70 56 -70q41 0 62 38h76q-12 -39 -54 -65t-93 -26q-59 0 -90.5 34t-31.5 92zM204 625h130q12 67 -50 67q-59 0 -80 -67z" />
<glyph horiz-adv-x="226" d="M129 681l9 54h53l8 37q17 101 121 101q30 0 48 -9l-8 -53q-24 6 -38 6q-43 0 -51 -45l-7 -37h82l-9 -54h-82l-42 -241h-73l42 241h-53z" />
<glyph horiz-adv-x="341" d="M97 409h75q-2 -22 11.5 -32.5t43.5 -10.5q69 0 81 71l6 35q-48 -40 -95 -40q-43 0 -72 31t-29 90q0 91 50.5 141t117.5 50q43 0 70 -34l4 25h73l-51 -291q-11 -64 -58 -97.5t-106 -33.5q-65 0 -97 25.5t-24 70.5zM194 559q0 -69 54 -69q36 0 75 32l23 134q-25 30 -62 30 q-40 0 -65 -31.5t-25 -95.5z" />
<glyph horiz-adv-x="354" d="M115 440l74 424h73l-29 -164q54 44 109 44q44 0 70.5 -24t18.5 -73l-36 -207h-73l31 181q6 33 -5 48.5t-41 15.5q-39 0 -82 -34l-37 -211h-73z" />
<glyph horiz-adv-x="147" d="M122 440l51 295h73l-52 -295h-72zM179 818q0 21 17 36t38 15q16 0 27 -11t11 -27q0 -21 -16.5 -35.5t-37.5 -14.5q-17 0 -28 10.5t-11 26.5z" />
<glyph horiz-adv-x="147" d="M101 321l72 414h73l-73 -414h-72zM179 818q0 21 17 36t38 15q16 0 27 -11t11 -27q0 -21 -16.5 -35.5t-37.5 -14.5q-17 0 -28 10.5t-11 26.5z" />
<glyph horiz-adv-x="298" d="M115 440l74 424h73l-46 -264l127 135h81l-135 -139l97 -156h-81l-90 154l-27 -154h-73z" />
<glyph horiz-adv-x="147" d="M115 440l74 424h73l-74 -424h-73z" />
<glyph horiz-adv-x="553" d="M115 440l51 295h73l-7 -42l1 7q54 44 107 44q66 0 84 -46q58 46 119 46q44 0 70 -24t17 -73l-36 -207h-73l31 181q12 64 -44 64q-41 0 -81 -36v-2l-36 -207h-73l31 181q12 64 -44 64q-39 0 -81 -35l-36 -210h-73z" />
<glyph horiz-adv-x="354" d="M115 440l51 295h73l-7 -42l1 7q54 44 109 44q44 0 70.5 -24t18.5 -73l-36 -207h-73l31 181q6 33 -5 48.5t-41 15.5q-41 0 -83 -35l-36 -210h-73z" />
<glyph horiz-adv-x="344" d="M119 560q0 79 52.5 131.5t131.5 52.5q60 0 94.5 -35t34.5 -93q0 -80 -52.5 -132.5t-131.5 -52.5q-60 0 -94.5 35.5t-34.5 93.5zM195 559q0 -75 62 -75q47 0 73.5 35.5t26.5 96.5q0 75 -62 75q-47 0 -73.5 -35.5t-26.5 -96.5z" />
<glyph horiz-adv-x="341" d="M94 321l72 414h73l-5 -30q49 39 95 39q43 0 72 -31t29 -90q0 -91 -50.5 -141.5t-116.5 -50.5q-46 0 -71 35l-25 -145h-73zM201 519q25 -30 63 -30q40 0 65 32t25 96q0 69 -54 69q-37 0 -75 -33l2 15z" />
<glyph horiz-adv-x="341" d="M118 553q0 91 51 141t117 50q43 0 70 -34l4 25h73l-72 -414h-73l26 149q-48 -39 -95 -39q-43 0 -72 31.5t-29 90.5zM194 558q0 -69 54 -69q38 0 75 32l23 135q-25 30 -62 30q-40 0 -65 -32t-25 -96z" />
<glyph horiz-adv-x="240" d="M115 440l51 295h74l-7 -42q49 51 90 51q23 0 35 -15l-10 -60q-21 9 -40 9q-50 0 -85 -40l-34 -198h-74z" />
<glyph horiz-adv-x="300" d="M112 528h75q-1 -19 12.5 -32t41.5 -13t45.5 11.5t17.5 31.5q0 16 -14.5 24t-52.5 13q-23 4 -38.5 8t-32 12t-24.5 22.5t-8 34.5q0 48 40.5 76t104.5 28q55 0 85.5 -24.5t25.5 -63.5h-76q1 17 -11.5 26.5t-35.5 9.5q-27 0 -43.5 -10t-16.5 -27q0 -15 13 -22t49 -13 q34 -6 53 -11.5t37 -22.5t18 -44q0 -48 -42 -79.5t-105 -31.5q-61 0 -92.5 27.5t-25.5 69.5z" />
<glyph horiz-adv-x="238" d="M129 681l9 54h54l14 81h73l-14 -81h79l-9 -54h-80l-25 -145q-5 -25 0 -37t25 -12q22 0 52 10l-9 -52q-33 -14 -71 -14q-89 0 -72 93l27 157h-53z" />
<glyph horiz-adv-x="350" d="M130 528l36 207h73l-31 -181q-6 -34 4 -49t40 -15q43 0 81 35l37 210h72l-51 -295h-73l6 33q-57 -42 -106 -42q-44 0 -70 23.5t-18 73.5z" />
<glyph horiz-adv-x="321" d="M138 735h77l26 -140l14 -75l112 215h73l-168 -295h-63z" />
<glyph horiz-adv-x="492" d="M138 735h76l19 -139l9 -74l35 74l67 139h63l21 -139l11 -74l34 74l66 139h73l-157 -295h-63l-19 137l-10 74l-36 -74l-66 -137h-64z" />
<glyph horiz-adv-x="320" d="M87 440l136 153l-79 142h79l46 -91l77 91h78l-122 -137l87 -158h-78l-55 107l-91 -107h-78z" />
<glyph horiz-adv-x="321" d="M135 321l72 124l-69 290h77l26 -140l14 -75l112 215h73l-235 -414h-70z" />
<glyph horiz-adv-x="277" d="M96 440l9 54l189 187h-149l9 54h233l-9 -54l-188 -187h155l-9 -54h-240z" />
<glyph horiz-adv-x="341" d="M19 -7q0 91 51 141t117 50q43 0 70 -34l4 25h73l-51 -295h-73l5 30q-47 -39 -95 -39q-43 0 -72 31.5t-29 90.5zM95 -2q0 -69 54 -69q36 0 75 32l23 135q-25 30 -62 30q-40 0 -65 -32t-25 -96z" />
<glyph horiz-adv-x="341" d="M16 -120l74 424h73l-28 -159q50 39 95 39q43 0 72 -31t29 -90q0 -91 -50.5 -141.5t-116.5 -50.5q-46 0 -71 34l-4 -25h-73zM103 -41q25 -30 62 -30q40 0 65 32t25 96q0 69 -54 69q-37 0 -75 -33z" />
<glyph horiz-adv-x="320" d="M20 -4q0 82 50 135t128 53q55 0 88 -28.5t29 -75.5h-76q-3 51 -50 51q-39 0 -66 -33.5t-27 -102.5q0 -71 56 -71q46 0 68 50h76q-13 -47 -55.5 -75t-97.5 -28q-60 0 -91.5 34t-31.5 91z" />
<glyph horiz-adv-x="341" d="M19 -7q0 91 51 141t117 50q44 0 70 -35l27 155h73l-74 -424h-73l5 30q-47 -39 -95 -39q-43 0 -72 31.5t-29 90.5zM95 -2q0 -69 54 -69q36 0 75 32l24 134q-24 31 -63 31q-40 0 -65 -32t-25 -96z" />
<glyph horiz-adv-x="321" d="M20 -3q0 81 51 134t123 53q70 0 99.5 -42.5t10.5 -126.5h-208q-1 -7 -1 -21q0 -70 56 -70q41 0 62 38h76q-12 -39 -54 -65t-93 -26q-59 0 -90.5 34t-31.5 92zM105 65h130q12 67 -50 67q-59 0 -80 -67z" />
<glyph horiz-adv-x="226" d="M30 121l9 54h53l8 37q17 101 121 101q30 0 48 -9l-8 -53q-24 6 -38 6q-43 0 -51 -45l-7 -37h82l-9 -54h-82l-42 -241h-73l42 241h-53z" />
<glyph horiz-adv-x="341" d="M-1 -151h75q-2 -22 11.5 -32.5t43.5 -10.5q69 0 81 71l6 35q-48 -40 -95 -40q-43 0 -72 31t-29 90q0 91 50.5 141t117.5 50q43 0 70 -34l4 25h73l-51 -291q-11 -64 -58 -97.5t-106 -33.5q-65 0 -97 25.5t-24 70.5zM96 -1q0 -69 54 -69q36 0 75 32l23 134q-25 30 -62 30 q-40 0 -65 -31.5t-25 -95.5z" />
<glyph horiz-adv-x="354" d="M16 -120l74 424h73l-29 -164q54 44 109 44q44 0 70.5 -24t18.5 -73l-36 -207h-73l31 181q6 33 -5 48.5t-41 15.5q-39 0 -82 -34l-37 -211h-73z" />
<glyph horiz-adv-x="147" d="M23 -120l51 295h73l-52 -295h-72zM80 258q0 21 17 36t38 15q16 0 27 -11t11 -27q0 -21 -16.5 -35.5t-37.5 -14.5q-17 0 -28 10.5t-11 26.5z" />
<glyph horiz-adv-x="147" d="M3 -239l72 414h73l-73 -414h-72zM81 258q0 21 17 36t38 15q16 0 27 -11t11 -27q0 -21 -16.5 -35.5t-37.5 -14.5q-17 0 -28 10.5t-11 26.5z" />
<glyph horiz-adv-x="298" d="M16 -120l74 424h73l-46 -264l127 135h81l-135 -139l97 -156h-81l-90 154l-27 -154h-73z" />
<glyph horiz-adv-x="147" d="M16 -120l74 424h73l-74 -424h-73z" />
<glyph horiz-adv-x="553" d="M16 -120l51 295h73l-7 -42l1 7q54 44 107 44q66 0 84 -46q57 46 119 46q44 0 70 -24t17 -73l-36 -207h-73l31 181q12 64 -44 64q-41 0 -81 -36v-2l-36 -207h-73l31 181q12 64 -44 64q-39 0 -81 -35l-36 -210h-73z" />
<glyph horiz-adv-x="354" d="M16 -120l51 295h73l-7 -42l1 7q54 44 109 44q44 0 70.5 -24t18.5 -73l-36 -207h-73l31 181q6 33 -5 48.5t-41 15.5q-41 0 -83 -35l-36 -210h-73z" />
<glyph horiz-adv-x="344" d="M20 0q0 79 52.5 131.5t131.5 52.5q60 0 94.5 -35t34.5 -93q0 -80 -52.5 -132.5t-131.5 -52.5q-60 0 -94.5 35.5t-34.5 93.5zM96 -1q0 -75 62 -75q47 0 73.5 35.5t26.5 96.5q0 75 -62 75q-47 0 -73.5 -35.5t-26.5 -96.5z" />
<glyph horiz-adv-x="341" d="M-4 -239l72 414h73l-5 -30q49 39 95 39q43 0 72 -31t29 -90q0 -91 -50.5 -141.5t-116.5 -50.5q-46 0 -71 35l-25 -145h-73zM103 -41q25 -30 63 -30q40 0 65 32t25 96q0 69 -54 69q-37 0 -75 -33l2 15z" />
<glyph horiz-adv-x="341" d="M20 -7q0 91 51 141t117 50q43 0 70 -34l4 25h73l-72 -414h-73l26 149q-48 -39 -95 -39q-43 0 -72 31.5t-29 90.5zM96 -2q0 -69 54 -69q38 0 75 32l23 135q-25 30 -62 30q-40 0 -65 -32t-25 -96z" />
<glyph horiz-adv-x="240" d="M16 -120l51 295h74l-7 -42q49 51 90 51q23 0 35 -15l-10 -60q-21 9 -40 9q-50 0 -85 -40l-34 -198h-74z" />
<glyph horiz-adv-x="300" d="M13 -32h75q-1 -19 12.5 -32t41.5 -13t45.5 11.5t17.5 31.5q0 16 -14.5 24t-52.5 13q-23 4 -38.5 8t-32 12t-24.5 22.5t-8 34.5q0 48 40.5 76t104.5 28q55 0 85.5 -24.5t25.5 -63.5h-76q1 17 -11.5 26.5t-35.5 9.5q-27 0 -43.5 -10t-16.5 -27q0 -15 13 -22t49 -13 q34 -6 53 -11.5t37 -22.5t18 -44q0 -48 -42 -79.5t-105 -31.5q-61 0 -92.5 27.5t-25.5 69.5z" />
<glyph horiz-adv-x="238" d="M30 121l9 54h54l14 81h73l-14 -81h79l-9 -54h-80l-25 -145q-5 -25 0 -37t25 -12q22 0 52 10l-9 -52q-33 -14 -71 -14q-89 0 -72 93l27 157h-53z" />
<glyph horiz-adv-x="350" d="M31 -32l36 207h73l-31 -181q-6 -34 4 -49t40 -15q43 0 81 35l37 210h72l-51 -295h-73l6 33q-57 -42 -106 -42q-44 0 -70 23.5t-18 73.5z" />
<glyph horiz-adv-x="321" d="M40 175h77l26 -140l14 -75l112 215h73l-168 -295h-63z" />
<glyph horiz-adv-x="492" d="M40 175h76l19 -139l9 -74l35 74l67 139h63l21 -139l11 -74l34 74l66 139h73l-157 -295h-63l-19 137l-10 74l-36 -74l-66 -137h-64z" />
<glyph horiz-adv-x="320" d="M-12 -120l136 153l-79 142h79l46 -91l77 91h78l-122 -137l87 -158h-78l-55 107l-91 -107h-78z" />
<glyph horiz-adv-x="321" d="M37 -239l72 124l-69 290h77l26 -140l14 -75l112 215h73l-235 -414h-70z" />
<glyph horiz-adv-x="277" d="M-2 -120l9 54l189 187h-149l9 54h233l-9 -54l-188 -187h155l-9 -54h-240z" />
<glyph d="M83 207h105q-11 -114 79 -140l45 256q-36 9 -62.5 20.5t-53 30.5t-40.5 48t-14 67q0 92 68 153t171 71l19 107h90l-19 -109q87 -12 131 -66t33 -142h-106q10 105 -72 129l-42 -239q37 -9 64.5 -20t55.5 -30t43 -48t15 -68q0 -94 -73 -161t-177 -79l-19 -107h-90l19 108 q-90 12 -136.5 68.5t-33.5 150.5zM245 508q0 -67 83 -93l40 221q-56 -8 -89.5 -40t-33.5 -88zM357 64q58 10 95 46.5t37 95.5q0 40 -23.5 62t-66.5 35z" />
<glyph d="M115 194q0 133 64 225t175 109l19 110h90l-19 -109q71 -12 109 -59t33 -119h-100q1 88 -54 109l-71 -402q63 21 91 106h100q-19 -70 -73.5 -117t-129.5 -58l-19 -109h-91l19 109q-143 25 -143 205zM213 194q0 -107 58 -134l70 399q-57 -22 -92.5 -91.5t-35.5 -173.5z" />
<glyph d="M38 0l14 76h87l38 218h-87l14 76h87l24 137q17 97 85 152.5t161 55.5q94 0 146.5 -50.5t40.5 -144.5h-106q5 61 -23 88.5t-71 27.5q-48 0 -84.5 -27t-47.5 -89l-26 -150h218l-14 -76h-218l-38 -218h318l-14 -76h-504z" />
<glyph d="M96 92l13 76h177l22 126h-177l14 76h161l-152 330h103l121 -284l214 284h100l-257 -330h162l-14 -76h-176l-22 -126h176l-13 -76h-177l-16 -92h-99l16 92h-176z" />
<glyph d="M-41 -44h100q-7 -103 73 -103q39 0 70.5 27t42.5 88l42 240h-159l13 76h159l40 226q18 99 71.5 152t134.5 53q82 0 117 -41t27 -113h-101q1 42 -11 60t-45 18q-35 0 -57 -26t-34 -89l-43 -240h160l-13 -76h-160l-40 -226q-17 -97 -79.5 -151t-146.5 -54 q-86 0 -128.5 46.5t-32.5 132.5z" />
<glyph d="M75 208l14 76h50q3 64 17 125h-45l13 76h54q39 107 111.5 168.5t168.5 61.5q204 0 194 -241h-111q4 88 -17.5 126.5t-78.5 38.5q-53 0 -96.5 -40t-70.5 -114h157l-13 -76h-166q-13 -63 -16 -125h160l-14 -76h-146q7 -147 103 -147q58 0 92.5 38.5t61.5 126.5h111 q-74 -241 -279 -241q-90 0 -137 59t-53 164h-64z" />
<glyph d="M31 0l123 700h158q96 0 143.5 -43t47.5 -144q0 -99 -77 -314h-77q40 122 56 183t16 110q0 69 -31.5 102t-99.5 33h-66l-110 -627h-83zM180 0l89 500h83l-76 -427h63q52 0 89.5 20.5t62 56t40.5 96t23.5 127.5t12.5 163q3 57 3 164h77q3 -36 3 -125q0 -161 -22 -274.5 t-64.5 -178.5t-98 -93.5t-129.5 -28.5h-156z" />
<glyph d="M13 -120l99 232q-28 62 -28 151q0 169 78.5 289.5t202.5 152.5l49 115h96l-45 -106q33 -1 68 -13l51 119h96l-72 -168q58 -61 52 -178h-112v36l-190 -444q103 18 146 160h112q-36 -117 -113.5 -177.5t-178.5 -63.5l-45 -105h-96l50 117q-33 12 -60 33l-64 -150h-96z M179 269l141 331q-61 -43 -100.5 -127.5t-40.5 -203.5zM212 121q22 -33 54 -46l232 543q-26 19 -66 19z" />
<glyph d="M30 0l91 516h89l-9 -50q67 65 123 65q78 0 87 -70q49 47 93 63l79 112h95l-83 -118q44 -28 31 -108l-73 -410h-89l68 388q5 28 1 41l-162 -230l-35 -199h-89l5 28l-97 -138h-95l224 319l31 179q13 67 -35 67q-38 0 -90 -49l-71 -406h-89zM404 380l37 53q-17 -11 -33 -27z " />
<glyph d="M58 214l14 76h58l22 125h-58l13 76h58l37 209h104l60 -209h152l37 209h89l-37 -209h59l-13 -76h-59l-22 -125h59l-14 -76h-58l-38 -214h-104l-61 214h-150l-38 -214h-89l38 214h-59zM219 290h116l-36 125h-58zM253 491h25l-16 56zM387 415l36 -125h60l22 125h-118z M445 214l17 -61l9 61h-26z" />
<glyph d="M132 468l13 76h309q-15 80 -122 80h-173l13 76h101h389l-12 -76h-134q35 -35 42 -80h77l-13 -76h-65q-16 -95 -94 -145.5t-181 -53.5l231 -269h-125l-226 269l14 76h107q146 0 170 123h-321z" />
<glyph d="M44 214l14 76h83l5 125h-67l14 76h56l9 209h86l-15 -209h86l68 209h93l-6 -209h83l55 209h80l-61 -209h54l-14 -76h-62l-36 -125h76l-13 -76h-86l-62 -214h-89l3 214h-107l-72 -214h-90l9 214h-94zM199 127l27 87h-19zM214 290h36l40 125h-67zM317 290h82l2 125h-42z M383 491h21l3 78zM457 123l23 91h-19zM465 290h34l33 125h-64z" />
<glyph d="M56 0l13 74h504l-13 -74h-504zM112 304q0 65 22 117t58.5 83.5t79.5 48t87 16.5q42 0 74.5 -16.5t46.5 -43.5l17 98h-124l13 71h123l12 66h93l-12 -66h77l-12 -71h-77l-82 -464h-92l10 55q-68 -70 -160 -70q-65 0 -109.5 45.5t-44.5 130.5zM211 314q0 -56 25.5 -84 t64.5 -28q70 0 135 55l33 187q-42 51 -111 51q-57 0 -102 -46.5t-45 -134.5z" />
<glyph d="M78 329l14 77h84l52 294h100l-52 -294h6l273 294h107l-281 -294h233l-14 -77h-223l194 -329h-122l-185 329h-1l-58 -329h-100l58 329h-85z" />
<glyph d="M144 128l16 85l137 56l16 88l-138 -56l15 85l138 56l32 182h-193l12 76h486l-13 -76h-193l-24 -138l138 56l-15 -85l-138 -56l-16 -88l138 56l-16 -85l-137 -56l-40 -228h-99l33 185z" />
<glyph d="M96 437l13 77h78l33 186h166q91 0 151 -48t60 -138h70l-13 -77h-67q-26 -89 -104.5 -137t-174.5 -48h-67l-45 -252h-99l77 437h-78zM255 330h66q59 0 101.5 27.5t60.5 79.5h-209zM288 514h205q-1 54 -33 81.5t-87 27.5h-66z" />
<glyph d="M81 140q0 106 101 169h-91l14 77h255q84 32 127.5 66.5t43.5 92.5q0 94 -114 94q-131 0 -164 -119h-105q21 92 94.5 143.5t188.5 51.5q98 0 150.5 -42t52.5 -113q0 -110 -105 -174h102l-14 -77h-268q-82 -31 -124.5 -64.5t-42.5 -89.5q0 -94 115 -94q139 0 172 119h106 q-21 -91 -98.5 -143t-193.5 -52q-97 0 -149.5 42t-52.5 113z" />
<glyph d="M84 263q0 179 87.5 303t221.5 145l19 109h90l-19 -107q87 -12 134.5 -72t42.5 -167h-112q6 132 -79 158l-100 -564q94 24 135 158h112q-33 -107 -101.5 -167t-159.5 -72l-19 -107h-90l19 109q-88 16 -134.5 88.5t-46.5 185.5zM189 262q0 -155 91 -191l98 558 q-80 -26 -134.5 -121.5t-54.5 -245.5z" />
<glyph d="M74 0l123 700h169l21 120h90l-21 -122q77 -6 125.5 -41t48.5 -106q0 -64 -43 -118t-102 -69q52 -7 85.5 -39t33.5 -90q0 -105 -76.5 -167.5t-195.5 -67.5l-21 -120h-90l21 120h-168zM187 76h69l42 239h-69zM242 390h69l41 234h-68zM346 76q78 4 116 44.5t38 104.5 q0 83 -112 90zM402 393q58 10 91 48t33 97q0 73 -84 84z" />
<glyph d="M45 125l99 84q-24 50 -24 107q0 119 76 203l-63 77l59 54l66 -81q68 42 149 42q78 0 128 -42l97 82l50 -56l-99 -85q24 -48 24 -106q0 -120 -77 -203l64 -78l-59 -53l-66 80q-68 -41 -149 -41q-79 0 -129 41l-96 -81zM218 313q0 -66 30 -102t83 -36q77 0 127 63t50 169 q0 66 -29.5 102t-82.5 36q-77 0 -127.5 -63t-50.5 -169z" />
<glyph d="M53 0l83 191h-74l14 78h93l70 161h-84l13 78h105l83 192h91l-83 -192h132l83 192h91l-83 -192h74l-13 -78h-95l-70 -161h87l-14 -78h-106l-83 -191h-91l83 191h-132l-83 -191h-91zM260 269h132l70 161h-132z" />
<glyph horiz-adv-x="522" d="M76 160h97q-6 -78 57 -101l33 187q-31 7 -53 16t-43.5 23.5t-33 37t-11.5 53.5q0 72 55 121t140 58l14 81h88l-15 -83q74 -10 109 -52.5t27 -111.5h-97q6 71 -51 93l-30 -172q66 -16 105.5 -46.5t39.5 -88.5q0 -74 -58.5 -125.5t-143.5 -62.5l-14 -80h-88l14 81 q-77 11 -114 55.5t-27 116.5zM216 398q0 -48 61 -67l28 156q-39 -8 -64 -31t-25 -58zM317 55q41 8 68 33.5t27 63.5q0 50 -65 73z" />
<glyph horiz-adv-x="459" d="M80 153q0 101 49 172.5t140 86.5l14 82h87l-14 -82q57 -10 86 -46t25 -91h-90q1 60 -33 73l-51 -295q40 14 57 72h90q-15 -54 -57 -90t-102 -46l-14 -82h-88l15 82q-114 25 -114 164zM169 153q0 -73 37 -95l51 288q-88 -35 -88 -193z" />
<glyph horiz-adv-x="471" d="M23 0l12 68h65l27 155h-65l12 68h65l17 100q14 77 72 121.5t133 44.5q79 0 121.5 -39.5t33.5 -114.5h-98q5 87 -68 87q-37 0 -64 -21.5t-35 -67.5l-19 -110h168l-12 -68h-168l-27 -155h248l-13 -68h-405z" />
<glyph horiz-adv-x="526" d="M96 68l13 69h137l15 87h-137l12 69h114l-116 250h102l96 -219l164 219h91l-197 -250h114l-13 -69h-137l-15 -87h137l-12 -69h-137l-12 -68h-93l12 68h-138z" />
<glyph horiz-adv-x="540" d="M-27 -31h97q-4 -78 59 -78q74 0 91 89l30 177h-118l11 68h120l29 166q14 77 70 121.5t129 44.5q72 0 111.5 -38.5t31.5 -106.5h-97q4 78 -59 78q-74 0 -91 -89l-31 -176h122l-12 -68h-122l-29 -167q-14 -77 -69.5 -121.5t-127.5 -44.5q-73 0 -113 38t-32 107z" />
<glyph horiz-adv-x="564" d="M50 158l11 67h54q3 54 12 88h-50l11 66h59q34 83 99.5 130.5t153.5 47.5q85 0 135 -48.5t46 -141.5h-102q2 65 -20.5 94t-69.5 29q-95 0 -144 -111h149l-11 -66h-159q-10 -43 -11 -88h154l-11 -67h-140q15 -106 96 -106q96 0 133 123h101q-28 -93 -95 -141.5t-152 -48.5 q-79 0 -125 45.5t-56 127.5h-68z" />
<glyph horiz-adv-x="647" d="M88 0l96 543h166q85 0 126.5 -34.5t41.5 -115.5q0 -77 -59 -239h-78q55 155 55 218q0 52 -25 77t-81 25h-77l-84 -474h-81zM226 0l69 388h80l-56 -319h69q96 0 135 81.5t45 258.5q3 93 3 134h77q2 -40 2 -104q0 -237 -66 -338t-201 -101h-157z" />
<glyph horiz-adv-x="567" d="M20 -93l91 184q-23 51 -23 119q0 136 68.5 230.5t184.5 112.5l41 83h89l-41 -82q22 -3 45 -12l46 94h89l-68 -137q47 -50 44 -132h-102v16l-164 -330q96 12 130 122h101q-28 -91 -102 -140.5t-160 -49.5h-3l-39 -78h-88l46 93q-25 11 -40 22l-57 -115h-88zM177 224 l123 247q-54 -28 -87 -93t-36 -154zM204 99q14 -22 34 -32l202 407q-14 9 -42 15z" />
<glyph horiz-adv-x="781" d="M78 0l72 401h87l-10 -52q75 65 148 65q87 0 105 -67q54 45 118 61l74 85h91l-74 -85q80 -24 61 -137l-47 -271h-88l46 254q12 73 -33 85l-169 -193l-25 -146h-87l4 22l-94 -107h-91l208 238l18 101q8 46 -5.5 67t-53.5 21q-59 0 -116 -51l-51 -291h-88zM482 276l35 40 q-21 -12 -33 -23z" />
<glyph horiz-adv-x="592" d="M41 158l11 67h78l15 88h-77l11 66h78l29 164h96l64 -164h140l29 164h84l-29 -164h76l-11 -66h-77l-15 -88h76l-11 -67h-77l-28 -158h-97l-62 158h-143l-28 -158h-83l28 158h-77zM213 225h105l-34 88h-55zM239 379h19l-13 34zM371 313l35 -88h53v3l15 85h-103zM432 158 l11 -29l5 29h-16z" />
<glyph horiz-adv-x="488" d="M99 352l12 67h243q-15 57 -96 57h-137l12 67h83h314l-12 -67h-92q22 -27 26 -57h56l-12 -67h-47q-14 -68 -71.5 -105t-139.5 -43l186 -204h-117l-180 203l12 67h83q106 0 130 82h-253z" />
<glyph horiz-adv-x="775" d="M40 158l11 67h113l-10 88h-87l11 66h69l-18 164h101l11 -164h130l75 164h86l18 -164h129l65 164h93l-72 -164h65l-12 -66h-82l-38 -88h105l-12 -67h-123l-69 -158h-83l-18 158h-152l-72 -158h-85l-17 158h-132zM245 313l6 -88h49l41 88h-96zM253 158l1 -40l17 40h-18z M376 225h114l-11 88h-62zM445 379h27l-5 50zM558 313l9 -88h51l35 88h-95zM573 158l4 -41l16 41h-20z" />
<glyph horiz-adv-x="469" d="M48 0l13 67h400l-12 -67h-401zM93 239q0 95 59.5 149t134.5 54q67 0 96 -48l14 78h-98l10 61h98l8 44h84l-8 -44h52l-10 -61h-53l-63 -358h-84l7 43q-52 -55 -125 -55q-51 0 -86.5 36t-35.5 101zM182 245q0 -77 63 -77q55 0 105 43l22 125q-32 40 -86 40q-43 0 -73.5 -33 t-30.5 -98z" />
<glyph horiz-adv-x="504" d="M61 252l12 66h70l40 225h93l-37 -211l201 211h102l-221 -225h188l-12 -66h-186l166 -252h-109l-146 235l-42 -235h-93l45 252h-71z" />
<glyph horiz-adv-x="447" d="M96 85l13 76l105 41l12 70l-105 -41l14 75l104 41l23 128h-149l12 68h391l-12 -68h-149l-16 -89l106 42l-13 -76l-106 -41l-12 -70l105 41l-12 -75l-107 -42l-29 -165h-93l22 126z" />
<glyph horiz-adv-x="517" d="M74 335l12 68h70l25 140h165q72 0 120 -36.5t52 -103.5h60l-12 -68h-56q-21 -69 -85 -106.5t-141 -37.5h-72l-34 -191h-93l59 335h-70zM224 259h72q94 0 118 76h-177zM249 403h172q-6 72 -87 72h-72z" />
<glyph horiz-adv-x="540" d="M90 236l12 67h213q64 24 96.5 49t32.5 68q0 32 -22.5 51t-61.5 19q-94 0 -120 -85h-97q17 71 76.5 111.5t152.5 40.5q77 0 120.5 -33.5t43.5 -88.5q0 -83 -75 -132h83l-13 -67h-228q-58 -22 -88.5 -47t-30.5 -66q0 -33 22.5 -52.5t61.5 -19.5q100 0 125 86h98 q-17 -70 -80 -111t-156 -41q-77 0 -120.5 33.5t-43.5 89.5q0 80 70 128h-71z" />
<glyph horiz-adv-x="567" d="M88 210q0 136 69 231t186 113l14 82h87l-14 -82q71 -11 115 -59t41 -128h-102q4 94 -67 117l-75 -426q78 22 108 117h101q-24 -80 -85 -128t-136 -59l-14 -81h-87l14 82q-75 14 -115 72.5t-40 148.5zM187 210q0 -120 69 -149l74 422q-67 -20 -105 -93t-38 -180z" />
<glyph horiz-adv-x="549" d="M85 0l96 543h136l16 93h87l-17 -94q148 -12 148 -122q0 -51 -32.5 -88t-80.5 -50q40 -6 67 -33t27 -73q0 -82 -61 -127t-163 -49l-16 -93h-87l16 93h-136zM191 67h42l30 173h-42zM233 307h42l30 169h-43zM320 67q63 3 89.5 27.5t26.5 74.5q0 64 -86 71zM363 309 q92 13 92 101q0 54 -63 64z" />
<glyph horiz-adv-x="563" d="M66 103l80 66q-18 35 -18 79q0 82 54 144l-55 63l67 55l56 -65q53 28 115 28q59 0 102 -30l81 67l48 -55l-81 -67q17 -36 17 -78q0 -82 -54 -144l55 -63l-66 -55l-56 65q-53 -28 -115 -28q-59 0 -103 30l-80 -67zM218 249q0 -51 24.5 -77.5t64.5 -26.5q57 0 97 43t40 121 q0 51 -25 77.5t-65 26.5q-57 0 -96.5 -43t-39.5 -121z" />
<glyph horiz-adv-x="607" d="M73 145l11 67h94l52 118h-84l11 66h102l65 147h85l-65 -147h125l65 147h85l-65 -147h76l-11 -66h-94l-52 -118h84l-11 -67h-103l-64 -145h-85l64 145h-125l-64 -145h-85l64 145h-75zM263 212h125l52 118h-125z" />
<glyph horiz-adv-x="622" d="M96 258q0 196 94 326.5t244 130.5q101 0 155 -73t54 -200q0 -197 -93.5 -327t-244.5 -130q-101 0 -155 73t-54 200zM197 256q0 -49 9 -85l286 441q-29 27 -71 27q-95 0 -159.5 -103.5t-64.5 -279.5zM249 87q29 -26 70 -26q95 0 159 103t64 279q0 46 -8 84z" />
<glyph horiz-adv-x="570" d="M87 213q0 158 80.5 263.5t216.5 105.5q95 0 143.5 -61t48.5 -166q0 -159 -80.5 -264.5t-216.5 -105.5q-94 0 -143 61.5t-49 166.5zM188 205q0 -151 103 -151q86 0 135.5 81.5t49.5 226.5q0 151 -104 151q-86 0 -135 -81t-49 -227z" />
<glyph horiz-adv-x="574" d="M92 213q0 158 80.5 263.5t216.5 105.5q95 0 144 -61t49 -166q0 -158 -81 -264t-217 -106q-94 0 -143 61.5t-49 166.5zM190 208q0 -41 7 -69l234 360q-21 14 -54 14q-89 0 -138 -80t-49 -225zM243 68q21 -14 53 -14q89 0 138.5 80.5t49.5 225.5q0 41 -7 68z" />
<glyph horiz-adv-x="382" d="M102 390l15 87l178 90h97l-101 -567h-97l85 477z" />
<glyph horiz-adv-x="518" d="M53 0l13 78q208 132 266 179q96 78 105 152q1 9 1 19q0 83 -89 83q-49 0 -87.5 -32t-56.5 -98h-101q21 96 89.5 148.5t168.5 52.5q86 0 131.5 -37.5t45.5 -106.5q0 -91 -69 -162.5t-262 -197.5h286l-14 -78h-427z" />
<glyph horiz-adv-x="569" d="M53 53h103q-12 -131 122 -131q72 0 118 42t46 125q0 104 -143 104h-73l13 71h72q82 0 126 41.5t44 111.5q0 94 -101 94q-123 0 -161 -131h-102q24 94 100 148t176 54q87 0 138.5 -41.5t51.5 -116.5q0 -64 -43 -118t-114 -73q60 -10 89 -49.5t29 -90.5q0 -104 -83.5 -173 t-195.5 -69t-168 53.5t-44 148.5z" />
<glyph horiz-adv-x="560" d="M30 0l14 78l294 489h104l-295 -489h191l32 183h94l-32 -183h103l-14 -78h-103l-24 -134h-94l24 134h-294z" />
<glyph horiz-adv-x="546" d="M52 38h103q-5 -63 26.5 -89.5t82.5 -26.5q73 0 118 55.5t45 163.5q0 120 -105 120q-79 0 -141 -74h-86l68 380h402l-14 -78h-316l-40 -221q71 66 160 66q79 0 126.5 -48t47.5 -140q0 -136 -82 -215.5t-196 -79.5q-103 0 -156.5 49.5t-42.5 137.5z" />
<glyph horiz-adv-x="582" d="M91 236q0 238 94 380.5t255 142.5q92 0 143 -48.5t44 -137.5h-102q3 62 -27.5 88.5t-69.5 26.5q-88 0 -148.5 -84t-79.5 -237q38 38 94.5 63t110.5 25q82 0 128.5 -47.5t46.5 -136.5q0 -128 -86.5 -207t-201.5 -79q-99 0 -150 65t-51 186zM192 234q0 -178 112 -178 q78 0 125 53.5t47 153.5q0 119 -104 119q-46 0 -95.5 -24t-82.5 -59q-2 -42 -2 -65z" />
<glyph horiz-adv-x="480" d="M79 -134l363 623h-323l14 78h416l-14 -78l-358 -623h-98z" />
<glyph horiz-adv-x="606" d="M77 169q0 76 52.5 141.5t129.5 84.5q-44 17 -71 53.5t-27 86.5q0 99 78.5 161.5t195.5 62.5q93 0 149 -45.5t56 -122.5q0 -72 -44.5 -122.5t-113.5 -73.5q52 -14 82.5 -60.5t30.5 -103.5q0 -113 -87 -179.5t-210 -66.5q-98 0 -159.5 48.5t-61.5 135.5zM179 176 q0 -59 36 -89.5t95 -30.5q79 0 131.5 45t52.5 127q0 53 -33.5 89.5t-97.5 36.5q-84 0 -134 -53.5t-50 -124.5zM262 536q0 -48 28.5 -78t85.5 -30q76 0 118.5 45.5t42.5 110.5q0 51 -31.5 77.5t-83.5 26.5q-69 0 -114.5 -39t-45.5 -113z" />
<glyph horiz-adv-x="588" d="M60 35h102q-3 -62 29 -87.5t71 -25.5q88 0 146.5 72t75.5 221q-37 -38 -94 -61.5t-111 -23.5q-82 0 -129 44.5t-47 131.5q0 128 85.5 202t200.5 74q100 0 151 -64.5t51 -184.5q0 -229 -91.5 -355.5t-250.5 -126.5q-92 0 -144 48t-45 136zM207 318q0 -116 106 -116 q45 0 94.5 23.5t81.5 58.5q1 16 1 51q0 176 -113 176q-79 0 -124.5 -48t-45.5 -145z" />
<glyph d="M98 252q0 198 88.5 330.5t239.5 132.5q99 0 149 -71t50 -196q0 -198 -88.5 -330.5t-239.5 -132.5q-98 0 -148.5 71.5t-50.5 195.5zM203 247q0 -91 28.5 -137.5t79.5 -46.5q93 0 151 106t58 284q0 184 -108 184q-93 0 -151 -106t-58 -284z" />
<glyph d="M98 252q0 198 88.5 330.5t239.5 132.5q99 0 149 -71t50 -196q0 -198 -88.5 -330.5t-239.5 -132.5q-98 0 -148.5 71.5t-50.5 195.5zM198 247q0 -34 5 -66l279 430q-27 28 -70 28q-96 0 -155 -108t-59 -284zM241 89q28 -28 70 -28q96 0 155 108t59 284q0 34 -5 67z" />
<glyph d="M98 0l14 76h167l95 534l-184 -88l16 88l183 90h99l-110 -624h167l-13 -76h-266h-168z" />
<glyph d="M92 0l14 78q210 171 257 214q128 117 151 203q6 23 6 47q0 49 -25.5 73t-69.5 24q-51 0 -94.5 -36.5t-63.5 -114.5h-105q23 107 99 167t177 60q86 0 135.5 -42.5t49.5 -120.5q0 -103 -87.5 -204t-299.5 -270h318l-14 -78h-448z" />
<glyph d="M98 187h105q-5 -64 28.5 -95t90.5 -31q67 0 114.5 44.5t47.5 112.5q0 48 -35.5 76.5t-108.5 28.5h-71l14 77h71q78 0 123 42t45 104q0 45 -27 69t-72 24q-51 0 -94 -31.5t-62 -94.5h-106q24 94 100 148t176 54q87 0 138 -42t51 -117q0 -64 -42.5 -117.5t-113.5 -72.5 q61 -10 89.5 -49t28.5 -90q0 -104 -83.5 -173t-196.5 -69q-112 0 -167 53t-43 149z" />
<glyph d="M83 137l13 77l294 486h100l-294 -486h197l31 176h96l-31 -176h97l-14 -77h-97l-24 -137h-96l24 137h-296z" />
<glyph d="M104 170h106q-4 -57 27 -83t80 -26q71 0 116 56t45 158q0 115 -97 115q-89 0 -146 -71h-87l67 381h402l-13 -76h-315l-41 -233q68 75 167 75q76 0 121.5 -46.5t45.5 -137.5q0 -137 -82 -217t-197 -80q-103 0 -156 48.5t-43 136.5z" />
<glyph d="M103 229q0 210 96 348t246 138q89 0 138 -45t44 -121h-106q-1 90 -89 90q-79 0 -135.5 -75.5t-77.5 -199.5q38 40 92.5 65.5t107.5 25.5q82 0 128.5 -47.5t46.5 -136.5q0 -128 -87 -207t-201 -79q-94 0 -148.5 65.5t-54.5 178.5zM208 233q0 -85 29 -128.5t82 -43.5 q75 0 123 54t48 145q0 57 -26.5 88t-78.5 31q-50 0 -96 -23.5t-79 -60.5q-2 -40 -2 -62z" />
<glyph d="M149 0l383 624h-343l12 76h437l-13 -76l-378 -624h-98z" />
<glyph d="M79 153q0 77 47.5 134t125.5 76q-94 35 -94 133q0 100 75 159.5t193 59.5q93 0 147 -42.5t54 -119.5q0 -72 -41.5 -119.5t-109.5 -70.5q52 -13 81.5 -53.5t29.5 -94.5q0 -113 -81.5 -171.5t-208.5 -58.5q-99 0 -158.5 42t-59.5 126zM182 165q0 -104 129 -104 q78 0 126 37.5t48 113.5q0 49 -32 78.5t-97 29.5q-85 0 -129.5 -43.5t-44.5 -111.5zM260 497q0 -46 27 -73t83 -27q77 0 115.5 42t38.5 104q0 46 -30.5 71t-81.5 25q-67 0 -109.5 -37t-42.5 -105z" />
<glyph d="M97 169h106q-3 -58 24 -83t71 -25q81 0 139.5 81.5t76.5 212.5q-38 -40 -92 -65.5t-107 -25.5q-83 0 -129.5 44.5t-46.5 131.5q0 124 85.5 199.5t199.5 75.5q100 0 152 -64.5t52 -179.5q0 -135 -39.5 -244t-118.5 -175.5t-186 -66.5q-92 0 -144 48.5t-43 135.5zM242 451 q0 -111 107 -111q49 0 95 22.5t77 59.5q1 15 1 45q0 85 -29 128.5t-82 43.5q-75 0 -122 -50.5t-47 -137.5z" />
<glyph d="M105 214q0 158 81 263t216 105q95 0 144 -61.5t49 -167.5q0 -158 -81 -263t-217 -105q-94 0 -143 62t-49 167zM206 205q0 -151 103 -151q86 0 135.5 81.5t49.5 226.5q0 151 -104 151q-85 0 -134.5 -81.5t-49.5 -226.5z" />
<glyph d="M105 214q0 158 81 263t216 105q95 0 144 -61.5t49 -167.5q0 -158 -81 -263t-217 -105q-94 0 -143 62t-49 167zM203 208q0 -41 7 -69l234 361q-22 13 -54 13q-89 0 -138 -80t-49 -225zM256 68q21 -14 53 -14q89 0 139 80.5t50 225.5q0 39 -8 69z" />
<glyph d="M95 0l13 75h178l71 401l-194 -90l16 91l194 90h97l-88 -492h168l-13 -75h-264h-178z" />
<glyph d="M102 0l13 78q207 132 266 180q95 77 104 151q1 9 1 19q0 83 -88 83q-49 0 -87.5 -32t-56.5 -98h-101q21 96 89.5 148.5t168.5 52.5q85 0 131 -37.5t46 -106.5q0 -90 -69 -162t-262 -198h286l-14 -78h-427z" />
<glyph d="M66 53h103q-13 -131 121 -131q72 0 118 42t46 125q0 104 -143 104h-72l12 71h72q82 0 126 41.5t44 111.5q0 94 -101 94q-123 0 -161 -131h-101q24 94 99.5 148t175.5 54q87 0 138.5 -41.5t51.5 -116.5q0 -64 -43 -118t-114 -73q61 -10 90 -49.5t29 -90.5 q0 -104 -83.5 -173t-195.5 -69q-113 0 -168.5 53t-43.5 149z" />
<glyph d="M58 0l14 78l295 489h98l-296 -489h196l32 183h94l-32 -183h103l-14 -78h-103l-24 -134h-94l24 134h-293z" />
<glyph d="M72 38h103q-5 -63 26.5 -89.5t83.5 -26.5q72 0 117 55.5t45 163.5q0 65 -27 92.5t-78 27.5q-79 0 -141 -74h-85l67 380h402l-13 -78h-317l-39 -221q69 66 160 66q78 0 125.5 -47.5t47.5 -140.5q0 -136 -81.5 -215.5t-195.5 -79.5q-103 0 -156.5 49.5t-43.5 137.5z" />
<glyph d="M97 236q0 238 94 380.5t255 142.5q91 0 142 -48.5t44 -137.5h-101q2 43 -15 70.5t-38.5 36t-44.5 8.5q-88 0 -148 -83.5t-79 -236.5q37 38 93.5 62.5t110.5 24.5q82 0 128.5 -47.5t46.5 -136.5q0 -128 -86.5 -207t-201.5 -79q-99 0 -149.5 65t-50.5 186zM198 234 q0 -178 112 -178q77 0 124.5 53.5t47.5 153.5q0 119 -105 119q-46 0 -95 -23.5t-82 -58.5q-2 -42 -2 -66z" />
<glyph d="M141 -134l379 623h-357l14 78h450l-14 -78l-375 -623h-97z" />
<glyph d="M76 169q0 76 52.5 141.5t129.5 84.5q-44 17 -71 53.5t-27 86.5q0 99 78.5 161.5t195.5 62.5q93 0 149 -45.5t56 -122.5q0 -72 -44.5 -122.5t-113.5 -73.5q52 -14 83 -60.5t31 -103.5q0 -113 -87 -179.5t-211 -66.5q-98 0 -159.5 48.5t-61.5 135.5zM178 176 q0 -59 36.5 -89.5t95.5 -30.5q78 0 130.5 45t52.5 127q0 54 -33.5 90t-97.5 36q-84 0 -134 -53.5t-50 -124.5zM261 536q0 -48 28.5 -78t85.5 -30q76 0 118.5 45.5t42.5 110.5q0 51 -31.5 77.5t-83.5 26.5q-69 0 -114.5 -39t-45.5 -113z" />
<glyph d="M63 35h101q-2 -62 30 -87.5t71 -25.5q87 0 145.5 72t75.5 221q-37 -38 -93.5 -61.5t-110.5 -23.5q-82 0 -129 44.5t-47 131.5q0 128 85 202t201 74q99 0 150 -64.5t51 -184.5q0 -228 -91.5 -355t-249.5 -127q-92 0 -144.5 48t-44.5 136zM210 318q0 -116 105 -116 q45 0 93.5 23.5t82.5 57.5q1 17 1 52q0 176 -113 176q-78 0 -123.5 -48t-45.5 -145z" />
<glyph horiz-adv-x="541" d="M87 207q0 150 79 250t202 100q86 0 133 -60t47 -162q0 -150 -79 -250t-202 -100q-86 0 -133 60t-47 162zM185 207q0 -74 25.5 -113t69.5 -39q71 0 120.5 76.5t49.5 203.5q0 74 -25.5 113t-69.5 39q-71 0 -120.5 -76.5t-49.5 -203.5z" />
<glyph horiz-adv-x="541" d="M87 207q0 151 79 250.5t202 99.5q87 0 133.5 -59.5t46.5 -161.5q0 -151 -79 -251t-202 -100q-86 0 -133 60t-47 162zM182 208q0 -36 6 -65l218 330q-20 16 -50 16q-72 0 -123 -76.5t-51 -204.5zM229 70q22 -17 51 -17q72 0 122.5 76.5t50.5 204.5q0 38 -6 65z" />
<glyph horiz-adv-x="349" d="M106 393l14 80l145 70h94l-96 -543h-94l81 460z" />
<glyph horiz-adv-x="454" d="M59 0l12 70q179 141 224 183q94 95 97 165q0 33 -19 51t-51 18q-37 0 -67.5 -27.5t-44.5 -80.5h-97q18 82 80 130t141 48q71 0 111 -33t40 -95q0 -80 -65.5 -157.5t-227.5 -201.5h235l-12 -70h-356z" />
<glyph horiz-adv-x="487" d="M70 145h97q-2 -44 23 -67.5t68 -23.5q54 0 88.5 30.5t34.5 82.5q0 36 -28 57.5t-87 21.5h-56l12 69h57q62 0 97 31t35 75q0 31 -20.5 48.5t-56.5 17.5q-38 0 -70 -23t-47 -67h-97q18 72 82.5 116t144.5 44q77 0 119 -32t42 -91q0 -50 -34.5 -93t-91.5 -58q49 -7 72 -38 t23 -71q0 -82 -66.5 -135.5t-164.5 -53.5q-89 0 -137 43.5t-39 116.5z" />
<glyph horiz-adv-x="472" d="M48 106l13 70l231 367h97l-231 -367h141l22 126h92l-22 -126h76l-12 -70h-76l-19 -106h-92l19 106h-239z" />
<glyph horiz-adv-x="466" d="M70 132h97q-1 -39 21.5 -58.5t58.5 -19.5q54 0 87 40t33 110q0 88 -78 88q-55 0 -104 -46h-82l53 297h336l-12 -71h-255l-28 -160q49 49 123 49q67 0 105.5 -37.5t38.5 -109.5q0 -107 -65.5 -168t-163.5 -61q-82 0 -127.5 39.5t-37.5 107.5z" />
<glyph horiz-adv-x="502" d="M83 181q0 163 76.5 269.5t202.5 106.5q70 0 113 -36.5t39 -94.5h-98q-1 61 -68 61q-55 0 -97 -53.5t-60 -140.5q67 60 147 60q71 0 111 -37.5t40 -107.5q0 -99 -72.5 -161t-165.5 -62q-82 0 -125 52t-43 144zM179 175q0 -121 85 -121q57 0 92.5 40t35.5 102 q0 42 -21.5 66t-63.5 24q-71 0 -125 -52q-3 -29 -3 -59z" />
<glyph horiz-adv-x="409" d="M95 0l285 473h-258l12 70h346l-12 -70l-282 -473h-91z" />
<glyph horiz-adv-x="509" d="M71 120q0 58 38.5 102.5t99.5 58.5q-35 13 -56 40t-21 65q0 77 63.5 124t158.5 47q76 0 122.5 -35t46.5 -94q0 -55 -32.5 -92t-86.5 -55q41 -10 65 -41.5t24 -74.5q0 -87 -68.5 -133.5t-171.5 -46.5q-81 0 -131.5 34.5t-50.5 100.5zM168 128q0 -74 97 -74q57 0 94 25 t37 83q0 38 -25 59.5t-72 21.5q-62 0 -96.5 -31.5t-34.5 -83.5zM229 387q0 -34 21 -54t62 -20q53 0 83.5 30t30.5 76q0 35 -23.5 52t-60.5 17q-48 0 -80.5 -25t-32.5 -76z" />
<glyph horiz-adv-x="503" d="M76 131h98q0 -39 22 -57.5t52 -18.5q59 0 102 58t60 152q-70 -61 -149 -61q-72 0 -112 34.5t-40 101.5q0 99 71.5 158t165.5 59q82 0 125 -52t43 -144q0 -163 -77 -269.5t-202 -106.5q-73 0 -119 38.5t-40 107.5zM205 353q0 -39 22.5 -60.5t64.5 -21.5q70 0 124 51 q2 30 2 45q0 120 -85 120q-57 0 -92.5 -37.5t-35.5 -96.5z" />
<glyph horiz-adv-x="427" d="M138 605q0 114 65.5 189t162.5 75q71 0 111.5 -47t40.5 -127q0 -115 -66 -189.5t-163 -74.5q-70 0 -110.5 47t-40.5 127zM226 604q0 -54 20 -81t55 -27q54 0 91 52.5t37 147.5q0 108 -74 108q-54 0 -91.5 -52.5t-37.5 -147.5z" />
<glyph horiz-adv-x="251" d="M147 732l13 75l113 53h85l-74 -420h-85l61 345z" />
<glyph horiz-adv-x="369" d="M116 440l11 64q27 20 64.5 47.5t58 42.5t46.5 35.5t39.5 34t26.5 29.5t18.5 31t5.5 31q0 50 -57 50q-62 0 -84 -72h-88q15 65 64 100.5t119 35.5q60 0 96 -28t36 -80q0 -60 -44 -106t-174 -142q-9 -6 -13 -9h189l-10 -64h-304z" />
<glyph horiz-adv-x="389" d="M126 552h87q-1 -30 16 -43.5t56 -13.5q90 0 90 75q0 55 -83 55h-54l11 64h54q44 0 68.5 18.5t24.5 53.5q0 44 -60 44q-63 0 -84 -57h-88q15 57 64 89t119 32q62 0 98.5 -27t36.5 -74q0 -37 -26.5 -67t-73.5 -41q41 -6 60 -30t19 -55q0 -62 -57 -103t-131 -41 q-77 0 -116 32t-31 89z" />
<glyph horiz-adv-x="365" d="M109 512l11 66l186 282h85l-187 -282h105l17 96h82l-17 -96h66l-11 -66h-66l-13 -72h-82l13 72h-189z" />
<glyph horiz-adv-x="364" d="M124 542h88q0 -47 58 -47q44 0 68.5 26.5t24.5 77.5q0 63 -60 63q-48 0 -78 -32h-74l41 230h275l-12 -65h-202l-17 -102q38 32 99 32q51 0 83 -31.5t32 -88.5q0 -81 -58 -127.5t-133 -46.5q-71 0 -106.5 29t-28.5 82z" />
<glyph horiz-adv-x="383" d="M133 585q0 125 63.5 204.5t160.5 79.5q63 0 98.5 -27.5t31.5 -72.5h-87q-8 36 -54 36t-75.5 -37t-41.5 -99q49 44 112 44q60 0 94 -29t34 -84q0 -76 -58 -122.5t-133 -46.5q-69 0 -107 40.5t-38 113.5zM221 585q0 -90 68 -90q49 0 71 26.5t22 66.5q0 27 -16.5 44.5 t-49.5 17.5q-52 0 -94 -34q-1 -10 -1 -31z" />
<glyph horiz-adv-x="317" d="M130 440l226 355h-198l12 65h280l-12 -65l-223 -355h-85z" />
<glyph horiz-adv-x="393" d="M122 534q0 45 31 79t81 45q-63 20 -63 81q0 59 50.5 94.5t127.5 35.5q64 0 101.5 -26.5t37.5 -72.5q0 -84 -97 -112q34 -9 54 -33.5t20 -56.5q0 -68 -54.5 -102.5t-138.5 -34.5q-68 0 -109 25.5t-41 77.5zM211 549q0 -54 72 -54q41 0 68.5 18t27.5 58q0 53 -72 53 q-46 0 -71 -19.5t-25 -55.5zM256 735q0 -48 62 -48q40 0 60.5 18.5t20.5 50.5q0 49 -61 49q-35 0 -58.5 -17t-23.5 -53z" />
<glyph horiz-adv-x="383" d="M122 541h88q5 -46 56 -46q46 0 76 37t42 99q-51 -44 -111 -44q-62 0 -96 29t-34 84q0 76 58 122.5t133 46.5q69 0 107.5 -41t38.5 -113q0 -125 -64 -204.5t-161 -79.5q-65 0 -101 29.5t-32 80.5zM231 712q0 -27 16 -44.5t49 -17.5q52 0 95 35q1 10 1 30q0 90 -69 90 q-49 0 -70.5 -26.5t-21.5 -66.5z" />
<glyph horiz-adv-x="361" d="M139 626l11 66h118l19 109h68l-19 -109h118l-11 -66h-119l-19 -109h-68l19 109h-117z" />
<glyph horiz-adv-x="361" d="M139 626l11 66h304l-11 -66h-304z" />
<glyph horiz-adv-x="361" d="M128 563l12 66h304l-12 -66h-304zM150 689l12 66h304l-12 -66h-304z" />
<glyph horiz-adv-x="152" d="M86 327l44 174h82l-55 -174h-71z" />
<glyph horiz-adv-x="165" d="M113 476q0 26 19.5 44t44.5 18q20 0 33 -13t13 -32q0 -26 -19.5 -44t-44.5 -18q-20 0 -33 13t-13 32z" />
<glyph horiz-adv-x="241" d="M137 596q0 108 54.5 195t131.5 144h77q-76 -61 -125 -154.5t-49 -185.5q0 -65 19.5 -128t53.5 -102h-77q-36 36 -60.5 97.5t-24.5 133.5z" />
<glyph horiz-adv-x="241" d="M69 365q77 60 125.5 154t48.5 187q0 65 -19.5 127.5t-53.5 101.5h78q36 -36 60.5 -97.5t24.5 -133.5q0 -108 -55 -195t-131 -144h-78z" />
<glyph horiz-adv-x="427" d="M39 45q0 114 65.5 189t162.5 75q71 0 111.5 -47t40.5 -127q0 -115 -66 -189.5t-163 -74.5q-70 0 -110.5 47t-40.5 127zM127 44q0 -54 20 -81t55 -27q54 0 91 52.5t37 147.5q0 108 -74 108q-54 0 -91.5 -52.5t-37.5 -147.5z" />
<glyph horiz-adv-x="251" d="M48 172l13 75l113 53h85l-74 -420h-85l61 345z" />
<glyph horiz-adv-x="369" d="M17 -120l11 64q27 20 64.5 47.5t58 42.5t46.5 35.5t39.5 34t26.5 29.5t18.5 31t5.5 31q0 50 -57 50q-62 0 -84 -72h-88q15 65 64 100.5t119 35.5q60 0 96 -28t36 -80q0 -60 -44 -106t-174 -142q-9 -6 -13 -9h189l-10 -64h-304z" />
<glyph horiz-adv-x="389" d="M28 -8h87q-1 -30 16 -43.5t55 -13.5q91 0 91 75q0 55 -83 55h-54l11 64h54q43 0 68 18.5t25 53.5q0 44 -60 44q-64 0 -84 -57h-89q16 57 65.5 89t118.5 32q62 0 98.5 -27t36.5 -74q0 -37 -26.5 -67t-73.5 -41q41 -6 60 -30t19 -55q0 -62 -57 -103t-131 -41q-77 0 -116 32 t-31 89z" />
<glyph horiz-adv-x="365" d="M10 -48l11 66l186 282h85l-187 -282h105l17 96h82l-17 -96h66l-11 -66h-66l-13 -72h-82l13 72h-189z" />
<glyph horiz-adv-x="364" d="M25 -18h88q0 -47 58 -47q44 0 68.5 26.5t24.5 77.5q0 63 -60 63q-48 0 -78 -32h-74l41 230h275l-12 -65h-202l-17 -102q38 32 99 32q51 0 83 -31.5t32 -88.5q0 -81 -58 -127.5t-133 -46.5q-71 0 -106.5 29t-28.5 82z" />
<glyph horiz-adv-x="383" d="M34 25q0 125 63.5 204.5t160.5 79.5q63 0 98.5 -27.5t31.5 -72.5h-87q-8 36 -54 36t-75.5 -37t-41.5 -99q49 44 112 44q60 0 94 -29t34 -84q0 -76 -58 -122.5t-133 -46.5q-69 0 -107 40.5t-38 113.5zM122 25q0 -90 68 -90q49 0 71 26.5t22 66.5q0 27 -16.5 44.5 t-49.5 17.5q-52 0 -94 -34q-1 -10 -1 -31z" />
<glyph horiz-adv-x="317" d="M31 -120l226 355h-198l12 65h280l-12 -65l-223 -355h-85z" />
<glyph horiz-adv-x="393" d="M23 -26q0 45 31 79t81 45q-63 20 -63 81q0 59 50.5 94.5t127.5 35.5q64 0 101.5 -26.5t37.5 -72.5q0 -84 -97 -112q34 -9 54 -33.5t20 -56.5q0 -68 -54.5 -102.5t-138.5 -34.5q-68 0 -109 25.5t-41 77.5zM112 -11q0 -54 72 -54q41 0 68.5 18t27.5 58q0 53 -72 53 q-46 0 -71 -19.5t-25 -55.5zM157 175q0 -48 62 -48q40 0 60.5 18.5t20.5 50.5q0 49 -61 49q-35 0 -58.5 -17t-23.5 -53z" />
<glyph horiz-adv-x="383" d="M23 -19h88q5 -46 56 -46q46 0 76 37t42 99q-51 -44 -111 -44q-62 0 -96 29t-34 84q0 76 58 122.5t133 46.5q69 0 107.5 -41t38.5 -113q0 -125 -64 -204.5t-161 -79.5q-65 0 -101 29.5t-32 80.5zM132 152q0 -27 16 -44.5t49 -17.5q52 0 95 35q1 10 1 30q0 90 -69 90 q-49 0 -70.5 -26.5t-21.5 -66.5z" />
<glyph horiz-adv-x="361" d="M40 66l11 66h118l19 109h68l-19 -109h118l-11 -66h-119l-19 -109h-68l19 109h-117z" />
<glyph horiz-adv-x="361" d="M40 66l11 66h304l-11 -66h-304z" />
<glyph horiz-adv-x="361" d="M29 3l12 66h304l-12 -66h-304zM51 129l12 66h304l-12 -66h-304z" />
<glyph horiz-adv-x="152" d="M-13 -233l44 174h82l-55 -174h-71z" />
<glyph horiz-adv-x="168" d="M14 -84q0 26 19.5 44t44.5 18q20 0 33 -13t13 -32q0 -26 -19.5 -44t-44.5 -18q-20 0 -33 13t-13 32z" />
<glyph horiz-adv-x="241" d="M38 36q0 108 54.5 195t131.5 144h77q-76 -61 -125 -154.5t-49 -185.5q0 -65 19.5 -128t53.5 -102h-77q-36 36 -60.5 97.5t-24.5 133.5z" />
<glyph horiz-adv-x="241" d="M-29 -195q76 61 125 154.5t49 186.5q0 65 -19.5 127.5t-53.5 101.5h78q35 -36 59.5 -97.5t24.5 -133.5q0 -108 -54.5 -195t-130.5 -144h-78z" />
<glyph horiz-adv-x="427" d="M110 445q0 114 65.5 189t162.5 75q71 0 111.5 -47t40.5 -127q0 -115 -66 -189.5t-163 -74.5q-70 0 -110.5 47t-40.5 127zM198 444q0 -54 20 -81t55 -27q54 0 91 52.5t37 147.5q0 108 -74 108q-54 0 -91.5 -52.5t-37.5 -147.5z" />
<glyph horiz-adv-x="251" d="M118 572l13 75l113 53h85l-74 -420h-85l61 345z" />
<glyph horiz-adv-x="369" d="M87 280l11 64q27 20 64.5 47.5t58 42.5t46.5 35.5t39.5 34t26.5 29.5t18.5 31t5.5 31q0 50 -57 50q-62 0 -84 -72h-88q15 65 64 100.5t119 35.5q60 0 96 -28t36 -80q0 -60 -44 -106t-174 -142q-9 -6 -13 -9h189l-10 -64h-304z" />
<glyph horiz-adv-x="389" d="M98 392h87q-1 -30 16 -43.5t56 -13.5q90 0 90 75q0 55 -83 55h-54l11 64h54q44 0 68.5 18.5t24.5 53.5q0 44 -60 44q-63 0 -84 -57h-88q15 57 64 89t119 32q62 0 98.5 -27t36.5 -74q0 -37 -26.5 -67t-73.5 -41q41 -6 60 -30t19 -55q0 -62 -57 -103t-131 -41 q-77 0 -116 32t-31 89z" />
<glyph horiz-adv-x="365" d="M80 352l11 66l186 282h85l-187 -282h105l17 96h82l-17 -96h66l-11 -66h-66l-13 -72h-82l13 72h-189z" />
<glyph horiz-adv-x="364" d="M96 382h88q0 -47 58 -47q44 0 68.5 26.5t24.5 77.5q0 63 -60 63q-48 0 -78 -32h-74l41 230h275l-12 -65h-202l-17 -102q38 32 99 32q51 0 83 -31.5t32 -88.5q0 -81 -58 -127.5t-133 -46.5q-71 0 -106.5 29t-28.5 82z" />
<glyph horiz-adv-x="383" d="M105 425q0 125 63.5 204.5t160.5 79.5q63 0 98.5 -27.5t31.5 -72.5h-87q-8 36 -54 36t-75.5 -37t-41.5 -99q49 44 112 44q60 0 94 -29t34 -84q0 -76 -58 -122.5t-133 -46.5q-69 0 -107 40.5t-38 113.5zM193 425q0 -90 68 -90q49 0 71 26.5t22 66.5q0 27 -16.5 44.5 t-49.5 17.5q-52 0 -94 -34q-1 -10 -1 -31z" />
<glyph horiz-adv-x="317" d="M101 280l226 355h-198l12 65h280l-12 -65l-223 -355h-85z" />
<glyph horiz-adv-x="393" d="M94 374q0 45 31 79t81 45q-63 20 -63 81q0 59 50.5 94.5t127.5 35.5q64 0 101.5 -26.5t37.5 -72.5q0 -84 -97 -112q34 -9 54 -33.5t20 -56.5q0 -68 -54.5 -102.5t-138.5 -34.5q-68 0 -109 25.5t-41 77.5zM183 389q0 -54 72 -54q41 0 68.5 18t27.5 58q0 53 -72 53 q-46 0 -71 -19.5t-25 -55.5zM228 575q0 -48 62 -48q40 0 60.5 18.5t20.5 50.5q0 49 -61 49q-35 0 -58.5 -17t-23.5 -53z" />
<glyph horiz-adv-x="383" d="M94 381h88q5 -46 56 -46q46 0 76 37t42 99q-51 -44 -111 -44q-62 0 -96 29t-34 84q0 76 58 122.5t133 46.5q69 0 107.5 -41t38.5 -113q0 -125 -64 -204.5t-161 -79.5q-65 0 -101 29.5t-32 80.5zM203 552q0 -27 16 -44.5t49 -17.5q52 0 95 35q1 10 1 30q0 90 -69 90 q-49 0 -70.5 -26.5t-21.5 -66.5z" />
<glyph horiz-adv-x="427" d="M60 165q0 114 65.5 189t162.5 75q71 0 111.5 -47t40.5 -127q0 -115 -66 -189.5t-163 -74.5q-70 0 -110.5 47t-40.5 127zM148 164q0 -54 20 -81t55 -27q54 0 91 52.5t37 147.5q0 108 -74 108q-54 0 -91.5 -52.5t-37.5 -147.5z" />
<glyph horiz-adv-x="251" d="M69 292l13 75l113 53h85l-74 -420h-85l61 345z" />
<glyph horiz-adv-x="369" d="M38 0l11 64q27 20 64.5 47.5t58 42.5t46.5 35.5t39.5 34t26.5 29.5t18.5 31t5.5 31q0 50 -57 50q-62 0 -84 -72h-88q15 65 64 100.5t119 35.5q60 0 96 -28t36 -80q0 -60 -44 -106t-174 -142q-9 -6 -13 -9h189l-10 -64h-304z" />
<glyph horiz-adv-x="389" d="M48 112h87q-1 -30 16 -43.5t56 -13.5q90 0 90 75q0 55 -83 55h-54l11 64h54q44 0 68.5 18.5t24.5 53.5q0 44 -60 44q-63 0 -84 -57h-88q15 57 64 89t119 32q62 0 98.5 -27t36.5 -74q0 -37 -26.5 -67t-73.5 -41q41 -6 60 -30t19 -55q0 -62 -57 -103t-131 -41 q-77 0 -116 32t-31 89z" />
<glyph horiz-adv-x="365" d="M31 72l11 66l186 282h85l-187 -282h105l17 96h82l-17 -96h66l-11 -66h-66l-13 -72h-82l13 72h-189z" />
<glyph horiz-adv-x="364" d="M46 102h88q0 -47 58 -47q44 0 68.5 26.5t24.5 77.5q0 63 -60 63q-48 0 -78 -32h-74l41 230h275l-12 -65h-202l-17 -102q38 32 99 32q51 0 83 -31.5t32 -88.5q0 -81 -58 -127.5t-133 -46.5q-71 0 -106.5 29t-28.5 82z" />
<glyph horiz-adv-x="383" d="M55 145q0 125 63.5 204.5t160.5 79.5q63 0 98.5 -27.5t31.5 -72.5h-87q-8 36 -54 36t-75.5 -37t-41.5 -99q49 44 112 44q60 0 94 -29t34 -84q0 -76 -58 -122.5t-133 -46.5q-69 0 -107 40.5t-38 113.5zM143 145q0 -90 68 -90q49 0 71 26.5t22 66.5q0 27 -16.5 44.5 t-49.5 17.5q-51 0 -94 -34q-1 -10 -1 -31z" />
<glyph horiz-adv-x="317" d="M52 0l226 355h-198l12 65h280l-12 -65l-223 -355h-85z" />
<glyph horiz-adv-x="393" d="M44 94q0 45 31 79t81 45q-63 20 -63 81q0 59 50.5 94.5t127.5 35.5q64 0 101.5 -26.5t37.5 -72.5q0 -84 -97 -112q34 -9 54 -33.5t20 -56.5q0 -68 -54.5 -102.5t-138.5 -34.5q-68 0 -109 25.5t-41 77.5zM133 109q0 -54 72 -54q41 0 68.5 18t27.5 58q0 53 -72 53 q-46 0 -71 -19.5t-25 -55.5zM178 295q0 -48 62 -48q40 0 60.5 18.5t20.5 50.5q0 49 -61 49q-35 0 -58.5 -17t-23.5 -53z" />
<glyph horiz-adv-x="383" d="M44 101h88q5 -46 56 -46q46 0 76 37t42 99q-51 -44 -111 -44q-62 0 -96 29t-34 84q0 76 58 122.5t133 46.5q69 0 107.5 -41t38.5 -113q0 -125 -64 -204.5t-161 -79.5q-65 0 -101 29.5t-32 80.5zM153 272q0 -27 16 -44.5t49 -17.5q52 0 95 35q1 10 1 30q0 90 -69 90 q-49 0 -70.5 -26.5t-21.5 -66.5z" />
<glyph horiz-adv-x="760" d="M63 95l326 274l-223 275l61 51l223 -274l326 274l49 -58l-327 -276l225 -276l-62 -50l-223 275l-325 -274z" />
<glyph horiz-adv-x="999" d="M95 327l12 77h920l-12 -77h-920z" />
<glyph horiz-adv-x="499" d="M95 327l12 77h420l-12 -77h-420z" />
<glyph horiz-adv-x="285" d="M46 328l14 76h241l-13 -76h-242z" />
<glyph horiz-adv-x="340" d="M93 317l14 85l275 197l-19 -110l-183 -131l137 -129l-19 -109z" />
<glyph horiz-adv-x="340" d="M57 120l20 111l182 130l-137 130l20 108l205 -197l-14 -85z" />
<glyph horiz-adv-x="559" d="M93 317l14 85l275 197l-19 -108l-183 -130l137 -130l-19 -111zM312 317l14 85l275 197l-19 -108l-183 -130l137 -130l-19 -111z" />
<glyph horiz-adv-x="559" d="M58 120l19 108l182 131l-136 129l19 111l205 -197l-14 -85zM277 120l19 108l182 131l-136 129l19 111l205 -197l-14 -85z" />
<glyph horiz-adv-x="514" d="M62 130q0 42 14 77t35.5 58.5t48 43.5t52 38.5t46 37.5t32.5 45.5t9 58.5h98q3 -48 -13 -85.5t-42 -58.5t-57 -42.5t-57.5 -40t-44.5 -49.5t-18 -71q0 -39 26.5 -60t70.5 -21q49 0 87.5 30t55.5 91h105q-21 -91 -92 -144t-170 -53q-87 0 -136.5 38t-49.5 107zM309 639 q0 32 23.5 54t55.5 22q24 0 39.5 -15.5t15.5 -40.5q0 -32 -24 -54t-55 -22q-25 0 -40 15.5t-15 40.5z" />
<glyph horiz-adv-x="318" d="M101 0l105 489h73l-68 -489h-110zM203 639q0 32 23.5 54t55.5 22q25 0 40.5 -15.5t15.5 -40.5q0 -32 -23.5 -54t-55.5 -22q-24 0 -40 15.5t-16 40.5z" />
<glyph horiz-adv-x="939" d="M60 263q0 152 69 272.5t197.5 190t294.5 69.5q157 0 266 -95.5t109 -250.5q0 -76 -19 -140.5t-50 -108.5t-70 -75t-78.5 -45.5t-76.5 -14.5q-42 0 -69.5 19t-31.5 57q-82 -76 -173 -76q-62 0 -105.5 53.5t-43.5 153.5q0 84 24.5 151t64.5 107.5t88 61.5t98 21 q34 0 65 -17t49 -44l-3 -18l11 63h95l-71 -404q-10 -61 30 -61q70 0 121.5 90t51.5 216q0 127 -79 209t-223 82q-188 0 -317.5 -126.5t-129.5 -323.5q0 -174 94.5 -265t252.5 -91q60 0 133 13t116 29l-11 -65q-47 -17 -122.5 -30t-141.5 -13q-82 0 -155.5 25.5t-132 74 t-93 128t-34.5 178.5zM380 283q0 -71 27 -106.5t65 -35.5q73 0 133 55v-4l52 294q-41 52 -105 52q-68 0 -120 -65.5t-52 -189.5z" />
<glyph horiz-adv-x="843" d="M94 251l12 68h744l-12 -68h-744z" />
<glyph horiz-adv-x="439" d="M94 251l12 68h340l-13 -68h-339z" />
<glyph horiz-adv-x="307" d="M94 251l12 68h208l-12 -68h-208z" />
<glyph horiz-adv-x="435" d="M106 401q16 71 75.5 113.5t138.5 42.5q72 0 114 -31t42 -85q0 -49 -20.5 -84.5t-49 -55t-57 -37t-46.5 -42t-15 -57.5h-92q-3 43 15 73.5t45.5 49t56 35.5t48.5 43.5t20 63.5q0 57 -73 57q-81 0 -105 -86h-97zM158 33q0 28 21 47t49 19q22 0 35 -13.5t13 -34.5 q0 -28 -20 -47t-49 -19q-21 0 -35 13.5t-14 34.5z" />
<glyph horiz-adv-x="432" d="M48 101q0 49 20.5 84.5t49 55t57 37t46.5 42t15 57.5h92q3 -43 -14.5 -73.5t-45.5 -49t-56.5 -35.5t-48.5 -44t-20 -63q0 -57 73 -57q81 0 105 86h97q-16 -71 -75.5 -113.5t-138.5 -42.5q-72 0 -114 31t-42 85zM248 491q0 28 20 47t49 19q21 0 35 -13.5t14 -34.5 q0 -28 -20.5 -47t-49.5 -19q-22 0 -35 13.5t-13 34.5z" />
<glyph horiz-adv-x="299" d="M96 33q0 28 20.5 47t48.5 19q22 0 35.5 -13.5t13.5 -34.5q0 -28 -20 -47t-49 -19q-22 0 -35.5 13.5t-13.5 34.5zM141 165l53 378h100l-82 -378h-71z" />
<glyph horiz-adv-x="291" d="M91 0l81 378h72l-53 -378h-100zM170 492q0 27 21 46.5t48 19.5q22 0 36 -13.5t14 -34.5q0 -28 -20.5 -47t-49.5 -19q-22 0 -35.5 13.5t-13.5 34.5z" />
<glyph horiz-adv-x="362" d="M124 411q0 61 45.5 103.5t109.5 42.5q50 0 80.5 -30t30.5 -78q0 -61 -46 -103.5t-110 -42.5q-49 0 -79.5 30t-30.5 78zM199 427q-4 -22 6.5 -38t33.5 -20q30 -2 52 16.5t24 47.5q4 22 -7 38t-34 20q-29 2 -51 -16.5t-24 -47.5z" />
<glyph horiz-adv-x="190" d="M123 343l23 200h90l-47 -200h-66z" />
<glyph horiz-adv-x="322" d="M123 343l23 200h90l-47 -200h-66zM255 343l24 200h89l-46 -200h-67z" />
<glyph horiz-adv-x="244" d="M116 448l116 255h101l-135 -255h-82z" />
<glyph horiz-adv-x="404" d="M116 448l116 255h101l-135 -255h-82zM276 448l116 255h102l-135 -255h-83z" />
<glyph horiz-adv-x="244" d="M116 448l134 255h83l-116 -255h-101z" />
<glyph horiz-adv-x="404" d="M116 448l134 255h83l-116 -255h-101zM276 448l135 255h83l-117 -255h-101z" />
<glyph horiz-adv-x="478" d="M92 247l13 71h153l25 145h73l-25 -145h155l-14 -71h-154l-25 -145h-72l25 145h-154z" />
<glyph horiz-adv-x="478" d="M92 247l13 71h381l-14 -71h-380z" />
<glyph horiz-adv-x="478" d="M79 166l13 71h381l-14 -71h-380zM102 328l13 71h381l-14 -71h-380z" />
<glyph horiz-adv-x="312" d="M100 198q0 140 68.5 254t163.5 187h85q-96 -79 -157 -200.5t-61 -243.5q0 -83 23 -163t65 -129h-85q-44 46 -73 124t-29 171z" />
<glyph horiz-adv-x="311" d="M-12 -97q95 79 156.5 200.5t61.5 243.5q0 83 -23 163t-65 129h86q43 -45 72 -123.5t29 -170.5q0 -141 -68 -254t-163 -188h-86z" />
<glyph horiz-adv-x="302" d="M103 -97l130 736h164l-11 -61h-71l-109 -614h72l-11 -61h-164z" />
<glyph horiz-adv-x="302" d="M3 -97l10 61h71l108 614h-71l12 61h164l-130 -736h-164z" />
<glyph horiz-adv-x="319" d="M100 240l10 62q80 0 92 66l27 151q9 56 52 88t111 32h22l-10 -61h-12q-29 0 -47 -18.5t-22 -40.5l-26 -143q-7 -38 -32 -67.5t-57 -37.5q30 -8 44.5 -38t7.5 -68l-25 -142q-4 -22 7.5 -40.5t40.5 -18.5h12l-10 -61h-22q-68 0 -100 32t-22 88l27 151q10 66 -68 66z" />
<glyph horiz-adv-x="321" d="M4 -97l10 61h13q28 0 45.5 18.5t22.5 40.5l25 142q7 38 32.5 68t58.5 38q-31 8 -46 37.5t-7 67.5l25 143q4 22 -8 40.5t-41 18.5h-12l10 61h23q67 0 99 -32t22 -88l-27 -151q-5 -31 11 -48.5t58 -17.5l-11 -62q-81 0 -91 -66l-27 -151q-10 -56 -53 -88t-109 -32h-23z" />
<glyph horiz-adv-x="382" d="M16 -31l358 605h96l-358 -605h-96z" />
<glyph horiz-adv-x="387" d="M124 574h86l146 -605h-86z" />
<glyph horiz-adv-x="591" d="M74 119q0 55 34.5 101t91.5 78q-36 51 -36 94q0 66 57 115.5t139 49.5q74 0 120 -40.5t37 -111.5h-97q6 83 -72 83q-39 0 -65 -22.5t-26 -63.5q0 -46 40 -90l134 -150q29 53 41 123h92q-17 -97 -83 -179l95 -106h-113l-42 47q-82 -62 -177 -62q-78 0 -124 36.5t-46 97.5z M167 137q0 -38 27 -60.5t66 -22.5q69 0 117 42l-141 158q-69 -46 -69 -117z" />
<glyph horiz-adv-x="879" d="M105 369l434 369l47 -57l-320 -274h645l-14 -77h-653l227 -276l-62 -53z" />
<glyph horiz-adv-x="879" d="M98 330l14 77h653l-227 276l62 53l304 -368l-434 -369l-47 57l319 274h-644z" />
<glyph horiz-adv-x="817" d="M110 400l434 369l303 -369l-63 -54l-227 275l-114 -651h-78l113 646l-321 -273z" />
<glyph horiz-adv-x="817" d="M101 339l63 54l226 -275l115 651h78l-114 -646l322 273l47 -57l-434 -369z" />
<glyph horiz-adv-x="712" d="M105 140l92 522h521l-13 -78h-391l378 -460l-62 -55l-379 462l-69 -391h-77z" />
<glyph horiz-adv-x="712" d="M62 125l538 459h-387l14 78h521l-92 -522h-77l68 387l-539 -458z" />
<glyph horiz-adv-x="712" d="M122 69l14 78h391l-379 460l63 53l378 -460l69 391h78l-93 -522h-521z" />
<glyph horiz-adv-x="712" d="M92 69l92 522h78l-69 -388l539 459l45 -59l-537 -456h387l-14 -78h-521z" />
<glyph horiz-adv-x="1649" d="M105 369l434 369l47 -57l-320 -274h1415l-14 -77h-1423l227 -276l-62 -53z" />
<glyph horiz-adv-x="1649" d="M98 330l14 77h1423l-227 276l62 53l304 -368l-434 -369l-47 57l319 274h-1414z" />
<glyph horiz-adv-x="188" d="M152 580l40 223h88l-60 -223h-68z" />
<glyph horiz-adv-x="364" d="M183 752l152 140h136l-195 -140h-93z" />
<glyph horiz-adv-x="399" d="M207 892h67q-5 -31 13 -50.5t57 -19.5q40 0 63 19.5t28 50.5h71q-12 -71 -60 -109.5t-116 -38.5t-101.5 38.5t-21.5 109.5z" />
<glyph horiz-adv-x="486" d="M207 892h90l89 -68l113 68h94l-172 -140h-90z" />
<glyph horiz-adv-x="486" d="M183 752l172 140h90l124 -140h-90l-90 68l-112 -68h-94z" />
<glyph horiz-adv-x="438" d="M195 819q0 27 22.5 47.5t50.5 20.5q22 0 37 -14.5t15 -37.5q0 -28 -22 -48.5t-51 -20.5q-22 0 -37 15t-15 38zM410 818q0 28 22 48.5t51 20.5q23 0 37.5 -14.5t14.5 -37.5q0 -28 -22.5 -48.5t-50.5 -20.5q-23 0 -37.5 15t-14.5 37z" />
<glyph horiz-adv-x="225" d="M195 818q0 28 22.5 48.5t51.5 20.5q23 0 38 -14.5t15 -37.5q0 -28 -22.5 -49t-51.5 -21q-23 0 -38 15t-15 38z" />
<glyph horiz-adv-x="364" d="M207 892h126l114 -140h-85z" />
<glyph horiz-adv-x="520" d="M183 752l133 140h126l-174 -140h-85zM367 752l133 140h127l-175 -140h-85z" />
<glyph horiz-adv-x="417" d="M189 785l12 71h318l-13 -71h-317z" />
<glyph horiz-adv-x="325" d="M193 806q0 50 38.5 81t92.5 31q43 0 70 -22.5t27 -60.5q0 -50 -38.5 -80.5t-92.5 -30.5q-43 0 -70 22t-27 60zM264 806q6 -33 42 -26q22 2 34.5 17t9.5 38q-6 33 -42 26q-22 -2 -34 -16.5t-10 -38.5z" />
<glyph horiz-adv-x="461" d="M190 795q27 46 61 70t66 24q30 0 76.5 -23t59.5 -23q33 0 61 42l48 -26q-26 -46 -59.5 -69.5t-66.5 -23.5q-29 0 -75.5 23t-60.5 23q-32 0 -62 -43z" />
<glyph horiz-adv-x="324" d="M153 583l121 109h122l-155 -109h-88z" />
</font>
</defs>
</svg>
