<?xml version="1.0" standalone="no"?>
<!DOCTYPE svg PUBLIC "-//W3C//DTD SVG 1.1//EN" "http://www.w3.org/Graphics/SVG/1.1/DTD/svg11.dtd" >
<svg xmlns="http://www.w3.org/2000/svg">
<metadata></metadata>
<defs>
<font id="vegan_sans_premium_regular" horiz-adv-x="600" >
<font-face units-per-em="1000" ascent="800" descent="-200" />
<missing-glyph horiz-adv-x="300" />
<glyph unicode="fb" horiz-adv-x="940" d="M20 450v67h88v52q0 93 68 141.5t176 48.5q94 0 176 -27v-269q70 70 164 70q85 0 142.5 -70t57.5 -204q0 -132 -68 -203t-160 -71q-83 0 -136 61v-46h-95v682q-39 10 -81 10q-65 0 -107 -31t-42 -92v-52h117v-67h-117v-450h-95v450h-88zM528 112q49 -51 124 -51 q57 0 98.5 49t41.5 149t-37.5 149.5t-92.5 49.5q-80 0 -134 -56v-290z" />
<glyph unicode="ff" horiz-adv-x="686" d="M20 450v67h88v91q0 75 41.5 113t119.5 38q49 0 81 -16v-65q-42 11 -65 11q-82 0 -82 -81v-91h230v91q0 75 41.5 113t118.5 38q50 0 82 -16v-65q-44 11 -65 11q-82 0 -82 -81v-91h147v-67h-147v-450h-95v450h-230v-450h-95v450h-88z" />
<glyph unicode="fh" horiz-adv-x="948" d="M20 450v67h88v52q0 93 68 141.5t176 48.5q94 0 176 -27v-281q36 37 83.5 59.5t96.5 22.5q72 0 117.5 -41.5t45.5 -128.5v-363h-95v342q0 113 -102 113q-38 0 -79 -19.5t-67 -45.5v-390h-95v682q-39 10 -81 10q-65 0 -107 -31t-42 -92v-52h117v-67h-117v-450h-95v450h-88z " />
<glyph unicode="fi" horiz-adv-x="605" d="M20 450v67h88v91q0 75 41.5 113t119.5 38q48 0 80 -16v-65q-44 11 -64 11q-82 0 -82 -81v-91h325v-517h-95v450h-230v-450h-95v450h-88zM418 661q0 25 18 43.5t44 18.5t44.5 -18t18.5 -44t-18.5 -44t-44.5 -18t-44 18.5t-18 43.5z" />
<glyph unicode="fj" horiz-adv-x="605" d="M20 450v67h88v91q0 75 41.5 113t119.5 38q48 0 80 -16v-65q-44 11 -64 11q-82 0 -82 -81v-91h325v-725h-95v658h-230v-450h-95v450h-88zM418 661q0 25 18 43.5t44 18.5t44.5 -18t18.5 -44t-18.5 -44t-44.5 -18t-44 18.5t-18 43.5z" />
<glyph unicode="fk" horiz-adv-x="866" d="M20 450v67h88v52q0 93 68 141.5t176 48.5q94 0 176 -27v-454l210 239h103l-215 -232l237 -285h-118l-217 271v-271h-95v683q-41 9 -81 9q-65 0 -107 -31t-42 -92v-52h117v-67h-117v-450h-95v450h-88z" />
<glyph unicode="fl" horiz-adv-x="605" d="M20 450v67h88v52q0 93 68 141.5t176 48.5q94 0 176 -27v-732h-95v682q-39 10 -81 10q-65 0 -107 -31t-42 -92v-52h117v-67h-117v-450h-95v450h-88z" />
<glyph unicode="ft" horiz-adv-x="713" d="M20 450v67h88v91q0 75 41.5 113t119.5 38q49 0 81 -16v-65q-42 11 -65 11q-82 0 -82 -81v-91h230v143h95v-143h145v-67h-145v-308q0 -86 70 -86q31 0 84 16v-64q-49 -23 -115 -23q-59 0 -96.5 35t-37.5 101v329h-230v-450h-95v450h-88z" />
<glyph unicode="ffb" horiz-adv-x="1265" d="M20 450v67h88v91q0 75 41.5 113t119.5 38q49 0 81 -16v-65q-42 11 -65 11q-82 0 -82 -81v-91h230v52q0 93 68 141.5t175 48.5q94 0 176 -27v-269q70 70 164 70q85 0 142.5 -70t57.5 -204q0 -132 -67.5 -203t-159.5 -71q-84 0 -137 61v-46h-95v682q-39 10 -81 10 q-64 0 -106 -31t-42 -92v-52h117v-67h-117v-450h-95v450h-230v-450h-95v450h-88zM852 112q51 -51 125 -51q57 0 98 49.5t41 148.5q0 100 -37.5 149.5t-92.5 49.5q-78 0 -134 -56v-290z" />
<glyph unicode="ffh" horiz-adv-x="1273" d="M20 450v67h88v91q0 75 41.5 113t119.5 38q49 0 81 -16v-65q-42 11 -65 11q-82 0 -82 -81v-91h230v52q0 93 68 141.5t175 48.5q94 0 176 -27v-281q82 82 181 82q72 0 117.5 -41.5t45.5 -128.5v-363h-95v342q0 113 -103 113q-38 0 -78.5 -19t-67.5 -46v-390h-95v682 q-39 10 -81 10q-64 0 -106 -31t-42 -92v-52h117v-67h-117v-450h-95v450h-230v-450h-95v450h-88z" />
<glyph unicode="ffi" horiz-adv-x="929" d="M20 450v67h88v91q0 75 41.5 113t119.5 38q49 0 81 -16v-65q-42 11 -65 11q-82 0 -82 -81v-91h230v91q0 75 41.5 113t118.5 38q48 0 80 -16v-65q-42 11 -63 11q-82 0 -82 -81v-91h324v-517h-95v450h-229v-450h-95v450h-230v-450h-95v450h-88zM742 661q0 26 18.5 44 t44.5 18t44.5 -18.5t18.5 -43.5t-18.5 -43.5t-44.5 -18.5t-44.5 18t-18.5 44z" />
<glyph unicode="ffj" horiz-adv-x="929" d="M20 450v67h88v91q0 75 41.5 113t119.5 38q49 0 81 -16v-65q-42 11 -65 11q-82 0 -82 -81v-91h230v91q0 75 41.5 113t118.5 38q48 0 80 -16v-65q-42 11 -63 11q-82 0 -82 -81v-91h324v-725h-95v658h-229v-450h-95v450h-230v-450h-95v450h-88zM742 661q0 26 18.5 44 t44.5 18t44.5 -18.5t18.5 -43.5t-18.5 -43.5t-44.5 -18.5t-44.5 18t-18.5 44z" />
<glyph unicode="ffk" horiz-adv-x="1190" d="M20 450v67h88v91q0 75 41.5 113t119.5 38q49 0 81 -16v-65q-42 11 -65 11q-82 0 -82 -81v-91h230v52q0 93 68 141.5t175 48.5q94 0 176 -27v-454l211 239h103l-215 -232l236 -285h-118l-217 271v-271h-95v682q-39 10 -81 10q-64 0 -106 -31t-42 -92v-52h117v-67h-117 v-450h-95v450h-230v-450h-95v450h-88z" />
<glyph unicode="ffl" horiz-adv-x="973" d="M20 450v67h88v91q0 75 41.5 113t119.5 38q49 0 81 -16v-65q-42 11 -65 11q-82 0 -82 -81v-91h230v52q0 93 68 141.5t175 48.5q94 0 176 -27v-732h-95v679q-41 9 -80 9q-65 0 -107 -29t-42 -90v-52h117v-67h-117v-450h-95v450h-230v-450h-95v450h-88z" />
<glyph unicode="fft" horiz-adv-x="1038" d="M20 450v67h88v91q0 75 41.5 113t119.5 38q49 0 81 -16v-65q-42 11 -65 11q-82 0 -82 -81v-91h230v91q0 75 41.5 113t118.5 38q50 0 82 -16v-65q-44 11 -65 11q-82 0 -82 -81v-91h229v143h95v-143h146v-67h-146v-308q0 -86 71 -86q31 0 83 16v-64q-48 -23 -114 -23 q-60 0 -97.5 35t-37.5 101v329h-229v-450h-95v450h-230v-450h-95v450h-88z" />
<glyph unicode="tt" horiz-adv-x="733" d="M20 450v67h88v143h95v-143h250v143h95v-143h145v-67h-145v-308q0 -86 70 -86q31 0 84 16v-64q-49 -23 -115 -23q-59 0 -96.5 35t-37.5 101v329h-250v-308q0 -86 71 -86q31 0 83 16v-64q-48 -23 -114 -23q-60 0 -97.5 35t-37.5 101v329h-88z" />
<glyph unicode="&#xd;" horiz-adv-x="0" />
<glyph unicode=" "  horiz-adv-x="300" />
<glyph unicode="&#x09;" horiz-adv-x="300" />
<glyph unicode="&#xa0;" horiz-adv-x="300" />
<glyph unicode="!" horiz-adv-x="320" d="M94 51q0 29 19 47.5t47 18.5t47 -18.5t19 -47.5t-19 -47.5t-47 -18.5t-47 18.5t-19 47.5zM104 700h112l-19 -489h-74z" />
<glyph unicode="&#x22;" horiz-adv-x="355" d="M50 700h99l-15 -258h-69zM206 700h99l-15 -258h-69z" />
<glyph unicode="#" horiz-adv-x="722" d="M45 191v78h115l42 161h-107v78h127l49 192h94l-49 -192h171l49 192h94l-49 -192h95v-78h-115l-42 -161h107v-78h-127l-49 -191h-94l49 191h-171l-49 -191h-94l49 191h-95zM254 269h171l42 161h-171z" />
<glyph unicode="$" horiz-adv-x="607" d="M48 207h108q8 -118 102 -139v254q-44 10 -73.5 21t-61.5 32t-48.5 56.5t-16.5 84.5q0 79 55.5 132.5t144.5 64.5v107h91v-108q94 -11 146 -64.5t56 -144.5h-107q-8 109 -95 129v-237q36 -8 60.5 -15t55 -22.5t49 -34.5t31.5 -50.5t13 -71.5q0 -84 -59.5 -143t-149.5 -71 v-107h-91v108q-97 11 -151.5 66.5t-58.5 152.5zM158 528q0 -48 26 -73t74 -40v220q-100 -17 -100 -107zM349 65q49 9 79 40.5t30 81.5t-28.5 75t-80.5 40v-237z" />
<glyph unicode="%" horiz-adv-x="990" d="M49 490q0 99 51 159t134 60t134 -60t51 -159t-51 -159t-134 -60t-134 60t-51 159zM138 490q0 -78 26 -116t70 -38t70 38t26 116t-26 116t-70 38t-70 -38t-26 -116zM223 0l441 700h97l-441 -700h-97zM569 210q0 99 51 159t134 60t134 -60t51 -159t-51 -159t-134 -60 t-134 60t-51 159zM658 210q0 -78 26 -116t70 -38t70 38t26 116t-26 116t-70 38t-70 -38t-26 -116z" />
<glyph unicode="&#x26;" horiz-adv-x="709" d="M55 185q0 119 114 196q-61 75 -61 151q0 75 58.5 129t145.5 54q101 0 157.5 -48.5t61.5 -142.5h-107q-6 63 -35 88.5t-77 25.5q-45 0 -74.5 -27t-29.5 -73q0 -69 69 -135l212 -205q28 72 28 170h99q0 -129 -62 -233l140 -135h-133l-65 63q-83 -78 -195 -78 q-107 0 -176.5 53.5t-69.5 146.5zM154 196q0 -59 43 -96.5t105 -37.5q84 0 137 56l-219 209q-66 -45 -66 -131z" />
<glyph unicode="'" horiz-adv-x="199" d="M50 700h99l-15 -258h-69z" />
<glyph unicode="(" horiz-adv-x="355" d="M60 350q0 151 57.5 274.5t140.5 200.5h91q-83 -83 -132 -213t-49 -262t49 -262t132 -213h-91q-83 77 -140.5 200t-57.5 275z" />
<glyph unicode=")" horiz-adv-x="355" d="M5 -125q83 83 132 213t49 262t-49 262t-132 213h91q84 -77 141.5 -200.5t57.5 -274.5q0 -152 -57.5 -275t-141.5 -200h-91z" />
<glyph unicode="*" horiz-adv-x="510" d="M50 466l151 55l-151 56l52 90l128 -108l-28 161h105l-29 -160l129 107l53 -90l-152 -56l152 -55l-53 -90l-129 107l29 -162h-105l29 163l-129 -108z" />
<glyph unicode="+" horiz-adv-x="563" d="M50 327v78h192v192h78v-192h193v-78h-193v-193h-78v193h-192z" />
<glyph unicode="," horiz-adv-x="225" d="M52 -160l20 262h99l-37 -262h-82z" />
<glyph unicode="-" horiz-adv-x="341" d="M50 238v77h241v-77h-241z" />
<glyph unicode="." horiz-adv-x="240" d="M54 51q0 29 19 47.5t47 18.5t47 -18.5t19 -47.5t-19 -47.5t-47 -18.5t-47 18.5t-19 47.5z" />
<glyph unicode="/" horiz-adv-x="453" d="M20 -40l315 780h98l-315 -780h-98z" />
<glyph unicode="0" horiz-adv-x="627" d="M48 350q0 167 70.5 266t194.5 99t194.5 -99t70.5 -266t-70.5 -266t-194.5 -99t-194.5 99t-70.5 266zM156 350q0 -142 43 -214.5t114 -72.5q72 0 115 72.5t43 214.5t-43 214.5t-115 72.5q-71 0 -114 -72.5t-43 -214.5z" />
<glyph unicode="1" horiz-adv-x="391" d="M38 522v88l165 90h101v-700h-101v610z" />
<glyph unicode="2" horiz-adv-x="545" d="M48 488q5 109 68 168t170 59q101 0 159 -52t58 -148q0 -89 -72.5 -185t-238.5 -252h323v-78h-450v78q175 166 226 224q108 123 108 213q0 62 -30.5 92.5t-82.5 30.5q-119 0 -130 -150h-108z" />
<glyph unicode="3" horiz-adv-x="574" d="M47 187h107q11 -125 140 -125q59 0 97 37.5t38 100.5q0 55 -40.5 89t-122.5 34h-71v77h71q69 0 106.5 35.5t37.5 89.5q0 55 -32 84t-84 29q-118 0 -133 -125h-107q8 95 71 148.5t169 53.5q99 0 160 -50.5t61 -139.5q0 -52 -33.5 -97t-91.5 -62q73 -11 108.5 -58.5 t35.5 -107.5q0 -95 -69.5 -155t-170.5 -60q-118 0 -180 52.5t-67 149.5z" />
<glyph unicode="4" horiz-adv-x="563" d="M33 137v77l208 486h99l-209 -486h200v176h98v-176h97v-77h-97v-137h-98v137h-298z" />
<glyph unicode="5" horiz-adv-x="551" d="M48 170h108q11 -108 125 -108q57 0 91.5 42t34.5 122q0 86 -30.5 124.5t-90.5 38.5q-86 0 -132 -70h-88v381h403v-78h-315v-231q56 75 153 75q92 0 148 -60t56 -180q0 -113 -65.5 -177t-164.5 -64q-109 0 -168.5 47.5t-64.5 137.5z" />
<glyph unicode="6" horiz-adv-x="591" d="M48 311q0 193 70.5 298.5t192.5 105.5q95 0 149.5 -44.5t62.5 -121.5h-107q-9 47 -34.5 68t-70.5 21q-142 0 -154 -268q31 38 77 61.5t97 23.5q97 0 154.5 -60.5t57.5 -173.5q0 -106 -70.5 -171t-171.5 -65q-123 0 -188 86t-65 240zM156 300q3 -238 145 -238 q62 0 99.5 42t37.5 117t-32.5 115.5t-94.5 40.5q-97 0 -155 -77z" />
<glyph unicode="7" horiz-adv-x="486" d="M38 622v78h418v-78l-247 -622h-98l252 622h-325z" />
<glyph unicode="8" horiz-adv-x="601" d="M48 187q0 64 37.5 112t101.5 64q-55 19 -87 59.5t-32 100.5q0 90 63.5 141t169.5 51t169 -51t63 -141q0 -60 -32 -100.5t-87 -59.5q64 -16 101.5 -64t37.5 -112q0 -102 -69.5 -152t-182.5 -50q-114 0 -183.5 50t-69.5 152zM152 188q0 -64 40.5 -95t108.5 -31t108 31 t40 95q0 60 -37 95.5t-111 35.5q-75 0 -112 -35.5t-37 -95.5zM171 521q0 -57 32 -90.5t98 -33.5t97.5 33.5t31.5 90.5t-35.5 87t-93.5 30q-59 0 -94.5 -30t-35.5 -87z" />
<glyph unicode="9" horiz-adv-x="591" d="M48 486q0 104 70.5 166.5t171.5 62.5q123 0 188 -86t65 -241q0 -195 -68.5 -299t-195.5 -104q-99 0 -157 47.5t-64 136.5h107q13 -107 114 -107q78 0 115 66.5t41 221.5q-31 -38 -77.5 -62t-97.5 -24q-98 0 -155 56t-57 166zM152 486q0 -145 128 -145q97 0 154 78 q-8 219 -144 219q-63 0 -100.5 -40t-37.5 -112z" />
<glyph unicode=":" horiz-adv-x="240" d="M54 51q0 29 19 47.5t47 18.5t47 -18.5t19 -47.5t-19 -47.5t-47 -18.5t-47 18.5t-19 47.5zM54 465q0 29 19 47.5t47 18.5t47 -18.5t19 -47.5q0 -28 -19 -47t-47 -19t-47 19t-19 47z" />
<glyph unicode=";" horiz-adv-x="240" d="M54 -143l20 245h98l-37 -245h-81zM54 465q0 29 19 47.5t47 18.5t47 -18.5t19 -47.5q0 -28 -19 -47t-47 -19t-47 19t-19 47z" />
<glyph unicode="&#x3c;" horiz-adv-x="563" d="M50 327v81l463 198v-78l-368 -159l368 -157v-84z" />
<glyph unicode="=" horiz-adv-x="563" d="M50 225v78h463v-78h-463zM50 428v78h463v-78h-463z" />
<glyph unicode="&#x3e;" horiz-adv-x="563" d="M50 128v79l368 158l-368 158v83l463 -198v-81z" />
<glyph unicode="?" horiz-adv-x="523" d="M38 518q5 91 67 144t162 53q99 0 157.5 -48t58.5 -133q0 -55 -22 -94.5t-52 -61.5t-58 -42.5t-42 -51t-3 -73.5h-100q-10 47 -1 82t28 53t44.5 37t48 35t38 46t15.5 70q0 51 -30.5 77.5t-81.5 26.5q-49 0 -82 -30t-39 -90h-108zM191 51q0 29 19 47.5t47 18.5t46.5 -18.5 t18.5 -47.5t-18.5 -47.5t-46.5 -18.5t-47 18.5t-19 47.5z" />
<glyph unicode="@" horiz-adv-x="1058" d="M60 183q0 152 69 272.5t197.5 190t294.5 69.5q157 0 266 -95.5t109 -250.5q0 -76 -19 -140.5t-50 -108.5t-70 -75t-78.5 -45.5t-76.5 -14.5q-42 0 -69.5 19t-31.5 57q-82 -76 -173 -76q-62 0 -105.5 53.5t-43.5 153.5q0 84 24.5 151t64.5 107.5t88 61.5t98 21 q34 0 65 -17t49 -44l-3 -18l11 63h95l-71 -404q-10 -61 30 -61q70 0 121.5 90t51.5 216q0 127 -79 209t-223 82q-188 0 -317.5 -126.5t-129.5 -323.5q0 -174 94.5 -265t252.5 -91q60 0 133 13t116 29l-11 -65q-47 -17 -122.5 -30t-141.5 -13q-82 0 -155.5 25.5t-132 74 t-93 128t-34.5 178.5zM380 203q0 -71 27 -106.5t65 -35.5q73 0 133 55v-4l52 294q-41 52 -105 52q-68 0 -120 -65.5t-52 -189.5z" />
<glyph unicode="A" horiz-adv-x="635" d="M10 0l248 700h105l262 -700h-110l-68 190h-276l-63 -190h-98zM196 266h224l-73 206l-43 131l-40 -131z" />
<glyph unicode="B" horiz-adv-x="629" d="M87 0v700h222q48 0 88.5 -9t76.5 -28.5t56.5 -55t20.5 -84.5q0 -55 -33 -100t-81 -59q62 -8 102.5 -47t40.5 -111q0 -98 -69 -152t-181 -54h-243zM188 77h142q146 0 146 129q0 109 -146 109h-142v-238zM188 391h121q65 0 101.5 32.5t36.5 93.5q0 58 -35.5 82t-102.5 24 h-121v-232z" />
<glyph unicode="C" horiz-adv-x="669" d="M48 350q0 166 82.5 265.5t219.5 99.5q113 0 185 -60.5t87 -180.5h-112q-21 163 -160 163q-85 0 -139 -73t-54 -214q0 -143 51.5 -215t141.5 -72q139 0 160 163h112q-15 -120 -87 -180.5t-185 -60.5q-144 0 -223 98.5t-79 266.5z" />
<glyph unicode="D" horiz-adv-x="706" d="M87 0v700h212q165 0 262 -93t97 -257t-97 -257t-262 -93h-212zM188 78h111q114 0 182 66t68 206t-68 206t-182 66h-111v-544z" />
<glyph unicode="E" horiz-adv-x="550" d="M87 0v700h412v-78h-311v-215h291v-77h-291v-252h311v-78h-412z" />
<glyph unicode="F" horiz-adv-x="527" d="M87 0v700h402v-78h-301v-235h281v-78h-281v-309h-101z" />
<glyph unicode="G" horiz-adv-x="678" d="M48 350q0 166 82.5 265.5t220.5 99.5q110 0 180 -57.5t86 -170.5h-112q-22 150 -154 150q-86 0 -140 -73t-54 -214t54.5 -214.5t135.5 -73.5q95 0 172 77v136h-165v76h264v-351h-99v69q-34 -36 -87.5 -60t-107.5 -24q-132 0 -204 97.5t-72 267.5z" />
<glyph unicode="H" horiz-adv-x="727" d="M87 0v700h101v-293h352v293h100v-700h-100v330h-352v-330h-101z" />
<glyph unicode="I" horiz-adv-x="275" d="M87 0v700h101v-700h-101z" />
<glyph unicode="J" horiz-adv-x="567" d="M30 224h106q4 -88 35 -125t91 -37q127 0 127 125v513h101v-493q0 -110 -67 -166t-161 -56q-225 0 -232 239z" />
<glyph unicode="K" horiz-adv-x="617" d="M87 0v700h101v-331l256 331h108l-259 -324l297 -376h-127l-275 361v-361h-101z" />
<glyph unicode="L" horiz-adv-x="521" d="M87 0v700h101v-622h277v-78h-378z" />
<glyph unicode="M" horiz-adv-x="863" d="M87 0v700h114l236 -577l238 577h101v-700h-98v406l3 109l-200 -495h-96l-209 511l3 -126v-405h-92z" />
<glyph unicode="N" horiz-adv-x="716" d="M87 0v700h107l345 -553l-2 126v427h92v-700h-107l-346 553l3 -126v-427h-92z" />
<glyph unicode="O" horiz-adv-x="741" d="M48 350q0 166 87.5 265.5t234.5 99.5t234.5 -99.5t87.5 -265.5t-87.5 -265.5t-234.5 -99.5t-234.5 99.5t-87.5 265.5zM157 350q0 -142 58.5 -214.5t154.5 -72.5t155 72.5t59 214.5t-59 214.5t-155 72.5t-154.5 -72.5t-58.5 -214.5z" />
<glyph unicode="P" horiz-adv-x="595" d="M87 0v700h219q104 0 177 -58t73 -166t-73 -166t-177 -58h-118v-252h-101zM188 330h118q66 0 106 37t40 109q0 73 -40 110t-106 37h-118v-293z" />
<glyph unicode="Q" horiz-adv-x="741" d="M48 350q0 166 87.5 265.5t234.5 99.5t234.5 -99.5t87.5 -265.5q0 -123 -49 -211.5t-137 -126.5l161 -163h-131l-131 138q-24 -2 -35 -2q-147 0 -234.5 99.5t-87.5 265.5zM157 350q0 -142 58.5 -214.5t154.5 -72.5t155 72.5t59 214.5t-59 214.5t-155 72.5t-154.5 -72.5 t-58.5 -214.5z" />
<glyph unicode="R" horiz-adv-x="615" d="M87 0v700h214q105 0 177.5 -53t72.5 -160q0 -83 -45 -133.5t-119 -69.5l201 -284h-123l-181 274h-96v-274h-101zM188 350h113q146 0 146 137q0 136 -146 136h-113v-273z" />
<glyph unicode="S" horiz-adv-x="607" d="M48 207h108q11 -145 155 -145q63 0 105 32.5t42 92.5q0 20 -5.5 36.5t-12.5 27.5t-23 21t-26 15.5t-33 12t-33 8.5t-37 8q-31 6 -46.5 10t-44 12.5t-44.5 17.5t-36.5 24.5t-31.5 33.5t-19 44t-8 58q0 89 67.5 144t171.5 55q118 0 183.5 -54.5t70.5 -157.5h-107 q-6 72 -43 103.5t-104 31.5q-62 0 -100.5 -27.5t-38.5 -82.5q0 -23 5.5 -41t19.5 -31t25 -21t36 -15.5t36.5 -10t42.5 -9.5q32 -7 46.5 -10t45 -12t46 -17.5t37.5 -24t32.5 -33.5t19 -44t8.5 -58q0 -93 -72 -154.5t-175 -61.5q-120 0 -189 56.5t-74 165.5z" />
<glyph unicode="T" horiz-adv-x="547" d="M30 622v78h487v-78h-193v-622h-101v622h-193z" />
<glyph unicode="U" horiz-adv-x="705" d="M77 228v472h101v-452q0 -92 39.5 -138.5t131.5 -46.5q91 0 134.5 44t43.5 121v472h92v-452q0 -124 -72.5 -193.5t-197.5 -69.5q-126 0 -199 63.5t-73 179.5z" />
<glyph unicode="V" horiz-adv-x="632" d="M10 700h110l166 -466l43 -131l41 131l154 466h98l-247 -700h-105z" />
<glyph unicode="W" horiz-adv-x="919" d="M10 700h110l114 -447l31 -131l33 131l118 447h108l123 -447l34 -134l30 134l103 447h95l-180 -700h-106l-125 438l-35 135l-33 -135l-120 -438h-106z" />
<glyph unicode="X" horiz-adv-x="587" d="M18 0l217 356l-212 344h111l157 -261l153 261h98l-202 -332l228 -368h-112l-172 286l-167 -286h-99z" />
<glyph unicode="Y" horiz-adv-x="595" d="M27 700h110l174 -363l162 363h95l-215 -445v-255h-101v255z" />
<glyph unicode="Z" horiz-adv-x="536" d="M40 0v78l344 544h-336v78h448v-78l-343 -544h343v-78h-456z" />
<glyph unicode="[" horiz-adv-x="343" d="M120 -125v950h203v-66h-102v-818h102v-66h-203z" />
<glyph unicode="\" horiz-adv-x="453" d="M20 740h98l315 -780h-98z" />
<glyph unicode="]" horiz-adv-x="343" d="M20 -59h102v818h-102v66h203v-950h-203v66z" />
<glyph unicode="^" horiz-adv-x="532" d="M50 300l175 400h81l176 -400h-87l-131 307l-132 -307h-82z" />
<glyph unicode="_" horiz-adv-x="500" d="M40 -15h420v-78h-420v78z" />
<glyph unicode="`" horiz-adv-x="324" d="M50 733h122l102 -151h-81z" />
<glyph unicode="a" horiz-adv-x="552" d="M47 122q0 70 59.5 118.5t189.5 48.5q32 0 84 -5v62q0 119 -99 119q-57 0 -84.5 -27.5t-30.5 -91.5h-100q1 90 57.5 138t157.5 48q38 0 70.5 -8.5t61.5 -27t45.5 -54t16.5 -85.5v-357h-95v64q-83 -79 -176 -79q-72 0 -114.5 37.5t-42.5 99.5zM144 135q0 -77 101 -77 q35 0 72 19.5t63 47.5v100q-44 3 -78 3q-158 0 -158 -93z" />
<glyph unicode="b" horiz-adv-x="584" d="M77 0v744h95v-282q70 70 164 70q85 0 142.5 -70t57.5 -203t-67.5 -203.5t-160.5 -70.5q-83 0 -136 61v-46h-95zM172 112q49 -51 124 -51q58 0 99 49t41 149t-37 149t-93 49q-80 0 -134 -56v-289z" />
<glyph unicode="c" horiz-adv-x="537" d="M48 259q0 124 61 198.5t171 74.5q96 0 153.5 -48.5t65.5 -132.5h-102q-9 62 -36.5 88t-80.5 26q-59 0 -95 -51.5t-36 -154.5q0 -207 131 -207q52 0 79.5 26t37.5 86h101q-8 -82 -65.5 -130.5t-152.5 -48.5q-116 0 -174 73.5t-58 200.5z" />
<glyph unicode="d" horiz-adv-x="584" d="M48 259q0 132 67.5 202.5t160.5 70.5q85 0 136 -61v273h95v-744h-95v56q-69 -71 -164 -71q-84 0 -142 70t-58 204zM149 259q0 -101 37 -149.5t93 -48.5q79 0 133 56v288q-50 52 -124 52q-57 0 -98 -49t-41 -149z" />
<glyph unicode="e" horiz-adv-x="548" d="M48 259q0 122 62 197.5t166 75.5q114 0 172 -74q51 -66 51 -178q0 -15 -1 -31h-351q3 -197 129 -197q49 0 75.5 22.5t36.5 69.5h101q-9 -70 -66 -114.5t-147 -44.5q-113 0 -170.5 73.5t-57.5 200.5zM150 311h245q0 76 -32 115.5t-87 39.5q-50 0 -83.5 -38.5t-42.5 -116.5 z" />
<glyph unicode="f" horiz-adv-x="362" d="M20 450v67h88v91q0 75 41.5 113t119.5 38q49 0 81 -16v-65q-42 11 -65 11q-82 0 -82 -81v-91h147v-67h-147v-450h-95v450h-88z" />
<glyph unicode="g" horiz-adv-x="584" d="M48 260q0 132 67.5 202t160.5 70q85 0 136 -61v46h95v-511q0 -111 -65.5 -170t-161.5 -59q-107 0 -163 44.5t-58 124.5h100q3 -53 31.5 -77.5t89.5 -24.5q132 0 132 150v64q-69 -71 -164 -71q-84 0 -142 70t-58 203zM149 260q0 -100 37 -148.5t93 -48.5q79 0 133 56v286 q-50 52 -124 52q-57 0 -98 -48.5t-41 -148.5z" />
<glyph unicode="h" horiz-adv-x="592" d="M77 0v744h95v-294q79 82 180 82q72 0 117.5 -41t45.5 -128v-363h-95v341q0 113 -102 113q-38 0 -79.5 -19t-66.5 -46v-389h-95z" />
<glyph unicode="i" horiz-adv-x="249" d="M62 661q0 25 18 43.5t44 18.5t44.5 -18t18.5 -44t-18.5 -44t-44.5 -18t-44 18.5t-18 43.5zM77 0v517h95v-517h-95z" />
<glyph unicode="j" horiz-adv-x="249" d="M62 661q0 25 18 43.5t44 18.5t44.5 -18t18.5 -44t-18.5 -44t-44.5 -18t-44 18.5t-18 43.5zM77 -208v725h95v-725h-95z" />
<glyph unicode="k" horiz-adv-x="510" d="M77 0v744h95v-466l210 239h103l-215 -232l237 -285h-118l-217 271v-271h-95z" />
<glyph unicode="l" horiz-adv-x="249" d="M77 0v744h95v-744h-95z" />
<glyph unicode="m" horiz-adv-x="924" d="M77 0v517h95v-67q79 82 177 82q111 0 146 -87q86 87 192 87q72 0 116 -41t44 -128v-363h-95v341q0 58 -24.5 85.5t-75.5 27.5q-38 0 -77 -19t-67 -47q1 -8 1 -25v-363h-95v341q0 58 -24 85.5t-75 27.5q-38 0 -78 -19t-65 -46v-389h-95z" />
<glyph unicode="n" horiz-adv-x="592" d="M77 0v517h95v-67q79 82 180 82q72 0 117.5 -41t45.5 -128v-363h-95v341q0 113 -102 113q-38 0 -79.5 -19t-66.5 -46v-389h-95z" />
<glyph unicode="o" horiz-adv-x="585" d="M48 259q0 124 65 198.5t180 74.5q114 0 179 -74.5t65 -198.5t-65 -199t-179 -75q-115 0 -180 75t-65 199zM149 259q0 -104 38.5 -155.5t105.5 -51.5q66 0 105 52t39 155t-39 154.5t-105 51.5q-67 0 -105.5 -51.5t-38.5 -154.5z" />
<glyph unicode="p" horiz-adv-x="584" d="M77 -208v725h95v-55q70 70 164 70q85 0 142.5 -70t57.5 -203t-67.5 -203.5t-160.5 -70.5q-83 0 -136 61v-254h-95zM172 112q49 -51 124 -51q58 0 99 49t41 149t-37 149t-93 49q-80 0 -134 -56v-289z" />
<glyph unicode="q" horiz-adv-x="584" d="M48 259q0 132 67.5 202.5t160.5 70.5q85 0 136 -61v46h95v-725h-95v264q-69 -71 -164 -71q-84 0 -142 70t-58 204zM149 259q0 -101 37 -149.5t93 -48.5q79 0 133 56v288q-50 52 -124 52q-57 0 -98 -49t-41 -149z" />
<glyph unicode="r" horiz-adv-x="404" d="M77 0v517h95v-90q64 105 148 105q37 0 62 -25v-78q-38 16 -69 16q-43 0 -81.5 -27.5t-59.5 -65.5v-352h-95z" />
<glyph unicode="s" horiz-adv-x="510" d="M47 147h99q3 -47 30 -71.5t90 -24.5q47 0 77.5 23t30.5 65q0 18 -9 31.5t-19 21t-32 15t-33.5 10t-38.5 7.5q-35 6 -53.5 10t-49 15.5t-46.5 26t-29 40t-13 59.5q0 74 55 115.5t145 41.5q197 0 200 -147h-99q-3 43 -28 62t-77 19q-48 0 -77.5 -19t-29.5 -56q0 -18 8 -32 t17 -21.5t29.5 -14.5t32 -9.5t38.5 -7.5t33.5 -6.5t32 -7.5t35 -10.5t29.5 -13t28.5 -18.5t19.5 -23.5t15.5 -31.5t4.5 -39q0 -75 -56.5 -123t-145.5 -48q-108 0 -160 43t-54 119z" />
<glyph unicode="t" horiz-adv-x="389" d="M20 450v67h88v143h95v-143h146v-67h-146v-308q0 -86 71 -86q31 0 83 16v-64q-48 -23 -114 -23q-60 0 -97.5 35t-37.5 101v329h-88z" />
<glyph unicode="u" horiz-adv-x="588" d="M77 155v362h95v-341q0 -113 101 -113q38 0 77.5 19t65.5 46v389h95v-517h-95v67q-80 -82 -178 -82q-72 0 -116.5 41.5t-44.5 128.5z" />
<glyph unicode="v" horiz-adv-x="514" d="M18 517h107l100 -286l42 -129l41 129l96 286h91l-188 -517h-93z" />
<glyph unicode="w" horiz-adv-x="797" d="M18 517h104l85 -285l36 -130l35 130l81 285h88l86 -285l37 -130l35 130l83 285h90l-168 -517h-90l-83 267l-37 130l-37 -130l-78 -267h-92z" />
<glyph unicode="x" horiz-adv-x="512" d="M18 0l183 266l-172 251h106l119 -180l118 180h95l-165 -239l191 -278h-105l-139 207l-136 -207h-95z" />
<glyph unicode="y" horiz-adv-x="512" d="M18 517h107l96 -266l44 -130l43 130l95 266h91l-271 -725h-89l82 213z" />
<glyph unicode="z" horiz-adv-x="444" d="M38 0v67l265 383h-255v67h358v-67l-265 -383h265v-67h-368z" />
<glyph unicode="{" horiz-adv-x="377" d="M54 315v69q51 0 75.5 25t24.5 66v197q0 72 45.5 112.5t128.5 40.5h29v-66h-29q-37 0 -55 -24t-18 -53v-198q0 -48 -25 -86t-64 -48q39 -10 64 -49t25 -87v-196q0 -29 18 -53t55 -24h29v-66h-29q-83 0 -128.5 40.5t-45.5 112.5v196q0 41 -24.5 66t-75.5 25z" />
<glyph unicode="|" horiz-adv-x="272" d="M90 -160v980h92v-980h-92z" />
<glyph unicode="}" horiz-adv-x="377" d="M20 -59h28q37 0 55.5 24t18.5 53v196q0 48 24.5 87t63.5 49q-39 10 -63.5 48t-24.5 86v198q0 29 -18.5 53t-55.5 24h-28v66h28q83 0 129 -40.5t46 -112.5v-197q0 -41 24 -66t76 -25v-69q-52 0 -76 -25t-24 -66v-196q0 -72 -46 -112.5t-129 -40.5h-28v66z" />
<glyph unicode="~" horiz-adv-x="574" d="M33 326q57 122 154 122q41 0 78.5 -21.5t68.5 -43t57 -21.5q45 0 85 79l65 -36q-57 -121 -154 -121q-41 0 -78.5 21.5t-68.5 42.5t-57 21q-45 0 -85 -78z" />
<glyph unicode="&#xa1;" horiz-adv-x="320" d="M94 441q0 29 19 47.5t47 18.5t47 -18.5t19 -47.5t-19 -47.5t-47 -18.5t-47 18.5t-19 47.5zM104 -208l19 489h74l19 -489h-112z" />
<glyph unicode="&#xa2;" horiz-adv-x="537" d="M48 259q0 110 48 181.5t137 87.5v109h91v-108q77 -10 122 -57t53 -121h-102q-13 91 -73 109v-402q59 18 73 106h101q-8 -72 -53 -119t-121 -57v-108h-91v109q-93 15 -139 86t-46 184zM149 259q0 -165 84 -199v395q-84 -37 -84 -196z" />
<glyph unicode="&#xa3;" horiz-adv-x="569" d="M23 0v78h87v215h-87v78h87v136q0 97 59 152.5t152 55.5q99 0 157.5 -50t63.5 -145h-107q-12 118 -114 118q-47 0 -78.5 -28t-31.5 -90v-149h217v-78h-217v-215h317v-78h-505z" />
<glyph unicode="&#xa4;" horiz-adv-x="663" d="M45 596l55 54l84 -84q62 45 148 45q85 0 147 -45l84 84l55 -54l-84 -84q46 -67 46 -152t-46 -152l84 -84l-55 -54l-84 84q-62 -45 -147 -45q-86 0 -148 45l-84 -84l-54 54l83 84q-46 67 -46 152t46 152zM183 360q0 -88 41.5 -135.5t107.5 -47.5t107 47.5t41 135.5 t-41 135.5t-107 47.5t-107.5 -47.5t-41.5 -135.5z" />
<glyph unicode="&#xa5;" horiz-adv-x="595" d="M27 700h110l171 -284l165 284h95l-198 -329h158v-78h-175v-124h175v-78h-175v-91h-101v91h-176v78h176v124h-176v78h158z" />
<glyph unicode="&#xa6;" horiz-adv-x="272" d="M90 -160v455h92v-455h-92zM90 420v400h92v-400h-92z" />
<glyph unicode="&#xa7;" horiz-adv-x="616" d="M48 347q0 78 84 139q-65 42 -65 132q0 85 67 136t172 51q118 0 184 -54.5t71 -157.5h-108q-6 72 -43 103.5t-104 31.5q-62 0 -100.5 -24t-38.5 -73q0 -26 9.5 -44.5t23 -29.5t38.5 -18.5t44 -11t52 -7.5q35 -4 56 -7.5t52.5 -11t50 -19t37.5 -28t28 -42.5t9 -59 q0 -79 -83 -139q65 -42 65 -132q0 -85 -67 -136t-172 -51q-118 0 -184 54.5t-71 157.5h107q7 -72 44 -103.5t104 -31.5q62 0 100.5 24t38.5 73q0 26 -9.5 44.5t-23 29.5t-38.5 18.5t-44 11t-52 7.5q-43 5 -67.5 9t-61 16t-56 28t-34.5 45.5t-15 68.5zM146 364q0 -23 9 -40 t21 -27t35.5 -17t41 -10t48.5 -7q81 -10 125 -23q19 16 31.5 44t12.5 52q0 23 -9 40t-21 27t-35.5 17t-41 10t-48.5 7q-81 10 -125 22q-19 -15 -31.5 -43t-12.5 -52z" />
<glyph unicode="&#xa8;" horiz-adv-x="412" d="M50 661q0 25 18 43t44 18t43.5 -18t17.5 -43t-17.5 -43t-43.5 -18t-44 18t-18 43zM239 661q0 25 18 43t44 18q25 0 43 -18t18 -43t-18 -43t-43 -18q-26 0 -44 18t-18 43z" />
<glyph unicode="&#xa9;" horiz-adv-x="830" d="M50 350q0 152 105 258.5t260 106.5t260 -106.5t105 -258.5t-105 -258.5t-260 -106.5t-260 106.5t-105 258.5zM121 350q0 -125 85 -213t209 -88t209 88t85 213t-85 213t-209 88t-209 -88t-85 -213zM230 350q0 97 50.5 155.5t131.5 58.5q68 0 113 -35t54 -106h-78 q-7 44 -28.5 64t-60.5 20q-48 0 -77 -40t-29 -117q0 -158 106 -158q75 0 89 85h78q-9 -71 -54 -106.5t-113 -35.5q-86 0 -134 58t-48 157z" />
<glyph unicode="&#xaa;" horiz-adv-x="335" d="M27 515q0 95 150 95q11 0 49 -2v29q0 27 -16 41t-39 14q-56 0 -60 -55h-75q0 51 37 79t98 28q51 0 89 -23.5t38 -77.5v-203h-72v30q-46 -39 -103 -39q-47 0 -71.5 23.5t-24.5 60.5zM101 522q0 -37 49 -37q42 0 76 31v47q-27 3 -46 3q-79 0 -79 -44z" />
<glyph unicode="&#xab;" horiz-adv-x="559" d="M50 227v85l240 197v-107l-160 -130l160 -130v-112zM269 227v85l240 197v-107l-160 -130l160 -130v-112z" />
<glyph unicode="&#xac;" horiz-adv-x="563" d="M50 327v78h463v-271h-78v193h-385z" />
<glyph unicode="&#xad;" horiz-adv-x="341" d="M50 238v77h241v-77h-241z" />
<glyph unicode="&#xae;" horiz-adv-x="578" d="M50 477q0 100 68.5 169t170.5 69t170.5 -69t68.5 -169t-68.5 -169t-170.5 -69t-170.5 69t-68.5 169zM109 477q0 -76 52 -130.5t128 -54.5t127.5 54t51.5 131q0 76 -51.5 130t-127.5 54t-128 -54t-52 -130zM201 353v255h86q40 0 70 -19t30 -58q0 -58 -63 -73l72 -105h-61 l-66 100h-15v-100h-53zM254 495h33q45 0 45 36q0 34 -45 34h-33v-70z" />
<glyph unicode="&#xaf;" horiz-adv-x="396" d="M50 612v71h296v-71h-296z" />
<glyph unicode="&#xb0;" horiz-adv-x="428" d="M50 551q0 71 47 117.5t117 46.5t117 -46.5t47 -117.5t-47 -117.5t-117 -46.5t-117 46.5t-47 117.5zM123 551q0 -41 25.5 -68t65.5 -27t65.5 27t25.5 68t-25.5 68t-65.5 27t-65.5 -27t-25.5 -68z" />
<glyph unicode="&#xb1;" horiz-adv-x="563" d="M50 0v78h463v-78h-463zM50 337v78h192v192h78v-192h193v-78h-193v-193h-78v193h-192z" />
<glyph unicode="&#xb4;" horiz-adv-x="324" d="M50 582l102 151h122l-144 -151h-80z" />
<glyph unicode="&#xb5;" horiz-adv-x="588" d="M77 -208v725h95v-341q0 -113 101 -113q38 0 77.5 19t65.5 46v389h95v-517h-95v67q-75 -77 -166 -80q-42 -1 -78 14v-209h-95z" />
<glyph unicode="&#xb6;" horiz-adv-x="675" d="M57 506q0 95 67 144.5t162 49.5h289v-700h-85v623h-77v-623h-85v312h-42q-95 0 -162 49.5t-67 144.5z" />
<glyph unicode="&#xb7;" horiz-adv-x="232" d="M50 365q0 28 19 47t47 19t47 -19t19 -47t-19 -47t-47 -19t-47 19t-19 47z" />
<glyph unicode="&#xb8;" horiz-adv-x="293" d="M50 -180q26 -13 65 -13q21 0 38 11t17 30t-17 29.5t-38 10.5q-26 0 -43 -6l-19 34l63 84h65l-49 -66q46 3 78.5 -18t32.5 -65q0 -46 -36 -72.5t-86 -26.5q-42 0 -71 14v54z" />
<glyph unicode="&#xba;" horiz-adv-x="344" d="M18 588q0 69 42.5 112.5t111.5 43.5t111 -43t42 -113t-42 -113.5t-111 -43.5t-111.5 43.5t-42.5 113.5zM95 588q0 -104 77 -104q78 0 78 104t-78 104q-77 0 -77 -104z" />
<glyph unicode="&#xbb;" horiz-adv-x="559" d="M50 30v107l159 131l-159 129v112l240 -197v-85zM269 30v107l159 131l-159 129v112l240 -197v-85z" />
<glyph unicode="&#xbc;" horiz-adv-x="830" d="M49 572v75l103 53h85v-420h-85v345zM124 0l441 700h97l-441 -700h-97zM443 72v66l136 282h83l-137 -282h107v96h82v-96h66v-66h-66v-72h-82v72h-189z" />
<glyph unicode="&#xbd;" horiz-adv-x="860" d="M49 572v75l103 53h85v-420h-85v345zM124 0l441 700h97l-441 -700h-97zM496 293q3 65 46 100.5t113 35.5q68 0 110 -33t42 -96q0 -28 -9 -51.5t-39.5 -56.5t-54 -53.5t-86.5 -74.5h192v-64h-304v64q22 19 53 45t48 40.5t38.5 34t33 32t23 28t16 29t4.5 27.5q0 65 -67 65 q-64 0 -71 -72h-88z" />
<glyph unicode="&#xbe;" horiz-adv-x="917" d="M49 392h88q7 -57 81 -57q78 0 78 64q0 66 -93 66h-54v64h54q81 0 81 61q0 55 -69 55q-64 0 -74 -57h-88q5 57 48.5 89t113.5 32t112 -32t42 -86q0 -31 -21.5 -56.5t-60.5 -34.5q49 -7 72 -36t23 -65q0 -56 -48.5 -92t-115.5 -36q-77 0 -121.5 32t-47.5 89zM211 0l441 700 h97l-441 -700h-97zM529 72v66l136 282h83l-137 -282h107v96h82v-96h66v-66h-66v-72h-82v72h-189z" />
<glyph unicode="&#xbf;" horiz-adv-x="523" d="M40 -42q0 47 16 83t39 55.5t49 39.5t45.5 36t29 44.5t-0.5 64.5h99q10 -47 1 -82t-28 -53t-44.5 -37t-48 -35t-38 -46t-15.5 -70q0 -51 30.5 -77.5t82.5 -26.5q49 0 82 30t39 90h107q-5 -91 -67 -144t-161 -53q-100 0 -158.5 48t-58.5 133zM201 441q0 29 19 47.5t47 18.5 t47 -18.5t19 -47.5t-19 -47.5t-47 -18.5t-47 18.5t-19 47.5z" />
<glyph unicode="&#xc0;" horiz-adv-x="635" d="M10 0l248 700h105l262 -700h-110l-68 190h-276l-63 -190h-98zM145 892h132l132 -140h-89zM196 266h224l-73 206l-43 131l-40 -131z" />
<glyph unicode="&#xc1;" horiz-adv-x="635" d="M10 0l248 700h105l262 -700h-110l-68 190h-276l-63 -190h-98zM196 266h224l-73 206l-43 131l-40 -131zM208 752l132 140h132l-175 -140h-89z" />
<glyph unicode="&#xc2;" horiz-adv-x="635" d="M10 0l248 700h105l262 -700h-110l-68 190h-276l-63 -190h-98zM116 752l148 140h90l148 -140h-92l-102 68l-100 -68h-92zM196 266h224l-73 206l-43 131l-40 -131z" />
<glyph unicode="&#xc3;" horiz-adv-x="635" d="M10 0l248 700h105l262 -700h-110l-68 190h-276l-63 -190h-98zM128 795q19 46 48.5 70t62.5 24q29 0 79.5 -23t63.5 -23q34 0 54 42l53 -26q-18 -46 -47.5 -69.5t-62.5 -23.5q-29 0 -80 23t-65 23q-31 0 -54 -43zM196 266h224l-73 206l-43 131l-40 -131z" />
<glyph unicode="&#xc4;" horiz-adv-x="635" d="M10 0l248 700h105l262 -700h-110l-68 190h-276l-63 -190h-98zM139 827q0 25 18 42.5t44 17.5t44 -17.5t18 -42.5t-18 -43t-44 -18t-44 18t-18 43zM196 266h224l-73 206l-43 131l-40 -131zM354 827q0 25 18 42.5t44 17.5q25 0 43 -17.5t18 -42.5t-18 -43t-43 -18 q-26 0 -44 18t-18 43z" />
<glyph unicode="&#xc5;" horiz-adv-x="635" d="M10 0l248 700h105l262 -700h-110l-68 190h-276l-63 -190h-98zM196 266h224l-73 206l-43 131l-40 -131zM196 821q0 44 32.5 70.5t80.5 26.5t80 -26.5t32 -70.5t-32 -70.5t-80 -26.5q-49 0 -81 26t-32 71zM268 815q6 -43 47 -36q40 5 34 48q-5 42 -47 35q-40 -5 -34 -47z " />
<glyph unicode="&#xc6;" horiz-adv-x="945" d="M8 0l471 700h414v-78h-311v-215h291v-77h-291v-252h311v-78h-411v190h-239l-124 -190h-111zM293 266h189v295l-77 -123z" />
<glyph unicode="&#xc7;" horiz-adv-x="669" d="M48 350q0 166 82.5 265.5t219.5 99.5q113 0 185 -60.5t87 -180.5h-112q-21 163 -160 163q-85 0 -139 -73t-54 -214q0 -143 51.5 -215t141.5 -72q139 0 160 163h112q-15 -117 -84 -177.5t-178 -63.5l-38 -51q46 3 78.5 -18t32.5 -65q0 -46 -36 -72.5t-86 -26.5 q-42 0 -71 14v54q26 -13 65 -13q21 0 38 11t17 30t-17 29.5t-38 10.5q-26 0 -43 -6l-19 34l55 73q-120 18 -185 113.5t-65 247.5z" />
<glyph unicode="&#xc8;" horiz-adv-x="550" d="M87 0v700h412v-78h-311v-215h291v-77h-291v-252h311v-78h-412zM112 892h132l132 -140h-89z" />
<glyph unicode="&#xc9;" horiz-adv-x="550" d="M87 0v700h412v-78h-311v-215h291v-77h-291v-252h311v-78h-412zM182 752l132 140h132l-175 -140h-89z" />
<glyph unicode="&#xca;" horiz-adv-x="550" d="M87 0v700h412v-78h-311v-215h291v-77h-291v-252h311v-78h-412zM100 752l148 140h90l148 -140h-92l-102 68l-100 -68h-92z" />
<glyph unicode="&#xcb;" horiz-adv-x="550" d="M87 0v700h412v-78h-311v-215h291v-77h-291v-252h311v-78h-412zM123 827q0 25 18 42.5t44 17.5t44 -17.5t18 -42.5t-18 -43t-44 -18t-44 18t-18 43zM338 827q0 25 18 42.5t44 17.5q25 0 43 -17.5t18 -42.5t-18 -43t-43 -18q-26 0 -44 18t-18 43z" />
<glyph unicode="&#xcc;" horiz-adv-x="275" d="M-69 892h132l132 -140h-89zM87 0v700h101v-700h-101z" />
<glyph unicode="&#xcd;" horiz-adv-x="275" d="M48 752l132 140h132l-175 -140h-89zM87 0v700h101v-700h-101z" />
<glyph unicode="&#xce;" horiz-adv-x="275" d="M-55 752l148 140h90l148 -140h-92l-102 68l-100 -68h-92zM87 0v700h101v-700h-101z" />
<glyph unicode="&#xcf;" horiz-adv-x="275" d="M-1 827q0 25 18 42.5t44 17.5t44 -17.5t18 -42.5t-18 -43t-44 -18t-44 18t-18 43zM87 0v700h101v-700h-101zM152 827q0 25 18 42.5t43 17.5q26 0 44 -17.5t18 -42.5t-18 -43t-44 -18q-25 0 -43 18t-18 43z" />
<glyph unicode="&#xd0;" horiz-adv-x="706" d="M-20 309v78h107v313h212q165 0 262 -93t97 -257t-97 -257t-262 -93h-212v309h-107zM188 78h111q114 0 182 66t68 206t-68 206t-182 66h-111v-235h148v-78h-148v-231z" />
<glyph unicode="&#xd1;" horiz-adv-x="716" d="M87 0v700h107l345 -553l-2 126v427h92v-700h-107l-346 553l3 -126v-427h-92zM177 795q19 46 48.5 70t62.5 24q29 0 79.5 -23t63.5 -23q34 0 54 42l53 -26q-18 -46 -47.5 -69.5t-62.5 -23.5q-29 0 -80 23t-65 23q-31 0 -54 -43z" />
<glyph unicode="&#xd2;" horiz-adv-x="741" d="M48 350q0 166 87.5 265.5t234.5 99.5t234.5 -99.5t87.5 -265.5t-87.5 -265.5t-234.5 -99.5t-234.5 99.5t-87.5 265.5zM157 350q0 -142 58.5 -214.5t154.5 -72.5t155 72.5t59 214.5t-59 214.5t-155 72.5t-154.5 -72.5t-58.5 -214.5zM207 892h132l132 -140h-89z" />
<glyph unicode="&#xd3;" horiz-adv-x="741" d="M48 350q0 166 87.5 265.5t234.5 99.5t234.5 -99.5t87.5 -265.5t-87.5 -265.5t-234.5 -99.5t-234.5 99.5t-87.5 265.5zM157 350q0 -142 58.5 -214.5t154.5 -72.5t155 72.5t59 214.5t-59 214.5t-155 72.5t-154.5 -72.5t-58.5 -214.5zM270 752l132 140h132l-175 -140h-89z " />
<glyph unicode="&#xd4;" horiz-adv-x="741" d="M48 350q0 166 87.5 265.5t234.5 99.5t234.5 -99.5t87.5 -265.5t-87.5 -265.5t-234.5 -99.5t-234.5 99.5t-87.5 265.5zM157 350q0 -142 58.5 -214.5t154.5 -72.5t155 72.5t59 214.5t-59 214.5t-155 72.5t-154.5 -72.5t-58.5 -214.5zM177 752l148 140h90l148 -140h-92 l-102 68l-100 -68h-92z" />
<glyph unicode="&#xd5;" horiz-adv-x="741" d="M48 350q0 166 87.5 265.5t234.5 99.5t234.5 -99.5t87.5 -265.5t-87.5 -265.5t-234.5 -99.5t-234.5 99.5t-87.5 265.5zM157 350q0 -142 58.5 -214.5t154.5 -72.5t155 72.5t59 214.5t-59 214.5t-155 72.5t-154.5 -72.5t-58.5 -214.5zM190 795q19 46 48.5 70t62.5 24 q29 0 79.5 -23t63.5 -23q34 0 54 42l53 -26q-18 -46 -47.5 -69.5t-62.5 -23.5q-29 0 -80 23t-65 23q-31 0 -54 -43z" />
<glyph unicode="&#xd6;" horiz-adv-x="741" d="M48 350q0 166 87.5 265.5t234.5 99.5t234.5 -99.5t87.5 -265.5t-87.5 -265.5t-234.5 -99.5t-234.5 99.5t-87.5 265.5zM157 350q0 -142 58.5 -214.5t154.5 -72.5t155 72.5t59 214.5t-59 214.5t-155 72.5t-154.5 -72.5t-58.5 -214.5zM201 827q0 25 18 42.5t44 17.5 t44 -17.5t18 -42.5t-18 -43t-44 -18t-44 18t-18 43zM416 827q0 25 18 42.5t44 17.5q25 0 43 -17.5t18 -42.5t-18 -43t-43 -18q-26 0 -44 18t-18 43z" />
<glyph unicode="&#xd7;" horiz-adv-x="520" d="M69 209l156 156l-156 156l54 55l156 -156l158 157l54 -55l-157 -157l157 -157l-54 -55l-158 157l-156 -156z" />
<glyph unicode="&#xd8;" horiz-adv-x="741" d="M48 350q0 166 87.5 265.5t234.5 99.5q73 0 133 -26l55 101h103l-81 -149q112 -101 112 -291q0 -166 -87.5 -265.5t-234.5 -99.5q-73 0 -133 26l-55 -101h-102l81 149q-113 100 -113 291zM157 350q0 -129 51 -204l255 470q-42 21 -93 21q-96 0 -154.5 -72.5t-58.5 -214.5z M277 84q42 -21 93 -21q96 0 155 72.5t59 214.5q0 130 -52 204z" />
<glyph unicode="&#xd9;" horiz-adv-x="705" d="M77 228v472h101v-452q0 -92 39.5 -138.5t131.5 -46.5q91 0 134.5 44t43.5 121v472h92v-452q0 -124 -72.5 -193.5t-197.5 -69.5q-126 0 -199 63.5t-73 179.5zM192 892h132l132 -140h-89z" />
<glyph unicode="&#xda;" horiz-adv-x="705" d="M77 228v472h101v-452q0 -92 39.5 -138.5t131.5 -46.5q91 0 134.5 44t43.5 121v472h92v-452q0 -124 -72.5 -193.5t-197.5 -69.5q-126 0 -199 63.5t-73 179.5zM239 752l132 140h132l-175 -140h-89z" />
<glyph unicode="&#xdb;" horiz-adv-x="705" d="M77 228v472h101v-452q0 -92 39.5 -138.5t131.5 -46.5q91 0 134.5 44t43.5 121v472h92v-452q0 -124 -72.5 -193.5t-197.5 -69.5q-126 0 -199 63.5t-73 179.5zM155 752l148 140h90l148 -140h-92l-102 68l-100 -68h-92z" />
<glyph unicode="&#xdc;" horiz-adv-x="705" d="M77 228v472h101v-452q0 -92 39.5 -138.5t131.5 -46.5q91 0 134.5 44t43.5 121v472h92v-452q0 -124 -72.5 -193.5t-197.5 -69.5q-126 0 -199 63.5t-73 179.5zM178 827q0 25 18 42.5t44 17.5t44 -17.5t18 -42.5t-18 -43t-44 -18t-44 18t-18 43zM393 827q0 25 18 42.5 t44 17.5q25 0 43 -17.5t18 -42.5t-18 -43t-43 -18q-26 0 -44 18t-18 43z" />
<glyph unicode="&#xdd;" horiz-adv-x="595" d="M27 700h110l174 -363l162 363h95l-215 -445v-255h-101v255zM190 752l132 140h132l-175 -140h-89z" />
<glyph unicode="&#xde;" horiz-adv-x="595" d="M87 0v700h101v-116h118q104 0 177 -58t73 -166t-73 -166t-177 -58h-118v-136h-101zM188 213h118q66 0 106 37t40 110q0 72 -40 109.5t-106 37.5h-118v-294z" />
<glyph unicode="&#xdf;" horiz-adv-x="630" d="M77 0v501q0 122 71.5 190t173.5 68q84 0 140.5 -35t56.5 -109q0 -34 -18 -65.5t-39.5 -51.5t-39.5 -43.5t-18 -44.5q0 -24 20.5 -44.5t49.5 -37.5t58 -38t49.5 -55t20.5 -79q0 -75 -54.5 -123t-128.5 -48q-91 0 -135.5 43t-46.5 119h99q3 -47 23.5 -71.5t65.5 -24.5 q34 0 59.5 23.5t25.5 65.5q0 37 -20.5 64.5t-50 45t-58.5 36t-49.5 47.5t-20.5 68q0 28 18 56t39 48t39 47t18 52q0 41 -27 64.5t-78 23.5q-62 0 -105 -47.5t-43 -143.5v-501h-95z" />
<glyph unicode="&#xe0;" horiz-adv-x="552" d="M47 122q0 70 59.5 118.5t189.5 48.5q32 0 84 -5v62q0 119 -99 119q-57 0 -84.5 -27.5t-30.5 -91.5h-100q1 90 57.5 138t157.5 48q38 0 70.5 -8.5t61.5 -27t45.5 -54t16.5 -85.5v-357h-95v64q-83 -79 -176 -79q-72 0 -114.5 37.5t-42.5 99.5zM136 733h122l102 -151h-81z M144 135q0 -77 101 -77q35 0 72 19.5t63 47.5v100q-44 3 -78 3q-158 0 -158 -93z" />
<glyph unicode="&#xe1;" horiz-adv-x="552" d="M47 122q0 70 59.5 118.5t189.5 48.5q32 0 84 -5v62q0 119 -99 119q-57 0 -84.5 -27.5t-30.5 -91.5h-100q1 90 57.5 138t157.5 48q38 0 70.5 -8.5t61.5 -27t45.5 -54t16.5 -85.5v-357h-95v64q-83 -79 -176 -79q-72 0 -114.5 37.5t-42.5 99.5zM144 135q0 -77 101 -77 q35 0 72 19.5t63 47.5v100q-44 3 -78 3q-158 0 -158 -93zM189 582l102 151h122l-144 -151h-80z" />
<glyph unicode="&#xe2;" horiz-adv-x="552" d="M47 122q0 70 59.5 118.5t189.5 48.5q32 0 84 -5v62q0 119 -99 119q-57 0 -84.5 -27.5t-30.5 -91.5h-100q1 90 57.5 138t157.5 48q38 0 70.5 -8.5t61.5 -27t45.5 -54t16.5 -85.5v-357h-95v64q-83 -79 -176 -79q-72 0 -114.5 37.5t-42.5 99.5zM112 582l111 151h103 l111 -151h-81l-82 86l-82 -86h-80zM144 135q0 -77 101 -77q35 0 72 19.5t63 47.5v100q-44 3 -78 3q-158 0 -158 -93z" />
<glyph unicode="&#xe3;" horiz-adv-x="552" d="M47 122q0 70 59.5 118.5t189.5 48.5q32 0 84 -5v62q0 119 -99 119q-57 0 -84.5 -27.5t-30.5 -91.5h-100q1 90 57.5 138t157.5 48q38 0 70.5 -8.5t61.5 -27t45.5 -54t16.5 -85.5v-357h-95v64q-83 -79 -176 -79q-72 0 -114.5 37.5t-42.5 99.5zM105 619q18 46 49 70t61 24 q29 0 71.5 -23t55.5 -23q31 0 51 42l53 -26q-18 -45 -48.5 -69t-60.5 -24t-72 23t-56 23q-29 0 -52 -43zM144 135q0 -77 101 -77q35 0 72 19.5t63 47.5v100q-44 3 -78 3q-158 0 -158 -93z" />
<glyph unicode="&#xe4;" horiz-adv-x="552" d="M47 122q0 70 59.5 118.5t189.5 48.5q32 0 84 -5v62q0 119 -99 119q-57 0 -84.5 -27.5t-30.5 -91.5h-100q1 90 57.5 138t157.5 48q38 0 70.5 -8.5t61.5 -27t45.5 -54t16.5 -85.5v-357h-95v64q-83 -79 -176 -79q-72 0 -114.5 37.5t-42.5 99.5zM118 661q0 25 18 43t44 18 t43.5 -18t17.5 -43t-17.5 -43t-43.5 -18t-44 18t-18 43zM144 135q0 -77 101 -77q35 0 72 19.5t63 47.5v100q-44 3 -78 3q-158 0 -158 -93zM307 661q0 25 18 43t44 18q25 0 43 -18t18 -43t-18 -43t-43 -18q-26 0 -44 18t-18 43z" />
<glyph unicode="&#xe5;" horiz-adv-x="552" d="M47 122q0 70 59.5 118.5t189.5 48.5q32 0 84 -5v62q0 119 -99 119q-57 0 -84.5 -27.5t-30.5 -91.5h-100q1 90 57.5 138t157.5 48q38 0 70.5 -8.5t61.5 -27t45.5 -54t16.5 -85.5v-357h-95v64q-83 -79 -176 -79q-72 0 -114.5 37.5t-42.5 99.5zM144 135q0 -77 101 -77 q35 0 72 19.5t63 47.5v100q-44 3 -78 3q-158 0 -158 -93zM162 657q0 44 32 70t81 26q48 0 80 -26t32 -70t-32 -70t-80 -26q-49 0 -81 26t-32 70zM234 652q6 -42 47 -37q40 5 34 47q-5 41 -47 36q-40 -5 -34 -46z" />
<glyph unicode="&#xe6;" horiz-adv-x="879" d="M47 122q0 70 59.5 118.5t189.5 48.5q32 0 84 -5v62q0 119 -99 119q-57 0 -84.5 -27.5t-30.5 -91.5h-100q1 90 57.5 138t157.5 48q117 0 162 -75q63 75 164 75q113 0 171.5 -74.5t50.5 -208.5h-351q3 -197 129 -197q49 0 75.5 22.5t36.5 69.5h101q-9 -70 -65.5 -114.5 t-147.5 -44.5q-135 0 -190 106q-91 -106 -213 -106q-72 0 -114.5 37.5t-42.5 99.5zM144 135q0 -38 25 -57.5t68 -19.5t86 25t72 60q-11 32 -14 81q-39 4 -79 4q-158 0 -158 -93zM481 311h245q0 76 -32 115.5t-87 39.5q-49 0 -83 -38.5t-43 -116.5z" />
<glyph unicode="&#xe7;" horiz-adv-x="537" d="M48 259q0 124 61 198.5t171 74.5q96 0 153.5 -48.5t65.5 -132.5h-102q-9 62 -36.5 88t-80.5 26q-59 0 -95 -51.5t-36 -154.5q0 -207 131 -207q52 0 79.5 26t37.5 86h101q-8 -79 -60.5 -127t-140.5 -52l-38 -51q46 3 78.5 -18t32.5 -65q0 -46 -36 -72.5t-86 -26.5 q-42 0 -71 14v54q26 -13 65 -13q21 0 38 11t17 30t-17 29.5t-38 10.5q-26 0 -43 -6l-19 34l54 72q-93 15 -139.5 86t-46.5 185z" />
<glyph unicode="&#xe8;" horiz-adv-x="548" d="M48 259q0 122 62 197.5t166 75.5q113 0 171.5 -74.5t50.5 -208.5h-351q3 -197 129 -197q49 0 75.5 22.5t36.5 69.5h101q-9 -70 -66 -114.5t-147 -44.5q-113 0 -170.5 73.5t-57.5 200.5zM119 733h122l102 -151h-81zM150 311h245q0 76 -32 115.5t-87 39.5 q-50 0 -83.5 -38.5t-42.5 -116.5z" />
<glyph unicode="&#xe9;" horiz-adv-x="548" d="M48 259q0 122 62 197.5t166 75.5q113 0 171.5 -74.5t50.5 -208.5h-351q3 -197 129 -197q49 0 75.5 22.5t36.5 69.5h101q-9 -70 -66 -114.5t-147 -44.5q-113 0 -170.5 73.5t-57.5 200.5zM150 311h245q0 76 -32 115.5t-87 39.5q-50 0 -83.5 -38.5t-42.5 -116.5zM189 582 l102 151h122l-144 -151h-80z" />
<glyph unicode="&#xea;" horiz-adv-x="548" d="M48 259q0 122 62 197.5t166 75.5q113 0 171.5 -74.5t50.5 -208.5h-351q3 -197 129 -197q49 0 75.5 22.5t36.5 69.5h101q-9 -70 -66 -114.5t-147 -44.5q-113 0 -170.5 73.5t-57.5 200.5zM114 582l111 151h103l111 -151h-81l-82 86l-82 -86h-80zM150 311h245 q0 76 -32 115.5t-87 39.5q-50 0 -83.5 -38.5t-42.5 -116.5z" />
<glyph unicode="&#xeb;" horiz-adv-x="548" d="M48 259q0 122 62 197.5t166 75.5q113 0 171.5 -74.5t50.5 -208.5h-351q3 -197 129 -197q49 0 75.5 22.5t36.5 69.5h101q-9 -70 -66 -114.5t-147 -44.5q-113 0 -170.5 73.5t-57.5 200.5zM121 661q0 25 18 43t44 18q25 0 43 -18t18 -43t-18 -43t-43 -18q-26 0 -44 18 t-18 43zM150 311h245q0 76 -32 115.5t-87 39.5q-50 0 -83.5 -38.5t-42.5 -116.5zM310 661q0 25 18 43t44 18q25 0 43 -18t18 -43t-18 -43t-43 -18q-26 0 -44 18t-18 43z" />
<glyph unicode="&#xec;" horiz-adv-x="249" d="M-58 733h122l102 -151h-81zM77 0v517h95v-517h-95z" />
<glyph unicode="&#xed;" horiz-adv-x="249" d="M74 582l102 151h122l-144 -151h-80zM77 0v517h95v-517h-95z" />
<glyph unicode="&#xee;" horiz-adv-x="249" d="M-37 582l111 151h103l111 -151h-81l-82 86l-82 -86h-80zM77 0v517h95v-517h-95z" />
<glyph unicode="&#xef;" horiz-adv-x="249" d="M-13 661q0 25 18 43t44 18q25 0 43 -18t18 -43t-18 -43t-43 -18q-26 0 -44 18t-18 43zM77 0v517h95v-517h-95zM139 661q0 25 17.5 43t43.5 18t44 -18t18 -43t-18 -43t-44 -18t-43.5 18t-17.5 43z" />
<glyph unicode="&#xf0;" horiz-adv-x="581" d="M48 246q0 116 62 191t168 75q58 0 109 -36q-34 70 -95 134l-134 -50l-39 56l119 45q-52 44 -113 83h123q43 -29 71 -53l118 44l39 -56l-103 -38q160 -165 160 -366q0 -130 -62.5 -210t-174.5 -80q-114 0 -181 71t-67 190zM149 247q0 -38 7.5 -71t23.5 -62t45.5 -45.5 t69.5 -16.5q65 0 103 51t38 155q0 70 -17 133q-54 54 -127 54q-64 0 -103.5 -52t-39.5 -146z" />
<glyph unicode="&#xf1;" horiz-adv-x="592" d="M77 0v517h95v-67q79 82 180 82q72 0 117.5 -41t45.5 -128v-363h-95v341q0 113 -102 113q-38 0 -79.5 -19t-66.5 -46v-389h-95zM116 619q18 46 49 70t61 24q29 0 71.5 -23t55.5 -23q31 0 51 42l53 -26q-18 -45 -48.5 -69t-60.5 -24t-72 23t-56 23q-29 0 -52 -43z" />
<glyph unicode="&#xf2;" horiz-adv-x="585" d="M48 259q0 124 65 198.5t180 74.5q114 0 179 -74.5t65 -198.5t-65 -199t-179 -75q-115 0 -180 75t-65 199zM149 259q0 -104 38.5 -155.5t105.5 -51.5q66 0 105 52t39 155t-39 154.5t-105 51.5q-67 0 -105.5 -51.5t-38.5 -154.5zM158 733h122l102 -151h-81z" />
<glyph unicode="&#xf3;" horiz-adv-x="585" d="M48 259q0 124 65 198.5t180 74.5q114 0 179 -74.5t65 -198.5t-65 -199t-179 -75q-115 0 -180 75t-65 199zM149 259q0 -104 38.5 -155.5t105.5 -51.5q66 0 105 52t39 155t-39 154.5t-105 51.5q-67 0 -105.5 -51.5t-38.5 -154.5zM204 582l102 151h122l-144 -151h-80z" />
<glyph unicode="&#xf4;" horiz-adv-x="585" d="M48 259q0 124 65 198.5t180 74.5q114 0 179 -74.5t65 -198.5t-65 -199t-179 -75q-115 0 -180 75t-65 199zM130 582l111 151h103l111 -151h-81l-82 86l-82 -86h-80zM149 259q0 -104 38.5 -155.5t105.5 -51.5q66 0 105 52t39 155t-39 154.5t-105 51.5q-67 0 -105.5 -51.5 t-38.5 -154.5z" />
<glyph unicode="&#xf5;" horiz-adv-x="585" d="M48 259q0 124 65 198.5t180 74.5q114 0 179 -74.5t65 -198.5t-65 -199t-179 -75q-115 0 -180 75t-65 199zM122 619q18 46 49 70t61 24q29 0 71.5 -23t55.5 -23q31 0 51 42l53 -26q-18 -45 -48.5 -69t-60.5 -24t-72 23t-56 23q-29 0 -52 -43zM149 259q0 -104 38.5 -155.5 t105.5 -51.5q66 0 105 52t39 155t-39 154.5t-105 51.5q-67 0 -105.5 -51.5t-38.5 -154.5z" />
<glyph unicode="&#xf6;" horiz-adv-x="585" d="M48 259q0 124 65 198.5t180 74.5q114 0 179 -74.5t65 -198.5t-65 -199t-179 -75q-115 0 -180 75t-65 199zM136 661q0 25 18 43t44 18t43.5 -18t17.5 -43t-17.5 -43t-43.5 -18t-44 18t-18 43zM149 259q0 -104 38.5 -155.5t105.5 -51.5q66 0 105 52t39 155t-39 154.5 t-105 51.5q-67 0 -105.5 -51.5t-38.5 -154.5zM325 661q0 25 18 43t44 18q25 0 43 -18t18 -43t-18 -43t-43 -18q-26 0 -44 18t-18 43z" />
<glyph unicode="&#xf7;" horiz-adv-x="563" d="M50 327v78h463v-78h-463zM221 178q0 25 17.5 42.5t42.5 17.5t43 -17.5t18 -42.5t-18 -42.5t-43 -17.5t-42.5 17.5t-17.5 42.5zM221 553q0 25 17.5 42.5t42.5 17.5t43 -17.5t18 -42.5t-17.5 -42t-43.5 -17q-25 0 -42.5 17t-17.5 42z" />
<glyph unicode="&#xf8;" horiz-adv-x="585" d="M48 259q0 124 65 198.5t180 74.5q55 0 101 -19l49 84h91l-74 -127q77 -74 77 -211q0 -124 -65 -199t-179 -75q-55 0 -102 19l-49 -84h-91l74 127q-77 75 -77 212zM149 259q0 -81 24 -129l185 320q-28 15 -65 15q-67 0 -105.5 -51.5t-38.5 -154.5zM228 68q28 -16 65 -16 q66 0 105 52t39 155q0 78 -24 129z" />
<glyph unicode="&#xf9;" horiz-adv-x="588" d="M77 155v362h95v-341q0 -113 101 -113q38 0 77.5 19t65.5 46v389h95v-517h-95v67q-80 -82 -178 -82q-72 0 -116.5 41.5t-44.5 128.5zM151 733h122l102 -151h-81z" />
<glyph unicode="&#xfa;" horiz-adv-x="588" d="M77 155v362h95v-341q0 -113 101 -113q38 0 77.5 19t65.5 46v389h95v-517h-95v67q-80 -82 -178 -82q-72 0 -116.5 41.5t-44.5 128.5zM214 582l102 151h122l-144 -151h-80z" />
<glyph unicode="&#xfb;" horiz-adv-x="588" d="M77 155v362h95v-341q0 -113 101 -113q38 0 77.5 19t65.5 46v389h95v-517h-95v67q-80 -82 -178 -82q-72 0 -116.5 41.5t-44.5 128.5zM131 582l111 151h103l111 -151h-81l-82 86l-82 -86h-80z" />
<glyph unicode="&#xfc;" horiz-adv-x="588" d="M77 155v362h95v-341q0 -113 101 -113q38 0 77.5 19t65.5 46v389h95v-517h-95v67q-80 -82 -178 -82q-72 0 -116.5 41.5t-44.5 128.5zM137 661q0 25 18 43t44 18q25 0 43 -18t18 -43t-18 -43t-43 -18q-26 0 -44 18t-18 43zM326 661q0 25 18 43t44 18q25 0 43 -18t18 -43 t-18 -43t-43 -18q-26 0 -44 18t-18 43z" />
<glyph unicode="&#xfd;" horiz-adv-x="512" d="M18 517h107l96 -266l44 -130l43 130l95 266h91l-271 -725h-89l82 213zM175 582l102 151h122l-144 -151h-80z" />
<glyph unicode="&#xfe;" horiz-adv-x="584" d="M77 -208v952h95v-282q70 70 164 70q85 0 142.5 -70t57.5 -203t-67.5 -203.5t-160.5 -70.5q-83 0 -136 61v-254h-95zM172 112q49 -51 124 -51q58 0 99 49t41 149t-37 149t-93 49q-80 0 -134 -56v-289z" />
<glyph unicode="&#xff;" horiz-adv-x="512" d="M18 517h107l96 -266l44 -130l43 130l95 266h91l-271 -725h-89l82 213zM109 661q0 25 18 43t44 18q25 0 43 -18t18 -43t-18 -43t-43 -18q-26 0 -44 18t-18 43zM298 661q0 25 18 43t44 18q25 0 43 -18t18 -43t-18 -43t-43 -18q-26 0 -44 18t-18 43z" />
<glyph unicode="&#x100;" horiz-adv-x="635" d="M10 0l248 700h105l262 -700h-110l-68 190h-276l-63 -190h-98zM150 785v71h317v-71h-317zM196 266h224l-73 206l-43 131l-40 -131z" />
<glyph unicode="&#x101;" horiz-adv-x="552" d="M47 122q0 70 59.5 118.5t189.5 48.5q32 0 84 -5v62q0 119 -99 119q-57 0 -84.5 -27.5t-30.5 -91.5h-100q1 90 57.5 138t157.5 48q38 0 70.5 -8.5t61.5 -27t45.5 -54t16.5 -85.5v-357h-95v64q-83 -79 -176 -79q-72 0 -114.5 37.5t-42.5 99.5zM127 612v71h296v-71h-296z M144 135q0 -77 101 -77q35 0 72 19.5t63 47.5v100q-44 3 -78 3q-158 0 -158 -93z" />
<glyph unicode="&#x102;" horiz-adv-x="635" d="M10 0l248 700h105l262 -700h-110l-68 190h-276l-63 -190h-98zM159 892h69q0 -32 20 -51t60 -19t60.5 19.5t20.5 50.5h69q0 -71 -41 -109.5t-109 -38.5t-108.5 38.5t-40.5 109.5zM196 266h224l-73 206l-43 131l-40 -131z" />
<glyph unicode="&#x103;" horiz-adv-x="552" d="M47 122q0 70 59.5 118.5t189.5 48.5q32 0 84 -5v62q0 119 -99 119q-57 0 -84.5 -27.5t-30.5 -91.5h-100q1 90 57.5 138t157.5 48q38 0 70.5 -8.5t61.5 -27t45.5 -54t16.5 -85.5v-357h-95v64q-83 -79 -176 -79q-72 0 -114.5 37.5t-42.5 99.5zM135 733h67q0 -38 18.5 -61.5 t53.5 -23.5q36 0 54.5 23.5t18.5 61.5h67q0 -78 -39 -119t-101 -41t-100.5 41t-38.5 119zM144 135q0 -77 101 -77q35 0 72 19.5t63 47.5v100q-44 3 -78 3q-158 0 -158 -93z" />
<glyph unicode="&#x104;" horiz-adv-x="635" d="M10 0l248 700h105l262 -700h-1q-122 -62 -122 -136q0 -23 14.5 -36.5t35.5 -13.5q33 0 72 22v-60q-42 -24 -95 -24q-48 0 -77 28t-29 71q0 86 112 149h-20l-68 190h-276l-63 -190h-98zM196 266h224l-73 206l-43 131l-40 -131z" />
<glyph unicode="&#x105;" horiz-adv-x="552" d="M47 122q0 70 59.5 118.5t189.5 48.5q32 0 84 -5v62q0 119 -99 119q-57 0 -84.5 -27.5t-30.5 -91.5h-100q1 90 57.5 138t157.5 48q38 0 70.5 -8.5t61.5 -27t45.5 -54t16.5 -85.5v-357h-1q-122 -62 -122 -136q0 -23 14.5 -36.5t35.5 -13.5q33 0 72 22v-60q-42 -24 -95 -24 q-48 0 -77 28t-29 71q0 86 112 149h-5v64q-83 -79 -176 -79q-72 0 -114.5 37.5t-42.5 99.5zM144 135q0 -77 101 -77q35 0 72 19.5t63 47.5v100q-44 3 -78 3q-158 0 -158 -93z" />
<glyph unicode="&#x106;" horiz-adv-x="669" d="M48 350q0 166 82.5 265.5t219.5 99.5q113 0 185 -60.5t87 -180.5h-112q-21 163 -160 163q-85 0 -139 -73t-54 -214q0 -143 51.5 -215t141.5 -72q139 0 160 163h112q-15 -120 -87 -180.5t-185 -60.5q-144 0 -223 98.5t-79 266.5zM218 752l132 140h132l-175 -140h-89z" />
<glyph unicode="&#x107;" horiz-adv-x="537" d="M48 259q0 124 61 198.5t171 74.5q96 0 153.5 -48.5t65.5 -132.5h-102q-9 62 -36.5 88t-80.5 26q-59 0 -95 -51.5t-36 -154.5q0 -207 131 -207q52 0 79.5 26t37.5 86h101q-8 -82 -65.5 -130.5t-152.5 -48.5q-116 0 -174 73.5t-58 200.5zM235 582l102 151h122l-144 -151 h-80z" />
<glyph unicode="&#x108;" horiz-adv-x="669" d="M48 350q0 166 82.5 265.5t219.5 99.5q113 0 185 -60.5t87 -180.5h-112q-21 163 -160 163q-85 0 -139 -73t-54 -214q0 -143 51.5 -215t141.5 -72q139 0 160 163h112q-15 -120 -87 -180.5t-185 -60.5q-144 0 -223 98.5t-79 266.5zM142 752l148 140h90l148 -140h-92l-102 68 l-100 -68h-92z" />
<glyph unicode="&#x109;" horiz-adv-x="537" d="M48 259q0 124 61 198.5t171 74.5q96 0 153.5 -48.5t65.5 -132.5h-102q-9 62 -36.5 88t-80.5 26q-59 0 -95 -51.5t-36 -154.5q0 -207 131 -207q52 0 79.5 26t37.5 86h101q-8 -82 -65.5 -130.5t-152.5 -48.5q-116 0 -174 73.5t-58 200.5zM111 582l111 151h103l111 -151h-81 l-82 86l-82 -86h-80z" />
<glyph unicode="&#x10a;" horiz-adv-x="669" d="M48 350q0 166 82.5 265.5t219.5 99.5q113 0 185 -60.5t87 -180.5h-112q-21 163 -160 163q-85 0 -139 -73t-54 -214q0 -143 51.5 -215t141.5 -72q139 0 160 163h112q-15 -120 -87 -180.5t-185 -60.5q-144 0 -223 98.5t-79 266.5zM272 826q0 26 18.5 43.5t44.5 17.5 t44 -17.5t18 -43.5q0 -25 -18 -43t-44 -18t-44.5 18t-18.5 43z" />
<glyph unicode="&#x10b;" horiz-adv-x="537" d="M48 259q0 124 61 198.5t171 74.5q96 0 153.5 -48.5t65.5 -132.5h-102q-9 62 -36.5 88t-80.5 26q-59 0 -95 -51.5t-36 -154.5q0 -207 131 -207q52 0 79.5 26t37.5 86h101q-8 -82 -65.5 -130.5t-152.5 -48.5q-116 0 -174 73.5t-58 200.5zM210 661q0 26 18.5 44t44.5 18 q25 0 43.5 -18.5t18.5 -43.5t-18.5 -43.5t-43.5 -18.5q-26 0 -44.5 18t-18.5 44z" />
<glyph unicode="&#x10c;" horiz-adv-x="669" d="M48 350q0 166 82.5 265.5t219.5 99.5q113 0 185 -60.5t87 -180.5h-112q-21 163 -160 163q-85 0 -139 -73t-54 -214q0 -143 51.5 -215t141.5 -72q139 0 160 163h112q-15 -120 -87 -180.5t-185 -60.5q-144 0 -223 98.5t-79 266.5zM142 892h92l100 -68l102 68h92l-148 -140 h-90z" />
<glyph unicode="&#x10d;" horiz-adv-x="537" d="M48 259q0 124 61 198.5t171 74.5q96 0 153.5 -48.5t65.5 -132.5h-102q-9 62 -36.5 88t-80.5 26q-59 0 -95 -51.5t-36 -154.5q0 -207 131 -207q52 0 79.5 26t37.5 86h101q-8 -82 -65.5 -130.5t-152.5 -48.5q-116 0 -174 73.5t-58 200.5zM111 733h80l82 -86l82 86h81 l-111 -151h-103z" />
<glyph unicode="&#x10e;" horiz-adv-x="706" d="M87 0v700h212q165 0 262 -93t97 -257t-97 -257t-262 -93h-212zM109 892h92l100 -68l102 68h92l-148 -140h-90zM188 78h111q114 0 182 66t68 206t-68 206t-182 66h-111v-544z" />
<glyph unicode="&#x10f;" horiz-adv-x="634" d="M48 259q0 132 67.5 202.5t160.5 70.5q85 0 136 -61v273h95v-744h-95v56q-69 -71 -164 -71q-84 0 -142 70t-58 204zM149 259q0 -101 37 -149.5t93 -48.5q79 0 133 56v288q-50 52 -124 52q-57 0 -98 -49t-41 -149zM565 580v223h88l-21 -223h-67z" />
<glyph unicode="&#x110;" horiz-adv-x="706" d="M-20 309v78h107v313h212q165 0 262 -93t97 -257t-97 -257t-262 -93h-212v309h-107zM188 78h111q114 0 182 66t68 206t-68 206t-182 66h-111v-235h148v-78h-148v-231z" />
<glyph unicode="&#x111;" horiz-adv-x="584" d="M48 259q0 132 67.5 202.5t160.5 70.5q85 0 136 -61v135h-124v71h124v67h95v-67h77v-71h-77v-606h-95v56q-69 -71 -164 -71q-84 0 -142 70t-58 204zM149 259q0 -101 37 -149.5t93 -48.5q79 0 133 56v288q-50 52 -124 52q-57 0 -98 -49t-41 -149z" />
<glyph unicode="&#x112;" horiz-adv-x="550" d="M87 0v700h412v-78h-311v-215h291v-77h-291v-252h311v-78h-412zM133 785v71h317v-71h-317z" />
<glyph unicode="&#x113;" horiz-adv-x="548" d="M48 259q0 122 62 197.5t166 75.5q113 0 171.5 -74.5t50.5 -208.5h-351q3 -197 129 -197q49 0 75.5 22.5t36.5 69.5h101q-9 -70 -66 -114.5t-147 -44.5q-113 0 -170.5 73.5t-57.5 200.5zM124 612v71h296v-71h-296zM150 311h245q0 76 -32 115.5t-87 39.5q-50 0 -83.5 -38.5 t-42.5 -116.5z" />
<glyph unicode="&#x114;" horiz-adv-x="550" d="M87 0v700h412v-78h-311v-215h291v-77h-291v-252h311v-78h-412zM143 892h69q0 -32 20 -51t60 -19t60.5 19.5t20.5 50.5h69q0 -71 -41 -109.5t-109 -38.5t-108.5 38.5t-40.5 109.5z" />
<glyph unicode="&#x115;" horiz-adv-x="548" d="M48 259q0 122 62 197.5t166 75.5q113 0 171.5 -74.5t50.5 -208.5h-351q3 -197 129 -197q49 0 75.5 22.5t36.5 69.5h101q-9 -70 -66 -114.5t-147 -44.5q-113 0 -170.5 73.5t-57.5 200.5zM137 733h67q0 -38 18.5 -61.5t53.5 -23.5q36 0 54.5 23.5t18.5 61.5h67 q0 -78 -39 -119t-101 -41t-100.5 41t-38.5 119zM150 311h245q0 76 -32 115.5t-87 39.5q-50 0 -83.5 -38.5t-42.5 -116.5z" />
<glyph unicode="&#x116;" horiz-adv-x="550" d="M87 0v700h412v-78h-311v-215h291v-77h-291v-252h311v-78h-412zM229 826q0 26 18.5 43.5t44.5 17.5t44 -17.5t18 -43.5q0 -25 -18 -43t-44 -18t-44.5 18t-18.5 43z" />
<glyph unicode="&#x117;" horiz-adv-x="548" d="M48 259q0 122 62 197.5t166 75.5q113 0 171.5 -74.5t50.5 -208.5h-351q3 -197 129 -197q49 0 75.5 22.5t36.5 69.5h101q-9 -70 -66 -114.5t-147 -44.5q-113 0 -170.5 73.5t-57.5 200.5zM150 311h245q0 76 -32 115.5t-87 39.5q-50 0 -83.5 -38.5t-42.5 -116.5zM206 661 q0 26 18.5 44t44.5 18q25 0 43.5 -18.5t18.5 -43.5t-18.5 -43.5t-43.5 -18.5q-26 0 -44.5 18t-18.5 44z" />
<glyph unicode="&#x118;" horiz-adv-x="550" d="M87 0v700h412v-78h-311v-215h291v-77h-291v-252h311v-78h-1q-122 -62 -122 -136q0 -23 14.5 -36.5t35.5 -13.5q33 0 72 22v-60q-42 -24 -95 -24q-48 0 -77 28t-29 71q0 86 112 149h-322z" />
<glyph unicode="&#x119;" horiz-adv-x="548" d="M48 259q0 122 62 197.5t166 75.5q113 0 171.5 -74.5t50.5 -208.5h-351q3 -197 129 -197q49 0 75.5 22.5t36.5 69.5h101q-5 -36 -22 -65h1q-74 -122 -89 -162q-12 -30 -12 -53t14.5 -36.5t35.5 -13.5q33 0 72 22v-60q-42 -24 -95 -24q-48 0 -77 28t-29 71q0 56 60 143 q-33 -9 -72 -9q-113 0 -170.5 73.5t-57.5 200.5zM150 311h245q0 76 -32 115.5t-87 39.5q-50 0 -83.5 -38.5t-42.5 -116.5z" />
<glyph unicode="&#x11a;" horiz-adv-x="550" d="M87 0v700h412v-78h-311v-215h291v-77h-291v-252h311v-78h-412zM100 892h92l100 -68l102 68h92l-148 -140h-90z" />
<glyph unicode="&#x11b;" horiz-adv-x="548" d="M48 259q0 122 62 197.5t166 75.5q113 0 171.5 -74.5t50.5 -208.5h-351q3 -197 129 -197q49 0 75.5 22.5t36.5 69.5h101q-9 -70 -66 -114.5t-147 -44.5q-113 0 -170.5 73.5t-57.5 200.5zM114 733h80l82 -86l82 86h81l-111 -151h-103zM150 311h245q0 76 -32 115.5t-87 39.5 q-50 0 -83.5 -38.5t-42.5 -116.5z" />
<glyph unicode="&#x11c;" horiz-adv-x="678" d="M48 350q0 166 82.5 265.5t220.5 99.5q110 0 180 -57.5t86 -170.5h-112q-22 150 -154 150q-86 0 -140 -73t-54 -214t54.5 -214.5t135.5 -73.5q95 0 172 77v136h-165v76h264v-351h-99v69q-34 -36 -87.5 -60t-107.5 -24q-132 0 -204 97.5t-72 267.5zM142 752l148 140h90 l148 -140h-92l-102 68l-100 -68h-92z" />
<glyph unicode="&#x11d;" horiz-adv-x="579" d="M48 260q0 132 67.5 202t160.5 70q85 0 136 -61v46h95v-511q0 -111 -65.5 -170t-161.5 -59q-107 0 -163 44.5t-58 124.5h100q3 -53 31.5 -77.5t89.5 -24.5q132 0 132 150v64q-69 -71 -164 -71q-84 0 -142 70t-58 203zM135 582l111 151h103l111 -151h-81l-82 86l-82 -86 h-80zM149 260q0 -100 37 -148.5t93 -48.5q79 0 133 56v286q-50 52 -124 52q-57 0 -98 -48.5t-41 -148.5z" />
<glyph unicode="&#x11e;" horiz-adv-x="678" d="M48 350q0 166 82.5 265.5t220.5 99.5q110 0 180 -57.5t86 -170.5h-112q-22 150 -154 150q-86 0 -140 -73t-54 -214t54.5 -214.5t135.5 -73.5q95 0 172 77v136h-165v76h264v-351h-99v69q-34 -36 -87.5 -60t-107.5 -24q-132 0 -204 97.5t-72 267.5zM185 892h69 q0 -32 20 -51t60 -19t60.5 19.5t20.5 50.5h69q0 -71 -41 -109.5t-109 -38.5t-108.5 38.5t-40.5 109.5z" />
<glyph unicode="&#x11f;" horiz-adv-x="579" d="M48 260q0 132 67.5 202t160.5 70q85 0 136 -61v46h95v-511q0 -111 -65.5 -170t-161.5 -59q-107 0 -163 44.5t-58 124.5h100q3 -53 31.5 -77.5t89.5 -24.5q132 0 132 150v64q-69 -71 -164 -71q-84 0 -142 70t-58 203zM149 260q0 -100 37 -148.5t93 -48.5q79 0 133 56v286 q-50 52 -124 52q-57 0 -98 -48.5t-41 -148.5zM158 733h67q0 -38 18.5 -61.5t53.5 -23.5q36 0 54.5 23.5t18.5 61.5h67q0 -78 -39 -119t-101 -41t-100.5 41t-38.5 119z" />
<glyph unicode="&#x120;" horiz-adv-x="678" d="M48 350q0 166 82.5 265.5t220.5 99.5q110 0 180 -57.5t86 -170.5h-112q-22 150 -154 150q-86 0 -140 -73t-54 -214t54.5 -214.5t135.5 -73.5q95 0 172 77v136h-165v76h264v-351h-99v69q-34 -36 -87.5 -60t-107.5 -24q-132 0 -204 97.5t-72 267.5zM270 826q0 26 18.5 43.5 t44.5 17.5t44 -17.5t18 -43.5q0 -25 -18 -43t-44 -18t-44.5 18t-18.5 43z" />
<glyph unicode="&#x121;" horiz-adv-x="579" d="M48 260q0 132 67.5 202t160.5 70q85 0 136 -61v46h95v-511q0 -111 -65.5 -170t-161.5 -59q-107 0 -163 44.5t-58 124.5h100q3 -53 31.5 -77.5t89.5 -24.5q132 0 132 150v64q-69 -71 -164 -71q-84 0 -142 70t-58 203zM149 260q0 -100 37 -148.5t93 -48.5q79 0 133 56v286 q-50 52 -124 52q-57 0 -98 -48.5t-41 -148.5zM209 661q0 26 18.5 44t44.5 18t44 -18.5t18 -43.5t-18 -43.5t-44 -18.5t-44.5 18t-18.5 44z" />
<glyph unicode="&#x122;" horiz-adv-x="678" d="M48 350q0 166 82.5 265.5t220.5 99.5q110 0 180 -57.5t86 -170.5h-112q-22 150 -154 150q-86 0 -140 -73t-54 -214t54.5 -214.5t135.5 -73.5q95 0 172 77v136h-165v76h264v-351h-99v69q-34 -36 -87.5 -60t-107.5 -24q-132 0 -204 97.5t-72 267.5zM288 -248l20 183h91 l-42 -183h-69z" />
<glyph unicode="&#x123;" horiz-adv-x="579" d="M48 260q0 132 67.5 202t160.5 70q85 0 136 -61v46h95v-511q0 -111 -65.5 -170t-161.5 -59q-107 0 -163 44.5t-58 124.5h100q3 -53 31.5 -77.5t89.5 -24.5q132 0 132 150v64q-69 -71 -164 -71q-84 0 -142 70t-58 203zM149 260q0 -100 37 -148.5t93 -48.5q79 0 133 56v286 q-50 52 -124 52q-57 0 -98 -48.5t-41 -148.5zM232 584l42 183h69l-20 -183h-91z" />
<glyph unicode="&#x124;" horiz-adv-x="727" d="M87 0v700h101v-293h352v293h100v-700h-100v330h-352v-330h-101zM170 752l148 140h90l148 -140h-92l-102 68l-100 -68h-92z" />
<glyph unicode="&#x125;" horiz-adv-x="592" d="M-67 782l148 140h90l148 -140h-92l-102 68l-100 -68h-92zM77 0v744h95v-294q79 82 180 82q72 0 117.5 -41t45.5 -128v-363h-95v341q0 113 -102 113q-38 0 -79.5 -19t-66.5 -46v-389h-95z" />
<glyph unicode="&#x126;" horiz-adv-x="727" d="M8 516v78h79v106h101v-106h352v106h100v-106h79v-78h-79v-516h-100v322h-352v-322h-101v516h-79zM188 400h352v116h-352v-116z" />
<glyph unicode="&#x127;" horiz-adv-x="592" d="M0 606v71h77v67h95v-67h124v-71h-124v-156q79 82 180 82q72 0 117.5 -41t45.5 -128v-363h-95v341q0 113 -102 113q-38 0 -79.5 -19t-66.5 -46v-389h-95v606h-77z" />
<glyph unicode="&#x128;" horiz-adv-x="275" d="M-42 795q19 46 48.5 70t62.5 24q29 0 79.5 -23t63.5 -23q34 0 54 42l53 -26q-18 -46 -47.5 -69.5t-62.5 -23.5q-29 0 -80 23t-65 23q-31 0 -54 -43zM87 0v700h101v-700h-101z" />
<glyph unicode="&#x129;" horiz-adv-x="249" d="M-45 619q18 46 49 70t61 24q29 0 71.5 -23t55.5 -23q31 0 51 42l53 -26q-18 -45 -48.5 -69t-60.5 -24t-72 23t-56 23q-29 0 -52 -43zM77 0v517h95v-517h-95z" />
<glyph unicode="&#x12a;" horiz-adv-x="275" d="M17 785v71h241v-71h-241zM87 0v700h101v-700h-101z" />
<glyph unicode="&#x12b;" horiz-adv-x="249" d="M15 612v71h219v-71h-219zM77 0v517h95v-517h-95z" />
<glyph unicode="&#x12c;" horiz-adv-x="275" d="M-12 892h69q0 -32 20 -51t60 -19t60.5 19.5t20.5 50.5h69q0 -71 -41 -109.5t-109 -38.5t-108.5 38.5t-40.5 109.5zM87 0v700h101v-700h-101z" />
<glyph unicode="&#x12d;" horiz-adv-x="249" d="M-14 733h67q0 -38 18.5 -61.5t53.5 -23.5q36 0 54.5 23.5t18.5 61.5h67q0 -78 -39 -119t-101 -41t-100.5 41t-38.5 119zM77 0v517h95v-517h-95z" />
<glyph unicode="&#x12e;" horiz-adv-x="275" d="M-13 -149q0 86 112 149h-12v700h101v-700q-122 -62 -122 -136q0 -23 14.5 -36.5t35.5 -13.5q33 0 72 22v-60q-42 -24 -95 -24q-48 0 -77 28t-29 71z" />
<glyph unicode="&#x12f;" horiz-adv-x="249" d="M-29 -149q0 86 112 149h-6v517h95v-517q-122 -62 -122 -136q0 -23 14.5 -36.5t35.5 -13.5q33 0 72 22v-60q-42 -24 -95 -24q-48 0 -77 28t-29 71zM62 661q0 25 18 43.5t44 18.5t44.5 -18t18.5 -44t-18.5 -44t-44.5 -18t-44 18.5t-18 43.5z" />
<glyph unicode="&#x130;" horiz-adv-x="275" d="M74 826q0 26 18.5 43.5t44.5 17.5t44 -17.5t18 -43.5q0 -25 -18 -43t-44 -18t-44.5 18t-18.5 43zM87 0v700h101v-700h-101z" />
<glyph unicode="&#x131;" horiz-adv-x="249" d="M77 0v517h95v-517h-95z" />
<glyph unicode="&#x132;" horiz-adv-x="842" d="M87 0v700h101v-700h-101zM304 224h106q4 -88 35 -125t91 -37q127 0 127 125v513h101v-493q0 -110 -67 -166t-161 -56q-225 0 -232 239z" />
<glyph unicode="&#x133;" horiz-adv-x="498" d="M62 661q0 25 18 43.5t44 18.5t44.5 -18t18.5 -44t-18.5 -44t-44.5 -18t-44 18.5t-18 43.5zM77 0v517h95v-517h-95zM311 661q0 25 18.5 43.5t43.5 18.5q26 0 44.5 -18t18.5 -44t-18.5 -44t-44.5 -18q-25 0 -43.5 18.5t-18.5 43.5zM326 -208v725h95v-725h-95z" />
<glyph unicode="&#x134;" horiz-adv-x="567" d="M30 224h106q4 -88 35 -125t91 -37q127 0 127 125v513h101v-493q0 -110 -67 -166t-161 -56q-225 0 -232 239zM247 752l148 140h90l148 -140h-92l-102 68l-100 -68h-92z" />
<glyph unicode="&#x135;" horiz-adv-x="249" d="M-37 582l111 151h103l111 -151h-81l-82 86l-82 -86h-80zM77 -208v725h95v-725h-95z" />
<glyph unicode="&#x136;" horiz-adv-x="617" d="M87 0v700h101v-331l256 331h108l-259 -324l297 -376h-127l-275 361v-361h-101zM224 -248l20 183h91l-42 -183h-69z" />
<glyph unicode="&#x137;" horiz-adv-x="510" d="M77 0v744h95v-466l210 239h103l-215 -232l237 -285h-118l-217 271v-271h-95zM176 -248l20 183h91l-42 -183h-69z" />
<glyph unicode="&#x138;" horiz-adv-x="510" d="M77 0v517h95v-239l210 239h103l-215 -232l237 -285h-118l-217 271v-271h-95z" />
<glyph unicode="&#x139;" horiz-adv-x="521" d="M48 752l132 140h132l-175 -140h-89zM87 0v700h101v-622h277v-78h-378z" />
<glyph unicode="&#x13a;" horiz-adv-x="249" d="M73 782l132 140h132l-175 -140h-89zM77 0v744h95v-744h-95z" />
<glyph unicode="&#x13b;" horiz-adv-x="521" d="M87 0v700h101v-622h277v-78h-378zM202 -248l20 183h91l-42 -183h-69z" />
<glyph unicode="&#x13c;" horiz-adv-x="249" d="M64 -248l20 183h91l-42 -183h-69zM77 0v744h95v-744h-95z" />
<glyph unicode="&#x13d;" horiz-adv-x="521" d="M87 0v700h101v-622h277v-78h-378zM246 580v223h88l-21 -223h-67z" />
<glyph unicode="&#x13e;" horiz-adv-x="299" d="M77 0v744h95v-744h-95zM230 580v223h88l-21 -223h-67z" />
<glyph unicode="&#x13f;" horiz-adv-x="521" d="M87 0v700h101v-622h277v-78h-378zM270 365q0 28 19 47t47 19t47 -19t19 -47t-19 -47t-47 -19t-47 19t-19 47z" />
<glyph unicode="&#x140;" horiz-adv-x="348" d="M77 0v744h95v-744h-95zM235 365q0 28 19 47t47 19t47 -19t19 -47t-19 -47t-47 -19t-47 19t-19 47z" />
<glyph unicode="&#x141;" horiz-adv-x="521" d="M-2 218v87l89 52v343h101v-284l142 83v-87l-142 -83v-251h277v-78h-378v270z" />
<glyph unicode="&#x142;" horiz-adv-x="258" d="M1 261v79l80 47v357h95v-302l80 47v-80l-80 -46v-363h-95v307z" />
<glyph unicode="&#x143;" horiz-adv-x="716" d="M87 0v700h107l345 -553l-2 126v427h92v-700h-107l-346 553l3 -126v-427h-92zM257 752l132 140h132l-175 -140h-89z" />
<glyph unicode="&#x144;" horiz-adv-x="592" d="M77 0v517h95v-67q79 82 180 82q72 0 117.5 -41t45.5 -128v-363h-95v341q0 113 -102 113q-38 0 -79.5 -19t-66.5 -46v-389h-95zM194 582l102 151h122l-144 -151h-80z" />
<glyph unicode="&#x145;" horiz-adv-x="716" d="M87 0v700h107l345 -553l-2 126v427h92v-700h-107l-346 553l3 -126v-427h-92zM294 -248l20 183h91l-42 -183h-69z" />
<glyph unicode="&#x146;" horiz-adv-x="592" d="M77 0v517h95v-67q79 82 180 82q72 0 117.5 -41t45.5 -128v-363h-95v341q0 113 -102 113q-38 0 -79.5 -19t-66.5 -46v-389h-95zM231 -248l20 183h91l-42 -183h-69z" />
<glyph unicode="&#x147;" horiz-adv-x="716" d="M87 0v700h107l345 -553l-2 126v427h92v-700h-107l-346 553l3 -126v-427h-92zM165 892h92l100 -68l102 68h92l-148 -140h-90z" />
<glyph unicode="&#x148;" horiz-adv-x="592" d="M77 0v517h95v-67q79 82 180 82q72 0 117.5 -41t45.5 -128v-363h-95v341q0 113 -102 113q-38 0 -79.5 -19t-66.5 -46v-389h-95zM123 733h80l82 -86l82 86h81l-111 -151h-103z" />
<glyph unicode="&#x14a;" horiz-adv-x="716" d="M87 0v700h107l345 -553l-2 126v427h92v-700q0 -62 -19 -107.5t-52 -69.5t-71 -35t-83 -11q-48 0 -79 17v71q48 -11 79 -11q64 0 96 28t32 102l-356 569l3 -126v-427h-92z" />
<glyph unicode="&#x14b;" horiz-adv-x="592" d="M77 0v517h95v-67q79 82 180 82q72 0 117.5 -41t45.5 -128v-571h-95v549q0 113 -102 113q-38 0 -79.5 -19t-66.5 -46v-389h-95z" />
<glyph unicode="&#x14c;" horiz-adv-x="741" d="M48 350q0 166 87.5 265.5t234.5 99.5t234.5 -99.5t87.5 -265.5t-87.5 -265.5t-234.5 -99.5t-234.5 99.5t-87.5 265.5zM157 350q0 -142 58.5 -214.5t154.5 -72.5t155 72.5t59 214.5t-59 214.5t-155 72.5t-154.5 -72.5t-58.5 -214.5zM211 785v71h317v-71h-317z" />
<glyph unicode="&#x14d;" horiz-adv-x="585" d="M48 259q0 124 65 198.5t180 74.5q114 0 179 -74.5t65 -198.5t-65 -199t-179 -75q-115 0 -180 75t-65 199zM144 612v71h296v-71h-296zM149 259q0 -104 38.5 -155.5t105.5 -51.5q66 0 105 52t39 155t-39 154.5t-105 51.5q-67 0 -105.5 -51.5t-38.5 -154.5z" />
<glyph unicode="&#x14e;" horiz-adv-x="741" d="M48 350q0 166 87.5 265.5t234.5 99.5t234.5 -99.5t87.5 -265.5t-87.5 -265.5t-234.5 -99.5t-234.5 99.5t-87.5 265.5zM157 350q0 -142 58.5 -214.5t154.5 -72.5t155 72.5t59 214.5t-59 214.5t-155 72.5t-154.5 -72.5t-58.5 -214.5zM220 892h69q0 -32 20 -51t60 -19 t60.5 19.5t20.5 50.5h69q0 -71 -41 -109.5t-109 -38.5t-108.5 38.5t-40.5 109.5z" />
<glyph unicode="&#x14f;" horiz-adv-x="585" d="M48 259q0 124 65 198.5t180 74.5q114 0 179 -74.5t65 -198.5t-65 -199t-179 -75q-115 0 -180 75t-65 199zM149 259q0 -104 38.5 -155.5t105.5 -51.5q66 0 105 52t39 155t-39 154.5t-105 51.5q-67 0 -105.5 -51.5t-38.5 -154.5zM153 733h67q0 -38 18.5 -61.5t53.5 -23.5 q36 0 54.5 23.5t18.5 61.5h67q0 -78 -39 -119t-101 -41t-100.5 41t-38.5 119z" />
<glyph unicode="&#x150;" horiz-adv-x="741" d="M48 350q0 166 87.5 265.5t234.5 99.5t234.5 -99.5t87.5 -265.5t-87.5 -265.5t-234.5 -99.5t-234.5 99.5t-87.5 265.5zM157 350q0 -142 58.5 -214.5t154.5 -72.5t155 72.5t59 214.5t-59 214.5t-155 72.5t-154.5 -72.5t-58.5 -214.5zM192 752l110 140h125l-152 -140h-83z M376 752l111 140h125l-152 -140h-84z" />
<glyph unicode="&#x151;" horiz-adv-x="585" d="M48 259q0 124 65 198.5t180 74.5q114 0 179 -74.5t65 -198.5t-65 -199t-179 -75q-115 0 -180 75t-65 199zM148 582l82 151h113l-118 -151h-77zM149 259q0 -104 38.5 -155.5t105.5 -51.5q66 0 105 52t39 155t-39 154.5t-105 51.5q-67 0 -105.5 -51.5t-38.5 -154.5z M308 582l82 151h112l-117 -151h-77z" />
<glyph unicode="&#x152;" horiz-adv-x="952" d="M53 350q0 164 97 257t262 93h489v-78h-311v-215h291v-77h-291v-252h311v-78h-489q-165 0 -262 93t-97 257zM161 350q0 -140 68.5 -206t182.5 -66h77v544h-77q-114 0 -182.5 -66t-68.5 -206z" />
<glyph unicode="&#x153;" horiz-adv-x="936" d="M48 259q0 124 65 198.5t180 74.5q130 0 192 -105q28 50 76.5 77.5t102.5 27.5q113 0 171.5 -74.5t50.5 -208.5h-351q3 -197 129 -197q49 0 75.5 22.5t36.5 69.5h101q-9 -70 -65.5 -114.5t-147.5 -44.5q-128 0 -182 101q-59 -101 -189 -101q-115 0 -180 75t-65 199z M149 259q0 -104 38.5 -155.5t105.5 -51.5q66 0 105 52t39 155t-39 154.5t-105 51.5q-67 0 -105.5 -51.5t-38.5 -154.5zM538 311h245q0 76 -32 115.5t-87 39.5q-50 0 -83.5 -38.5t-42.5 -116.5z" />
<glyph unicode="&#x154;" horiz-adv-x="615" d="M87 0v700h214q105 0 177.5 -53t72.5 -160q0 -83 -45 -133.5t-119 -69.5l201 -284h-123l-181 274h-96v-274h-101zM176 752l132 140h132l-175 -140h-89zM188 350h113q146 0 146 137q0 136 -146 136h-113v-273z" />
<glyph unicode="&#x155;" horiz-adv-x="404" d="M77 0v517h95v-90q64 105 148 105q37 0 62 -25v-78q-38 16 -69 16q-43 0 -81.5 -27.5t-59.5 -65.5v-352h-95zM117 582l102 151h122l-144 -151h-80z" />
<glyph unicode="&#x156;" horiz-adv-x="615" d="M87 0v700h214q105 0 177.5 -53t72.5 -160q0 -83 -45 -133.5t-119 -69.5l201 -284h-123l-181 274h-96v-274h-101zM188 350h113q146 0 146 137q0 136 -146 136h-113v-273zM235 -248l20 183h91l-42 -183h-69z" />
<glyph unicode="&#x157;" horiz-adv-x="404" d="M64 -248l20 183h91l-42 -183h-69zM77 0v517h95v-90q64 105 148 105q37 0 62 -25v-78q-38 16 -69 16q-43 0 -81.5 -27.5t-59.5 -65.5v-352h-95z" />
<glyph unicode="&#x158;" horiz-adv-x="615" d="M86 892h92l100 -68l102 68h92l-148 -140h-90zM87 0v700h214q105 0 177.5 -53t72.5 -160q0 -83 -45 -133.5t-119 -69.5l201 -284h-123l-181 274h-96v-274h-101zM188 350h113q146 0 146 137q0 136 -146 136h-113v-273z" />
<glyph unicode="&#x159;" horiz-adv-x="404" d="M49 733h80l82 -86l82 86h81l-111 -151h-103zM77 0v517h95v-90q64 105 148 105q37 0 62 -25v-78q-38 16 -69 16q-43 0 -81.5 -27.5t-59.5 -65.5v-352h-95z" />
<glyph unicode="&#x15a;" horiz-adv-x="607" d="M48 207h108q11 -145 155 -145q63 0 105 32.5t42 92.5q0 20 -5.5 36.5t-12.5 27.5t-23 21t-26 15.5t-33 12t-33 8.5t-37 8q-31 6 -46.5 10t-44 12.5t-44.5 17.5t-36.5 24.5t-31.5 33.5t-19 44t-8 58q0 89 67.5 144t171.5 55q118 0 183.5 -54.5t70.5 -157.5h-107 q-6 72 -43 103.5t-104 31.5q-62 0 -100.5 -27.5t-38.5 -82.5q0 -23 5.5 -41t19.5 -31t25 -21t36 -15.5t36.5 -10t42.5 -9.5q32 -7 46.5 -10t45 -12t46 -17.5t37.5 -24t32.5 -33.5t19 -44t8.5 -58q0 -93 -72 -154.5t-175 -61.5q-120 0 -189 56.5t-74 165.5zM183 752l132 140 h132l-175 -140h-89z" />
<glyph unicode="&#x15b;" horiz-adv-x="510" d="M47 147h99q3 -47 30 -71.5t90 -24.5q47 0 77.5 23t30.5 65q0 18 -9 31.5t-19 21t-32 15t-33.5 10t-38.5 7.5q-35 6 -53.5 10t-49 15.5t-46.5 26t-29 40t-13 59.5q0 74 55 115.5t145 41.5q197 0 200 -147h-99q-3 43 -28 62t-77 19q-48 0 -77.5 -19t-29.5 -56q0 -18 8 -32 t17 -21.5t29.5 -14.5t32 -9.5t38.5 -7.5t33.5 -6.5t32 -7.5t35 -10.5t29.5 -13t28.5 -18.5t19.5 -23.5t15.5 -31.5t4.5 -39q0 -75 -56.5 -123t-145.5 -48q-108 0 -160 43t-54 119zM152 582l102 151h122l-144 -151h-80z" />
<glyph unicode="&#x15c;" horiz-adv-x="607" d="M48 207h108q11 -145 155 -145q63 0 105 32.5t42 92.5q0 20 -5.5 36.5t-12.5 27.5t-23 21t-26 15.5t-33 12t-33 8.5t-37 8q-31 6 -46.5 10t-44 12.5t-44.5 17.5t-36.5 24.5t-31.5 33.5t-19 44t-8 58q0 89 67.5 144t171.5 55q118 0 183.5 -54.5t70.5 -157.5h-107 q-6 72 -43 103.5t-104 31.5q-62 0 -100.5 -27.5t-38.5 -82.5q0 -23 5.5 -41t19.5 -31t25 -21t36 -15.5t36.5 -10t42.5 -9.5q32 -7 46.5 -10t45 -12t46 -17.5t37.5 -24t32.5 -33.5t19 -44t8.5 -58q0 -93 -72 -154.5t-175 -61.5q-120 0 -189 56.5t-74 165.5zM110 752l148 140 h90l148 -140h-92l-102 68l-100 -68h-92z" />
<glyph unicode="&#x15d;" horiz-adv-x="510" d="M47 147h99q3 -47 30 -71.5t90 -24.5q47 0 77.5 23t30.5 65q0 18 -9 31.5t-19 21t-32 15t-33.5 10t-38.5 7.5q-35 6 -53.5 10t-49 15.5t-46.5 26t-29 40t-13 59.5q0 74 55 115.5t145 41.5q197 0 200 -147h-99q-3 43 -28 62t-77 19q-48 0 -77.5 -19t-29.5 -56q0 -18 8 -32 t17 -21.5t29.5 -14.5t32 -9.5t38.5 -7.5t33.5 -6.5t32 -7.5t35 -10.5t29.5 -13t28.5 -18.5t19.5 -23.5t15.5 -31.5t4.5 -39q0 -75 -56.5 -123t-145.5 -48q-108 0 -160 43t-54 119zM91 582l111 151h103l111 -151h-81l-82 86l-82 -86h-80z" />
<glyph unicode="&#x15e;" horiz-adv-x="607" d="M48 207h108q11 -145 155 -145q63 0 105 32.5t42 92.5q0 20 -5.5 36.5t-12.5 27.5t-23 21t-26 15.5t-33 12t-33 8.5t-37 8q-31 6 -46.5 10t-44 12.5t-44.5 17.5t-36.5 24.5t-31.5 33.5t-19 44t-8 58q0 89 67.5 144t171.5 55q118 0 183.5 -54.5t70.5 -157.5h-107 q-6 72 -43 103.5t-104 31.5q-62 0 -100.5 -27.5t-38.5 -82.5q0 -23 5.5 -41t19.5 -31t25 -21t36 -15.5t36.5 -10t42.5 -9.5q32 -7 46.5 -10t45 -12t46 -17.5t37.5 -24t32.5 -33.5t19 -44t8.5 -58q0 -89 -66.5 -149.5t-163.5 -66.5l-38 -51q46 3 78.5 -18t32.5 -65 q0 -46 -36 -72.5t-86 -26.5q-42 0 -71 14v54q26 -13 65 -13q21 0 38 11t17 30t-17 29.5t-38 10.5q-26 0 -43 -6l-19 34l53 71q-99 11 -155.5 66.5t-60.5 153.5z" />
<glyph unicode="&#x15f;" horiz-adv-x="510" d="M47 147h99q3 -47 30 -71.5t90 -24.5q47 0 77.5 23t30.5 65q0 18 -9 31.5t-19 21t-32 15t-33.5 10t-38.5 7.5q-35 6 -53.5 10t-49 15.5t-46.5 26t-29 40t-13 59.5q0 74 55 115.5t145 41.5q197 0 200 -147h-99q-3 43 -28 62t-77 19q-48 0 -77.5 -19t-29.5 -56q0 -18 8 -32 t17 -21.5t29.5 -14.5t32 -9.5t38.5 -7.5t33.5 -6.5t32 -7.5t35 -10.5t29.5 -13t28.5 -18.5t19.5 -23.5t15.5 -31.5t4.5 -39q0 -71 -51.5 -118t-133.5 -52l-38 -52q46 3 78.5 -18t32.5 -65q0 -46 -36 -72.5t-86 -26.5q-42 0 -71 14v54q26 -13 65 -13q21 0 38 11t17 30 t-17 29.5t-38 10.5q-26 0 -43 -6l-19 34l54 71q-84 9 -125 51t-43 109z" />
<glyph unicode="&#x160;" horiz-adv-x="607" d="M48 207h108q11 -145 155 -145q63 0 105 32.5t42 92.5q0 20 -5.5 36.5t-12.5 27.5t-23 21t-26 15.5t-33 12t-33 8.5t-37 8q-31 6 -46.5 10t-44 12.5t-44.5 17.5t-36.5 24.5t-31.5 33.5t-19 44t-8 58q0 89 67.5 144t171.5 55q118 0 183.5 -54.5t70.5 -157.5h-107 q-6 72 -43 103.5t-104 31.5q-62 0 -100.5 -27.5t-38.5 -82.5q0 -23 5.5 -41t19.5 -31t25 -21t36 -15.5t36.5 -10t42.5 -9.5q32 -7 46.5 -10t45 -12t46 -17.5t37.5 -24t32.5 -33.5t19 -44t8.5 -58q0 -93 -72 -154.5t-175 -61.5q-120 0 -189 56.5t-74 165.5zM100 892h92 l100 -68l102 68h92l-148 -140h-90z" />
<glyph unicode="&#x161;" horiz-adv-x="510" d="M47 147h99q3 -47 30 -71.5t90 -24.5q47 0 77.5 23t30.5 65q0 18 -9 31.5t-19 21t-32 15t-33.5 10t-38.5 7.5q-35 6 -53.5 10t-49 15.5t-46.5 26t-29 40t-13 59.5q0 74 55 115.5t145 41.5q197 0 200 -147h-99q-3 43 -28 62t-77 19q-48 0 -77.5 -19t-29.5 -56q0 -18 8 -32 t17 -21.5t29.5 -14.5t32 -9.5t38.5 -7.5t33.5 -6.5t32 -7.5t35 -10.5t29.5 -13t28.5 -18.5t19.5 -23.5t15.5 -31.5t4.5 -39q0 -75 -56.5 -123t-145.5 -48q-108 0 -160 43t-54 119zM82 733h80l82 -86l82 86h81l-111 -151h-103z" />
<glyph unicode="&#x162;" horiz-adv-x="547" d="M30 622v78h487v-78h-193v-622h-8l-49 -66q46 3 78.5 -18t32.5 -65q0 -46 -36 -72.5t-86 -26.5q-42 0 -71 14v54q26 -13 65 -13q21 0 38 11t17 30t-17 29.5t-38 10.5q-26 0 -43 -6l-19 34l63 84h-28v622h-193z" />
<glyph unicode="&#x163;" horiz-adv-x="389" d="M20 450v67h88v143h95v-143h146v-67h-146v-308q0 -86 71 -86q31 0 83 16v-64q-48 -23 -114 -23h-1l-38 -51q46 3 78.5 -18t32.5 -65q0 -46 -36 -72.5t-86 -26.5q-42 0 -71 14v54q26 -13 65 -13q21 0 38 11t17 30t-17 29.5t-38 10.5q-26 0 -43 -6l-19 34l59 79 q-76 30 -76 126v329h-88z" />
<glyph unicode="&#x164;" horiz-adv-x="547" d="M30 622v78h487v-78h-193v-622h-101v622h-193zM81 892h92l100 -68l102 68h92l-148 -140h-90z" />
<glyph unicode="&#x165;" horiz-adv-x="389" d="M20 450v67h88v143h95v-143h146v-67h-146v-308q0 -86 71 -86q31 0 83 16v-64q-48 -23 -114 -23q-60 0 -97.5 35t-37.5 101v329h-88zM253 580v223h88l-21 -223h-67z" />
<glyph unicode="&#x166;" horiz-adv-x="547" d="M30 622v78h487v-78h-193v-235h136v-78h-136v-309h-101v309h-134v78h134v235h-193z" />
<glyph unicode="&#x167;" horiz-adv-x="389" d="M20 268v71h88v111h-88v67h88v143h95v-143h146v-67h-146v-111h113v-71h-113v-126q0 -86 71 -86q31 0 83 16v-64q-48 -23 -114 -23q-60 0 -97.5 35t-37.5 101v147h-88z" />
<glyph unicode="&#x168;" horiz-adv-x="705" d="M77 228v472h101v-452q0 -92 39.5 -138.5t131.5 -46.5q91 0 134.5 44t43.5 121v472h92v-452q0 -124 -72.5 -193.5t-197.5 -69.5q-126 0 -199 63.5t-73 179.5zM168 795q19 46 48.5 70t62.5 24q29 0 79.5 -23t63.5 -23q34 0 54 42l53 -26q-18 -46 -47.5 -69.5t-62.5 -23.5 q-29 0 -80 23t-65 23q-31 0 -54 -43z" />
<glyph unicode="&#x169;" horiz-adv-x="588" d="M77 155v362h95v-341q0 -113 101 -113q38 0 77.5 19t65.5 46v389h95v-517h-95v67q-80 -82 -178 -82q-72 0 -116.5 41.5t-44.5 128.5zM124 619q18 46 49 70t61 24q29 0 71.5 -23t55.5 -23q31 0 51 42l53 -26q-18 -45 -48.5 -69t-60.5 -24t-72 23t-56 23q-29 0 -52 -43z" />
<glyph unicode="&#x16a;" horiz-adv-x="705" d="M77 228v472h101v-452q0 -92 39.5 -138.5t131.5 -46.5q91 0 134.5 44t43.5 121v472h92v-452q0 -124 -72.5 -193.5t-197.5 -69.5q-126 0 -199 63.5t-73 179.5zM189 785v71h317v-71h-317z" />
<glyph unicode="&#x16b;" horiz-adv-x="588" d="M77 155v362h95v-341q0 -113 101 -113q38 0 77.5 19t65.5 46v389h95v-517h-95v67q-80 -82 -178 -82q-72 0 -116.5 41.5t-44.5 128.5zM146 612v71h296v-71h-296z" />
<glyph unicode="&#x16c;" horiz-adv-x="705" d="M77 228v472h101v-452q0 -92 39.5 -138.5t131.5 -46.5q91 0 134.5 44t43.5 121v472h92v-452q0 -124 -72.5 -193.5t-197.5 -69.5q-126 0 -199 63.5t-73 179.5zM198 892h69q0 -32 20 -51t60 -19t60.5 19.5t20.5 50.5h69q0 -71 -41 -109.5t-109 -38.5t-108.5 38.5 t-40.5 109.5z" />
<glyph unicode="&#x16d;" horiz-adv-x="588" d="M77 155v362h95v-341q0 -113 101 -113q38 0 77.5 19t65.5 46v389h95v-517h-95v67q-80 -82 -178 -82q-72 0 -116.5 41.5t-44.5 128.5zM154 733h67q0 -38 18.5 -61.5t53.5 -23.5q36 0 54.5 23.5t18.5 61.5h67q0 -78 -39 -119t-101 -41t-100.5 41t-38.5 119z" />
<glyph unicode="&#x16e;" horiz-adv-x="705" d="M77 228v472h101v-452q0 -92 39.5 -138.5t131.5 -46.5q91 0 134.5 44t43.5 121v472h92v-452q0 -124 -72.5 -193.5t-197.5 -69.5q-126 0 -199 63.5t-73 179.5zM235 821q0 44 32.5 70.5t80.5 26.5t80 -26.5t32 -70.5t-32 -70.5t-80 -26.5q-49 0 -81 26t-32 71zM307 815 q6 -43 47 -36q40 5 34 48q-5 42 -47 35q-40 -5 -34 -47z" />
<glyph unicode="&#x16f;" horiz-adv-x="588" d="M77 155v362h95v-341q0 -113 101 -113q38 0 77.5 19t65.5 46v389h95v-517h-95v67q-80 -82 -178 -82q-72 0 -116.5 41.5t-44.5 128.5zM181 657q0 44 32 70t81 26q48 0 80 -26t32 -70t-32 -70t-80 -26q-49 0 -81 26t-32 70zM253 652q6 -42 47 -37q40 5 34 47q-5 41 -47 36 q-40 -5 -34 -46z" />
<glyph unicode="&#x170;" horiz-adv-x="705" d="M77 228v472h101v-452q0 -92 39.5 -138.5t131.5 -46.5q91 0 134.5 44t43.5 121v472h92v-452q0 -124 -72.5 -193.5t-197.5 -69.5q-126 0 -199 63.5t-73 179.5zM170 752l110 140h125l-152 -140h-83zM354 752l111 140h125l-152 -140h-84z" />
<glyph unicode="&#x171;" horiz-adv-x="588" d="M77 155v362h95v-341q0 -113 101 -113q38 0 77.5 19t65.5 46v389h95v-517h-95v67q-80 -82 -178 -82q-72 0 -116.5 41.5t-44.5 128.5zM148 582l82 151h113l-118 -151h-77zM308 582l82 151h112l-117 -151h-77z" />
<glyph unicode="&#x172;" horiz-adv-x="705" d="M77 228v472h101v-452q0 -92 39.5 -138.5t131.5 -46.5q91 0 134.5 44t43.5 121v472h92v-452q0 -99 -48 -164.5t-134 -88.5q-113 -59 -113 -131q0 -23 14.5 -36.5t35.5 -13.5q33 0 72 22v-60q-42 -24 -95 -24q-48 0 -77 28t-29 71q0 76 88 134q-119 5 -187.5 68t-68.5 175z " />
<glyph unicode="&#x173;" horiz-adv-x="588" d="M77 155v362h95v-341q0 -113 101 -113q38 0 77.5 19t65.5 46v389h95v-517h-1q-122 -62 -122 -136q0 -23 14.5 -36.5t35.5 -13.5q33 0 72 22v-60q-42 -24 -95 -24q-48 0 -77 28t-29 71q0 86 112 149h-5v67q-80 -82 -178 -82q-72 0 -116.5 41.5t-44.5 128.5z" />
<glyph unicode="&#x174;" horiz-adv-x="919" d="M10 700h110l114 -447l31 -131l33 131l118 447h108l123 -447l34 -134l30 134l103 447h95l-180 -700h-106l-125 438l-35 135l-33 -135l-120 -438h-106zM267 752l148 140h90l148 -140h-92l-102 68l-100 -68h-92z" />
<glyph unicode="&#x175;" horiz-adv-x="797" d="M18 517h104l85 -285l36 -130l35 130l81 285h88l86 -285l37 -130l35 130l83 285h90l-168 -517h-90l-83 267l-37 130l-37 -130l-78 -267h-92zM235 582l111 151h103l111 -151h-81l-82 86l-82 -86h-80z" />
<glyph unicode="&#x176;" horiz-adv-x="595" d="M27 700h110l174 -363l162 363h95l-215 -445v-255h-101v255zM104 752l148 140h90l148 -140h-92l-102 68l-100 -68h-92z" />
<glyph unicode="&#x177;" horiz-adv-x="512" d="M18 517h107l96 -266l44 -130l43 130l95 266h91l-271 -725h-89l82 213zM103 582l111 151h103l111 -151h-81l-82 86l-82 -86h-80z" />
<glyph unicode="&#x178;" horiz-adv-x="595" d="M27 700h110l174 -363l162 363h95l-215 -445v-255h-101v255zM128 827q0 25 18 42.5t44 17.5t44 -17.5t18 -42.5t-18 -43t-44 -18t-44 18t-18 43zM343 827q0 25 18 42.5t44 17.5q25 0 43 -17.5t18 -42.5t-18 -43t-43 -18q-26 0 -44 18t-18 43z" />
<glyph unicode="&#x179;" horiz-adv-x="536" d="M40 0v78l344 544h-336v78h448v-78l-343 -544h343v-78h-456zM176 752l132 140h132l-175 -140h-89z" />
<glyph unicode="&#x17a;" horiz-adv-x="444" d="M38 0v67l265 383h-255v67h358v-67l-265 -383h265v-67h-368zM142 582l102 151h122l-144 -151h-80z" />
<glyph unicode="&#x17b;" horiz-adv-x="536" d="M40 0v78l344 544h-336v78h448v-78l-343 -544h343v-78h-456zM205 826q0 26 18.5 43.5t44.5 17.5t44 -17.5t18 -43.5q0 -25 -18 -43t-44 -18t-44.5 18t-18.5 43z" />
<glyph unicode="&#x17c;" horiz-adv-x="444" d="M38 0v67l265 383h-255v67h358v-67l-265 -383h265v-67h-368zM159 661q0 26 18.5 44t44.5 18t44 -18.5t18 -43.5t-18 -43.5t-44 -18.5t-44.5 18t-18.5 44z" />
<glyph unicode="&#x17d;" horiz-adv-x="536" d="M40 0v78l344 544h-336v78h448v-78l-343 -544h343v-78h-456zM75 892h92l100 -68l102 68h92l-148 -140h-90z" />
<glyph unicode="&#x17e;" horiz-adv-x="444" d="M38 0v67l265 383h-255v67h358v-67l-265 -383h265v-67h-368zM61 733h80l82 -86l82 86h81l-111 -151h-103z" />
<glyph unicode="&#x17f;" horiz-adv-x="304" d="M102 0v608q0 75 41.5 113t119.5 38q49 0 81 -16v-66q-38 10 -65 10q-82 0 -82 -79v-608h-95z" />
<glyph unicode="&#x192;" horiz-adv-x="612" d="M-43 -39h107q12 -107 95 -107q41 0 69 28t28 90v235h-159v78h159v222q0 97 56 152.5t141 55.5q91 0 144 -48t58 -136h-107q-12 107 -95 107q-41 0 -69 -28t-28 -90v-235h159v-78h-159v-222q0 -97 -56 -152.5t-141 -55.5q-91 0 -144 48t-58 136z" />
<glyph unicode="&#x1fc;" horiz-adv-x="945" d="M8 0l471 700h414v-78h-311v-215h291v-77h-291v-252h311v-78h-411v190h-239l-124 -190h-111zM293 266h189v295l-77 -123zM508 752l132 140h132l-175 -140h-89z" />
<glyph unicode="&#x1fd;" horiz-adv-x="880" d="M48 122q0 70 59.5 118.5t189.5 48.5q32 0 84 -5v62q0 119 -99 119q-57 0 -84.5 -27.5t-30.5 -91.5h-100q1 90 57.5 138t157.5 48q117 0 162 -75q62 75 164 75q113 0 171.5 -74.5t50.5 -208.5h-351q3 -197 129 -197q49 0 75.5 22.5t36.5 69.5h101q-9 -70 -65.5 -114.5 t-147.5 -44.5q-135 0 -190 106q-91 -106 -213 -106q-72 0 -114.5 37.5t-42.5 99.5zM145 135q0 -38 25 -57.5t68 -19.5t86 25t72 60q-11 32 -14 81q-39 4 -79 4q-158 0 -158 -93zM293 582l102 151h122l-144 -151h-80zM482 311h245q0 76 -32 115.5t-87 39.5q-49 0 -83 -38.5 t-43 -116.5z" />
<glyph unicode="&#x218;" horiz-adv-x="607" d="M48 207h108q11 -145 155 -145q63 0 105 32.5t42 92.5q0 20 -5.5 36.5t-12.5 27.5t-23 21t-26 15.5t-33 12t-33 8.5t-37 8q-31 6 -46.5 10t-44 12.5t-44.5 17.5t-36.5 24.5t-31.5 33.5t-19 44t-8 58q0 89 67.5 144t171.5 55q118 0 183.5 -54.5t70.5 -157.5h-107 q-6 72 -43 103.5t-104 31.5q-62 0 -100.5 -27.5t-38.5 -82.5q0 -23 5.5 -41t19.5 -31t25 -21t36 -15.5t36.5 -10t42.5 -9.5q32 -7 46.5 -10t45 -12t46 -17.5t37.5 -24t32.5 -33.5t19 -44t8.5 -58q0 -93 -72 -154.5t-175 -61.5q-120 0 -189 56.5t-74 165.5zM239 -248l20 183 h91l-42 -183h-69z" />
<glyph unicode="&#x219;" horiz-adv-x="510" d="M47 147h99q3 -47 30 -71.5t90 -24.5q47 0 77.5 23t30.5 65q0 18 -9 31.5t-19 21t-32 15t-33.5 10t-38.5 7.5q-35 6 -53.5 10t-49 15.5t-46.5 26t-29 40t-13 59.5q0 74 55 115.5t145 41.5q197 0 200 -147h-99q-3 43 -28 62t-77 19q-48 0 -77.5 -19t-29.5 -56q0 -18 8 -32 t17 -21.5t29.5 -14.5t32 -9.5t38.5 -7.5t33.5 -6.5t32 -7.5t35 -10.5t29.5 -13t28.5 -18.5t19.5 -23.5t15.5 -31.5t4.5 -39q0 -75 -56.5 -123t-145.5 -48q-108 0 -160 43t-54 119zM200 -248l20 183h91l-42 -183h-69z" />
<glyph unicode="&#x21a;" horiz-adv-x="547" d="M30 622v78h487v-78h-193v-622h-101v622h-193zM208 -248l20 183h91l-42 -183h-69z" />
<glyph unicode="&#x21b;" horiz-adv-x="389" d="M20 450v67h88v143h95v-143h146v-67h-146v-308q0 -86 71 -86q31 0 83 16v-64q-48 -23 -114 -23q-60 0 -97.5 35t-37.5 101v329h-88zM136 -248l20 183h91l-42 -183h-69z" />
<glyph unicode="&#x2c6;" horiz-adv-x="425" d="M50 582l111 151h103l111 -151h-81l-82 86l-82 -86h-80z" />
<glyph unicode="&#x2c7;" horiz-adv-x="425" d="M50 733h80l82 -86l82 86h81l-111 -151h-103z" />
<glyph unicode="&#x2d8;" horiz-adv-x="379" d="M50 733h67q0 -38 18.5 -61.5t53.5 -23.5q36 0 54.5 23.5t18.5 61.5h67q0 -78 -39 -119t-101 -41t-100.5 41t-38.5 119z" />
<glyph unicode="&#x2d9;" horiz-adv-x="225" d="M50 661q0 26 18.5 44t44.5 18q25 0 43.5 -18.5t18.5 -43.5t-18.5 -43.5t-43.5 -18.5q-26 0 -44.5 18t-18.5 44z" />
<glyph unicode="&#x2da;" horiz-adv-x="325" d="M50 657q0 44 32 70t81 26q48 0 80 -26t32 -70t-32 -70t-80 -26q-49 0 -81 26t-32 70zM122 652q6 -42 47 -37q40 5 34 47q-5 41 -47 36q-40 -5 -34 -46z" />
<glyph unicode="&#x2db;" horiz-adv-x="301" d="M50 -149q0 86 112 149h89q-122 -62 -122 -136q0 -23 14.5 -36.5t35.5 -13.5q33 0 72 22v-60q-42 -24 -95 -24q-48 0 -77 28t-29 71z" />
<glyph unicode="&#x2dc;" horiz-adv-x="441" d="M50 619q18 46 49 70t61 24q29 0 71.5 -23t55.5 -23q31 0 51 42l53 -26q-18 -45 -48.5 -69t-60.5 -24t-72 23t-56 23q-29 0 -52 -43z" />
<glyph unicode="&#x2dd;" horiz-adv-x="454" d="M50 582l82 151h113l-118 -151h-77zM210 582l82 151h112l-117 -151h-77z" />
<glyph unicode="&#x326;" horiz-adv-x="0" d="M-161 -248l20 183h91l-42 -183h-69z" />
<glyph unicode="&#x3c0;" horiz-adv-x="592" d="M77 0v517h438v-517h-95v450h-248v-450h-95z" />
<glyph unicode="&#xe3f;" horiz-adv-x="629" d="M87 0v700h168v120h92v-121q90 -8 147 -49.5t57 -126.5q0 -55 -33 -100t-81 -59q62 -8 102.5 -47t40.5 -111q0 -94 -64 -147.5t-169 -58.5v-120h-92v120h-168zM188 77h67v238h-67v-238zM188 391h67v232h-67v-232zM347 77q129 9 129 129q0 102 -129 109v-238zM347 394 q100 19 100 123q0 91 -100 104v-227z" />
<glyph unicode="&#x1e80;" horiz-adv-x="919" d="M10 700h110l114 -447l31 -131l33 131l118 447h108l123 -447l34 -134l30 134l103 447h95l-180 -700h-106l-125 438l-35 135l-33 -135l-120 -438h-106zM305 892h132l132 -140h-89z" />
<glyph unicode="&#x1e81;" horiz-adv-x="797" d="M18 517h104l85 -285l36 -130l35 130l81 285h88l86 -285l37 -130l35 130l83 285h90l-168 -517h-90l-83 267l-37 130l-37 -130l-78 -267h-92zM220 733h122l102 -151h-81z" />
<glyph unicode="&#x1e82;" horiz-adv-x="919" d="M10 700h110l114 -447l31 -131l33 131l118 447h108l123 -447l34 -134l30 134l103 447h95l-180 -700h-106l-125 438l-35 135l-33 -135l-120 -438h-106zM351 752l132 140h132l-175 -140h-89z" />
<glyph unicode="&#x1e83;" horiz-adv-x="797" d="M18 517h104l85 -285l36 -130l35 130l81 285h88l86 -285l37 -130l35 130l83 285h90l-168 -517h-90l-83 267l-37 130l-37 -130l-78 -267h-92zM360 582l102 151h122l-144 -151h-80z" />
<glyph unicode="&#x1e84;" horiz-adv-x="919" d="M10 700h110l114 -447l31 -131l33 131l118 447h108l123 -447l34 -134l30 134l103 447h95l-180 -700h-106l-125 438l-35 135l-33 -135l-120 -438h-106zM290 827q0 25 18 42.5t44 17.5t44 -17.5t18 -42.5t-18 -43t-44 -18t-44 18t-18 43zM505 827q0 25 18 42.5t44 17.5 q25 0 43 -17.5t18 -42.5t-18 -43t-43 -18q-26 0 -44 18t-18 43z" />
<glyph unicode="&#x1e85;" horiz-adv-x="797" d="M18 517h104l85 -285l36 -130l35 130l81 285h88l86 -285l37 -130l35 130l83 285h90l-168 -517h-90l-83 267l-37 130l-37 -130l-78 -267h-92zM242 661q0 25 18 43t44 18t43.5 -18t17.5 -43t-17.5 -43t-43.5 -18t-44 18t-18 43zM431 661q0 25 18 43t44 18q25 0 43 -18 t18 -43t-18 -43t-43 -18q-26 0 -44 18t-18 43z" />
<glyph unicode="&#x1e9e;" horiz-adv-x="673" d="M87 0v400q0 154 71.5 228t197.5 74h237v-78l-161 -230q58 -9 100 -33.5t62.5 -57t29.5 -63t9 -60.5q0 -92 -61.5 -143.5t-143.5 -51.5q-83 0 -132 39.5t-51 105.5h104q6 -70 83 -70q43 0 70 29t27 88q0 63 -44.5 104.5t-127.5 41.5h-30v77l157 224h-128q-168 0 -168 -214 v-410h-101z" />
<glyph unicode="&#x1ef2;" horiz-adv-x="595" d="M27 700h110l174 -363l162 363h95l-215 -445v-255h-101v255zM141 892h132l132 -140h-89z" />
<glyph unicode="&#x1ef3;" horiz-adv-x="512" d="M18 517h107l96 -266l44 -130l43 130l95 266h91l-271 -725h-89l82 213zM111 733h122l102 -151h-81z" />
<glyph unicode="&#x2000;" horiz-adv-x="467" />
<glyph unicode="&#x2001;" horiz-adv-x="935" />
<glyph unicode="&#x2002;" horiz-adv-x="467" />
<glyph unicode="&#x2003;" horiz-adv-x="935" />
<glyph unicode="&#x2004;" horiz-adv-x="311" />
<glyph unicode="&#x2005;" horiz-adv-x="233" />
<glyph unicode="&#x2006;" horiz-adv-x="155" />
<glyph unicode="&#x2007;" horiz-adv-x="155" />
<glyph unicode="&#x2008;" horiz-adv-x="116" />
<glyph unicode="&#x2009;" horiz-adv-x="187" />
<glyph unicode="&#x200a;" horiz-adv-x="51" />
<glyph unicode="&#x2010;" horiz-adv-x="341" d="M50 238v77h241v-77h-241z" />
<glyph unicode="&#x2011;" horiz-adv-x="341" d="M50 238v77h241v-77h-241z" />
<glyph unicode="&#x2012;" horiz-adv-x="341" d="M50 238v77h241v-77h-241z" />
<glyph unicode="&#x2013;" horiz-adv-x="500" d="M40 238v77h420v-77h-420z" />
<glyph unicode="&#x2014;" horiz-adv-x="1000" d="M40 238v77h920v-77h-920z" />
<glyph unicode="&#x2018;" horiz-adv-x="244" d="M35 605l90 255h83l-71 -255h-102z" />
<glyph unicode="&#x2019;" horiz-adv-x="244" d="M35 605l72 255h101l-90 -255h-83z" />
<glyph unicode="&#x201a;" horiz-adv-x="244" d="M35 -160l72 254h101l-90 -254h-83z" />
<glyph unicode="&#x201c;" horiz-adv-x="404" d="M35 605l90 255h83l-71 -255h-102zM196 605l90 255h83l-72 -255h-101z" />
<glyph unicode="&#x201d;" horiz-adv-x="404" d="M35 605l72 255h101l-90 -255h-83zM196 605l71 255h102l-90 -255h-83z" />
<glyph unicode="&#x201e;" horiz-adv-x="404" d="M35 -160l72 254h101l-90 -254h-83zM196 -160l71 254h102l-90 -254h-83z" />
<glyph unicode="&#x2020;" horiz-adv-x="496" d="M53 452v78h145v170h101v-170h144v-78h-144v-452h-101v452h-145z" />
<glyph unicode="&#x2021;" horiz-adv-x="496" d="M53 170v78h145v204h-145v78h145v170h101v-170h144v-78h-144v-204h144v-78h-144v-170h-101v170h-145z" />
<glyph unicode="&#x2022;" horiz-adv-x="348" d="M50 350q0 53 36.5 88.5t87.5 35.5t87.5 -35.5t36.5 -88.5t-36.5 -88.5t-87.5 -35.5t-87.5 35.5t-36.5 88.5z" />
<glyph unicode="&#x2026;" horiz-adv-x="817" d="M54 51q0 29 19 47.5t47 18.5t47 -18.5t19 -47.5t-19 -47.5t-47 -18.5t-47 18.5t-19 47.5zM342 51q0 29 19 47.5t47 18.5t47 -18.5t19 -47.5t-19 -47.5t-47 -18.5t-47 18.5t-19 47.5zM631 51q0 29 19 47.5t47 18.5t47 -18.5t19 -47.5t-19 -47.5t-47 -18.5t-47 18.5 t-19 47.5z" />
<glyph unicode="&#x202f;" horiz-adv-x="187" />
<glyph unicode="&#x2030;" horiz-adv-x="1402" d="M49 490q0 99 51 159t134 60t134 -60t51 -159t-51 -159t-134 -60t-134 60t-51 159zM138 490q0 -78 26 -116t70 -38t70 38t26 116t-26 116t-70 38t-70 -38t-26 -116zM223 0l441 700h97l-441 -700h-97zM569 210q0 99 51 159t134 60t134 -60t51 -159t-51 -159t-134 -60 t-134 60t-51 159zM658 210q0 -78 26 -116t70 -38t70 38t26 116t-26 116t-70 38t-70 -38t-26 -116zM981 210q0 99 51 159t134 60t134 -60t51 -159t-51 -159t-134 -60t-134 60t-51 159zM1070 210q0 -78 26 -116t70 -38t70 38t26 116t-26 116t-70 38t-70 -38t-26 -116z" />
<glyph unicode="&#x2039;" horiz-adv-x="340" d="M50 227v85l240 197v-107l-160 -130l160 -130v-112z" />
<glyph unicode="&#x203a;" horiz-adv-x="340" d="M50 30v107l159 131l-159 129v112l240 -197v-85z" />
<glyph unicode="&#x2044;" horiz-adv-x="526" d="M-6 0l441 700h97l-441 -700h-97z" />
<glyph unicode="&#x205f;" horiz-adv-x="233" />
<glyph unicode="&#x20a1;" horiz-adv-x="669" d="M34 -120l72 232q-58 93 -58 238q0 147 66 243.5t179 116.5l34 110h96l-33 -107q36 -5 69 -15l38 122h96l-53 -170q67 -63 82 -176h-112q-2 21 -10 48l-143 -459q132 5 153 163h112q-15 -120 -87 -180.5t-185 -60.5h-17l-33 -105h-96l38 122q-34 12 -64 33l-48 -155h-96z M147 350q0 -49 6 -88l110 353q-116 -66 -116 -265zM207 126q23 -30 59 -46l168 537q-32 18 -68 19z" />
<glyph unicode="&#x20a5;" horiz-adv-x="924" d="M77 0v517h95v-66q80 82 177 82q110 0 146 -87q52 54 119 75l78 115h97l-71 -105q59 -8 94 -49.5t35 -118.5v-363h-95v342q0 106 -86 112l-157 -232v-222h-95v82l-130 -192h-97l227 335v117q0 58 -24 85.5t-75 27.5q-38 0 -77.5 -19t-65.5 -46v-390h-95zM508 388 q1 -7 1 -22l36 52q-23 -15 -37 -30z" />
<glyph unicode="&#x20a6;" horiz-adv-x="730" d="M11 213v78h99v123h-99v78h99v208h107l118 -208h194v208h91v-208h99v-78h-99v-123h99v-78h-99v-213h-107l-121 213h-190v-213h-92v213h-99zM199 551l1 -59h33zM202 291h145l-70 123h-75v-123zM380 414l70 -123h79v123h-149zM494 213l37 -65l-1 65h-36z" />
<glyph unicode="&#x20a8;" horiz-adv-x="590" d="M37 467v78h314q-27 77 -137 77h-177v78h105h394v-78h-133q36 -32 53 -77h80v-78h-72q-6 -96 -72.5 -145.5t-163.5 -52.5l279 -269h-128l-272 269v77h107q137 0 145 121h-322z" />
<glyph unicode="&#x20a9;" horiz-adv-x="939" d="M11 213v78h137l-33 123h-104v78h84l-55 208h110l47 -208h177l52 208h108l53 -208h174l43 208h95l-51 -208h80v-78h-98l-30 -123h128v-78h-147l-52 -213h-106l-54 213h-184l-55 -213h-106l-56 213h-157zM215 414l27 -123h82l30 123h-139zM260 213l22 -91l22 91h-44z M406 291h143l-32 123h-79zM457 492h40l-20 81zM607 414l31 -123h81l25 123h-137zM658 213l23 -94l21 94h-44z" />
<glyph unicode="&#x20aa;" horiz-adv-x="750" d="M91 0v700h196q119 0 176.5 -59t57.5 -203q0 -100 -26 -239h-83q23 144 23 232q0 101 -36 146t-122 45h-97v-622h-89zM255 0v500h89v-422h95q85 0 124.5 64.5t39.5 202.5q0 137 -43 355h83q44 -191 44 -348q0 -187 -60.5 -269.5t-177.5 -82.5h-194z" />
<glyph unicode="&#x20ab;" horiz-adv-x="573" d="M48 0v74h505v-74h-505zM48 349q0 106 60.5 163t142.5 57q41 0 76.5 -16.5t55.5 -43.5v98h-124v71h124v66h94v-66h76v-71h-76v-464h-94v55q-56 -70 -147 -70q-76 0 -132 57.5t-56 163.5zM146 349q0 -73 32.5 -110t79.5 -37q70 0 125 55v187q-49 51 -120 51q-47 0 -82 -37 t-35 -109z" />
<glyph unicode="&#x20ac;" horiz-adv-x="674" d="M21 207v78h73q-3 31 -3 65q0 30 3 58h-73v78h85q27 108 95 168.5t167 60.5q106 0 175 -60.5t84 -180.5h-113q-21 163 -146 163q-117 0 -154 -151h190v-78h-203q-2 -36 -2 -58q0 -35 3 -65h202v-78h-190q35 -144 154 -144q125 0 146 163h113q-15 -120 -84 -180.5 t-175 -60.5q-104 0 -170 58t-92 164h-85z" />
<glyph unicode="&#x20ad;" horiz-adv-x="597" d="M3 329v78h90v293h101v-293h5l227 293h108l-236 -293h240v-78h-229l261 -329h-127l-249 328v-328h-101v329h-90z" />
<glyph unicode="&#x20ae;" horiz-adv-x="547" d="M30 622v78h487v-78h-193v-148l127 56v-82l-127 -56v-69l127 56v-82l-127 -56v-241h-101v196l-127 -56v82l127 56v69l-127 -56v82l127 56v193h-193z" />
<glyph unicode="&#x20b1;" horiz-adv-x="624" d="M3 437v77h90v186h197q94 0 164.5 -48t83.5 -138h74v-77h-74q-14 -90 -84 -137.5t-164 -47.5h-96v-252h-101v437h-90zM194 330h96q57 0 94.5 27t47.5 80h-238v-107zM194 514h239q-10 54 -48 81.5t-95 27.5h-96v-109z" />
<glyph unicode="&#x20b4;" horiz-adv-x="625" d="M48 309v78h266q66 24 101 53.5t35 80.5q0 117 -133 117q-130 0 -143 -118h-107q5 92 69.5 143.5t180.5 51.5q110 0 171.5 -50t61.5 -133q0 -93 -76 -145h102v-78h-285q-61 -24 -93.5 -52.5t-32.5 -77.5q0 -117 133 -117q139 0 151 118h107q-5 -91 -73 -143t-185 -52 q-110 0 -171.5 50t-61.5 133q0 89 71 141h-88z" />
<glyph unicode="&#x20b5;" horiz-adv-x="669" d="M48 350q0 149 68 245.5t183 115.5v109h92v-107q96 -10 156.5 -70t74.5 -169h-112q-19 137 -119 159v-566q100 22 119 159h112q-14 -109 -74.5 -169t-156.5 -70v-107h-92v109q-121 17 -186 112.5t-65 248.5zM157 350q0 -121 37.5 -191.5t104.5 -88.5v560 q-65 -21 -103.5 -91.5t-38.5 -188.5z" />
<glyph unicode="&#x2113;" horiz-adv-x="467" d="M23 180v64q45 25 88 53v132q0 138 44 212t119 74q52 0 87 -31.5t35 -105.5q0 -69 -53 -144.5t-138 -142.5v-149q0 -86 72 -86q31 0 83 16v-64q-48 -23 -114 -23q-60 0 -97.5 35t-37.5 101v105q-48 -29 -88 -46zM205 373q102 102 102 205q0 70 -36 70q-66 0 -66 -219v-56z " />
<glyph unicode="&#x2117;" horiz-adv-x="830" d="M50 350q0 152 105 258.5t260 106.5t260 -106.5t105 -258.5t-105 -258.5t-260 -106.5t-260 106.5t-105 258.5zM121 350q0 -125 85 -213t209 -88t209 88t85 213t-85 213t-209 88t-209 -88t-85 -213zM295 143v413h134q63 0 108.5 -34t45.5 -98q0 -63 -45.5 -97.5 t-108.5 -34.5h-62v-149h-72zM367 348h62q39 0 61 19.5t22 56.5q0 76 -83 76h-62v-152z" />
<glyph unicode="&#x2120;" horiz-adv-x="699" d="M50 490h63q6 -46 59 -46q21 0 37 9.5t16 31.5q0 14 -11 23t-21 11.5t-37 8.5q-23 4 -36 7.5t-31 13t-26.5 27.5t-8.5 44q0 40 31 64t80 24q52 0 83.5 -24t32.5 -67h-63q-5 40 -53 40q-51 0 -51 -33q0 -14 11 -23t21.5 -11.5t35.5 -7.5q24 -5 36.5 -8.5t31 -13t27 -27.5 t8.5 -44q0 -43 -32.5 -69.5t-80.5 -26.5q-53 0 -86 25t-36 72zM336 401v299h64l96 -215l94 215h59v-299h-60v102l2 80l-77 -175h-41l-81 182l1 -88v-101h-57z" />
<glyph unicode="&#x2122;" horiz-adv-x="679" d="M50 651v49h221v-49h-81v-250h-61v250h-79zM316 401v299h64l96 -215l95 215h58v-299h-60v102l2 80l-77 -175h-41l-81 182l1 -88v-101h-57z" />
<glyph unicode="&#x2126;" horiz-adv-x="741" d="M40 0v78h170q-68 45 -115 129t-47 177q0 143 88.5 237t233.5 94t233.5 -94t88.5 -237q0 -93 -47 -177t-115 -129h171v-78h-255v78q58 43 98 118t40 172q0 130 -59.5 199.5t-154.5 69.5t-154 -69.5t-59 -199.5q0 -98 39.5 -172.5t98.5 -117.5v-78h-255z" />
<glyph unicode="&#x212e;" horiz-adv-x="774" d="M50 321q0 144 98 241t239 97t239 -97t98 -241h-523v-239q79 -65 186 -65q75 0 138 34t104 93h47q-45 -74 -121.5 -117t-167.5 -43q-141 0 -239 96.5t-98 240.5zM201 354h373l-1 206q-80 66 -186 66t-186 -66v-206z" />
<glyph unicode="&#x2153;" horiz-adv-x="878" d="M49 572v75l103 53h85v-420h-85v345zM124 0l441 700h97l-441 -700h-97zM494 112h88q7 -57 81 -57q78 0 78 64q0 66 -93 66h-54v64h54q81 0 81 61q0 55 -69 55q-64 0 -74 -57h-88q5 57 48.5 89t113.5 32t112 -32t42 -86q0 -31 -21.5 -56.5t-60.5 -34.5q49 -7 72 -36t23 -65 q0 -56 -48.5 -92t-115.5 -36q-77 0 -121.5 32t-47.5 89z" />
<glyph unicode="&#x2154;" horiz-adv-x="982" d="M49 573q3 65 46 100.5t113 35.5q68 0 110 -33t42 -96q0 -28 -9 -51.5t-39.5 -56.5t-54 -53.5t-86.5 -74.5h192v-64h-304v64q22 19 53 45t48 40.5t38.5 34t33 32t23 28t16 29t4.5 27.5q0 65 -67 65q-64 0 -71 -72h-88zM228 0l441 700h97l-441 -700h-97zM598 112h88 q7 -57 81 -57q78 0 78 64q0 66 -93 66h-54v64h54q81 0 81 61q0 55 -69 55q-64 0 -74 -57h-88q5 57 48.5 89t113.5 32t112 -32t42 -86q0 -31 -21.5 -56.5t-60.5 -34.5q49 -7 72 -36t23 -65q0 -56 -48.5 -92t-115.5 -36q-77 0 -121.5 32t-47.5 89z" />
<glyph unicode="&#x215b;" horiz-adv-x="881" d="M49 572v75l103 53h85v-420h-85v345zM124 0l441 700h97l-441 -700h-97zM492 112q0 38 24.5 67t66.5 39q-78 24 -78 96q0 53 43.5 84t112.5 31q70 0 113.5 -31t43.5 -84q0 -72 -78 -96q42 -10 66.5 -39t24.5 -67q0 -61 -47.5 -91t-122.5 -30t-122 30t-47 91zM579 121 q0 -66 82 -66q83 0 83 66q0 63 -83 63q-82 0 -82 -63zM591 305q0 -58 70 -58q71 0 71 58q0 31 -20.5 45.5t-50.5 14.5t-50 -14.5t-20 -45.5z" />
<glyph unicode="&#x215c;" horiz-adv-x="967" d="M49 392h88q7 -57 81 -57q78 0 78 64q0 66 -93 66h-54v64h54q81 0 81 61q0 55 -69 55q-64 0 -74 -57h-88q5 57 48.5 89t113.5 32t112 -32t42 -86q0 -31 -21.5 -56.5t-60.5 -34.5q49 -7 72 -36t23 -65q0 -56 -48.5 -92t-115.5 -36q-77 0 -121.5 32t-47.5 89zM211 0l441 700 h97l-441 -700h-97zM578 112q0 38 24.5 67t66.5 39q-78 24 -78 96q0 53 43.5 84t112.5 31q70 0 113.5 -31t43.5 -84q0 -72 -78 -96q42 -10 66.5 -39t24.5 -67q0 -61 -47.5 -91t-122.5 -30t-122 30t-47 91zM665 121q0 -66 82 -66q83 0 83 66q0 63 -83 63q-82 0 -82 -63z M677 305q0 -58 70 -58q71 0 71 58q0 31 -20.5 45.5t-50.5 14.5t-50 -14.5t-20 -45.5z" />
<glyph unicode="&#x215d;" horiz-adv-x="947" d="M49 382h88q8 -47 67 -47q76 0 76 81q0 86 -73 86q-47 0 -72 -32h-74v230h275v-65h-201v-102q32 32 93 32q60 0 99 -39t39 -110q0 -67 -48 -106t-114 -39q-71 0 -111.5 29t-43.5 82zM191 0l441 700h97l-441 -700h-97zM558 112q0 38 24.5 67t66.5 39q-78 24 -78 96 q0 53 43.5 84t112.5 31q70 0 113.5 -31t43.5 -84q0 -72 -78 -96q42 -10 66.5 -39t24.5 -67q0 -61 -47.5 -91t-122.5 -30t-122 30t-47 91zM645 121q0 -66 82 -66q83 0 83 66q0 63 -83 63q-82 0 -82 -63zM657 305q0 -58 70 -58q71 0 71 58q0 31 -20.5 45.5t-50.5 14.5 t-50 -14.5t-20 -45.5z" />
<glyph unicode="&#x215e;" horiz-adv-x="838" d="M49 635v65h280v-65l-161 -355h-82l163 355h-200zM82 0l441 700h97l-441 -700h-97zM449 112q0 38 24.5 67t66.5 39q-78 24 -78 96q0 53 43.5 84t112.5 31q70 0 113.5 -31t43.5 -84q0 -72 -78 -96q42 -10 66.5 -39t24.5 -67q0 -61 -47.5 -91t-122.5 -30t-122 30t-47 91z M536 121q0 -66 82 -66q83 0 83 66q0 63 -83 63q-82 0 -82 -63zM548 305q0 -58 70 -58q71 0 71 58q0 31 -20.5 45.5t-50.5 14.5t-50 -14.5t-20 -45.5z" />
<glyph unicode="&#x2190;" horiz-adv-x="743" d="M40 270l300 300l56 -55l-206 -207h513v-78h-513l206 -205l-56 -55z" />
<glyph unicode="&#x2191;" horiz-adv-x="680" d="M40 300l300 301l300 -301l-55 -55l-206 205v-512h-77v513l-207 -206z" />
<glyph unicode="&#x2192;" horiz-adv-x="743" d="M40 230v78h513l-206 207l56 55l300 -300l-300 -300l-56 55l206 205h-513z" />
<glyph unicode="&#x2193;" horiz-adv-x="680" d="M40 238l55 56l207 -207v514h77v-513l206 206l55 -56l-300 -300z" />
<glyph unicode="&#x2196;" horiz-adv-x="615" d="M80 93v424h424v-77h-292l363 -363l-55 -55l-362 363v-292h-78z" />
<glyph unicode="&#x2197;" horiz-adv-x="615" d="M40 77l362 363h-292v77h425v-424h-78v292l-362 -363z" />
<glyph unicode="&#x2198;" horiz-adv-x="615" d="M40 463l55 54l362 -363v293h78v-425h-425v78h292z" />
<glyph unicode="&#x2199;" horiz-adv-x="615" d="M80 22v425h78v-293l362 363l55 -54l-363 -363h292v-78h-424z" />
<glyph unicode="&#x2202;" horiz-adv-x="626" d="M48 183q0 125 71.5 197.5t186.5 72.5q51 0 96.5 -23.5t70.5 -60.5q4 40 4 97q0 111 -37 167t-95 56q-90 0 -125 -96h-103q21 78 83 122t157 44q99 0 159.5 -83.5t60.5 -226.5q0 -215 -84.5 -339.5t-239.5 -124.5q-88 0 -146.5 54t-58.5 144zM150 186q0 -59 32 -95t85 -36 q71 0 122.5 61t73.5 178q-19 36 -60 58.5t-91 22.5q-77 0 -119.5 -52t-42.5 -137z" />
<glyph unicode="&#x2205;" horiz-adv-x="662" d="M50 366q0 121 81 201.5t200 80.5q64 0 120 -25l45 70l63 -38l-45 -72q98 -82 98 -217q0 -121 -81 -201.5t-200 -80.5q-63 0 -119 25l-45 -71l-63 39l45 71q-99 83 -99 218zM128 366q0 -94 63 -152l218 342q-37 14 -78 14q-87 0 -145 -57t-58 -147zM254 176q37 -14 77 -14 q87 0 145 57t58 147q0 92 -62 151z" />
<glyph unicode="&#x2206;" horiz-adv-x="620" d="M30 0v77l221 623h106l233 -623v-77h-560zM126 77h355l-141 395l-43 131l-40 -131z" />
<glyph unicode="&#x220f;" horiz-adv-x="727" d="M87 0v700h553v-700h-100v622h-352v-622h-101z" />
<glyph unicode="&#x2211;" horiz-adv-x="567" d="M87 0v78l218 276l-218 268v78h429v-78h-313l182 -225v-77l-192 -242h323v-78h-429z" />
<glyph unicode="&#x2212;" horiz-adv-x="563" d="M50 327v78h463v-78h-463z" />
<glyph unicode="&#x221a;" horiz-adv-x="655" d="M37 450v67h182l98 -286l41 -129l39 129l149 469h91l-240 -700h-92l-165 450h-103z" />
<glyph unicode="&#x221e;" horiz-adv-x="804" d="M50 353q0 77 49.5 130t122.5 53q89 0 180 -118q43 55 85 86.5t95 31.5q73 0 122.5 -53t49.5 -130t-49.5 -130t-122.5 -53q-53 0 -95 31.5t-85 86.5q-91 -118 -180 -118q-73 0 -122.5 53t-49.5 130zM131 353q0 -45 26.5 -75.5t67.5 -30.5q32 0 61 26.5t68 79.5 q-39 53 -68 79.5t-61 26.5q-41 0 -67.5 -30.5t-26.5 -75.5zM450 353q38 -52 67 -79t62 -27q42 0 68 30.5t26 75.5t-26 75.5t-68 30.5q-33 0 -62 -27t-67 -79z" />
<glyph unicode="&#x222b;" horiz-adv-x="420" d="M60 -146q43 0 71.5 28t28.5 90v535q0 97 56.5 152.5t143.5 55.5v-77q-42 0 -70.5 -28t-28.5 -90v-535q0 -97 -56.5 -152.5t-144.5 -55.5v77z" />
<glyph unicode="&#x2248;" horiz-adv-x="574" d="M33 224q57 122 154 122q41 0 78.5 -21.5t68.5 -43t57 -21.5q44 0 85 79l65 -35q-57 -122 -154 -122q-41 0 -78.5 21.5t-68.5 43t-57 21.5q-45 0 -85 -79zM33 427q57 122 154 122q41 0 78.5 -21.5t68.5 -43t57 -21.5q44 0 85 79l65 -35q-57 -122 -154 -122 q-41 0 -78.5 21.5t-68.5 43t-57 21.5q-45 0 -85 -79z" />
<glyph unicode="&#x2260;" horiz-adv-x="563" d="M50 225v78h166l47 125h-213v78h243l64 169h83l-64 -169h137v-78h-167l-47 -125h214v-78h-244l-64 -170h-83l64 170h-136z" />
<glyph unicode="&#x2264;" horiz-adv-x="563" d="M50 0v78h463v-78h-463zM50 337v81l463 199v-79l-368 -158l368 -158v-83z" />
<glyph unicode="&#x2265;" horiz-adv-x="563" d="M50 0v78h463v-78h-463zM50 139v78l368 159l-368 157v84l463 -199v-81z" />
<glyph unicode="&#x25ca;" horiz-adv-x="582" d="M50 350l194 350h94l194 -350l-194 -350h-94zM142 350l149 -266l149 266l-149 265z" />
<glyph unicode="&#x25fc;" horiz-adv-x="515" d="M0 0v515h515v-515h-515z" />
<glyph unicode="&#x27f5;" horiz-adv-x="1367" d="M40 270l300 300l56 -55l-206 -207h1137v-78h-1137l206 -205l-56 -55z" />
<glyph unicode="&#x27f6;" horiz-adv-x="1367" d="M40 230v78h1137l-206 207l55 55l301 -300l-301 -300l-55 55l205 205h-1136z" />
<glyph unicode="&#x301a;" horiz-adv-x="358" d="M120 -125v950h218v-66h-72v-818h72v-66h-218zM176 -59h34v818h-34v-818z" />
<glyph unicode="&#x301b;" horiz-adv-x="358" d="M20 -59h71v818h-71v66h218v-950h-218v66zM148 -59h33v818h-33v-818z" />
<glyph horiz-adv-x="741" d="M48 350q0 166 87.5 265.5t234.5 99.5t234.5 -99.5t87.5 -265.5t-87.5 -265.5t-234.5 -99.5t-234.5 99.5t-87.5 265.5zM157 350q0 -142 58.5 -214.5t154.5 -72.5t155 72.5t59 214.5t-59 214.5t-155 72.5t-154.5 -72.5t-58.5 -214.5zM240 -60h365v-77h-365v77z" />
<glyph horiz-adv-x="584" d="M48 259q0 132 67.5 202.5t160.5 70.5q85 0 136 -61v46h95v-517h-95v56q-69 -71 -164 -71q-84 0 -142 70t-58 204zM149 259q0 -101 37 -149.5t93 -48.5q79 0 133 56v288q-50 52 -124 52q-57 0 -98 -49t-41 -149z" />
<glyph horiz-adv-x="581" d="M28 -69q0 71 71 127q-35 26 -35 80q0 50 46 102q-63 45 -63 125t62.5 123.5t160.5 43.5q56 0 103 -15h177v-67h-82q25 -36 25 -85q0 -81 -62.5 -124.5t-160.5 -43.5q-62 0 -112 18q-10 -26 -10 -47q0 -48 51 -48h158q80 0 128.5 -37.5t48.5 -101.5q0 -85 -80.5 -144.5 t-192.5 -59.5q-113 0 -173 41.5t-60 112.5zM119 -37q0 -120 157 -120q73 0 116 31t43 85q0 40 -26.5 59.5t-64.5 19.5h-170q-11 0 -31 2q-24 -37 -24 -77zM145 365q0 -104 125 -104t125 104q0 103 -125 103t-125 -103z" />
<glyph horiz-adv-x="249" d="M-69 -142q38 -11 69 -11q35 0 56 20t21 61v589h95v-589q0 -75 -43.5 -113t-122.5 -38q-40 0 -75 16v65zM62 661q0 25 18 43.5t44 18.5t44.5 -18t18.5 -44t-18.5 -44t-44.5 -18t-44 18.5t-18 43.5z" />
<glyph horiz-adv-x="369" d="M20 450v67h117v143h95v-143h117v-67h-117v-450h-95v450h-117z" />
<glyph horiz-adv-x="498" d="M62 661q0 25 18 43.5t44 18.5t44.5 -18t18.5 -44t-18.5 -44t-44.5 -18t-44 18.5t-18 43.5zM77 0v517h95v-517h-95zM180 -142q38 -11 69 -11q35 0 56 20t21 61v589h95v-589q0 -75 -43.5 -113t-122.5 -38q-40 0 -75 16v65zM311 661q0 25 18.5 43.5t43.5 18.5q26 0 44.5 -18 t18.5 -44t-18.5 -44t-44.5 -18q-25 0 -43.5 18.5t-18.5 43.5z" />
<glyph horiz-adv-x="584" d="M48 259q0 132 67.5 202.5t160.5 70.5q85 0 136 -61v46h95v-517h-95v56q-69 -71 -164 -71q-84 0 -142 70t-58 204zM149 259q0 -101 37 -149.5t93 -48.5q79 0 133 56v288q-50 52 -124 52q-57 0 -98 -49t-41 -149zM195 582l102 151h122l-144 -151h-80z" />
<glyph horiz-adv-x="584" d="M48 259q0 132 67.5 202.5t160.5 70.5q85 0 136 -61v46h95v-517h-95v56q-69 -71 -164 -71q-84 0 -142 70t-58 204zM149 259q0 -101 37 -149.5t93 -48.5q79 0 133 56v288q-50 52 -124 52q-57 0 -98 -49t-41 -149zM158 733h67q0 -38 18.5 -61.5t53.5 -23.5q36 0 54.5 23.5 t18.5 61.5h67q0 -78 -39 -119t-101 -41t-100.5 41t-38.5 119z" />
<glyph horiz-adv-x="584" d="M48 259q0 132 67.5 202.5t160.5 70.5q85 0 136 -61v46h95v-517h-95v56q-69 -71 -164 -71q-84 0 -142 70t-58 204zM135 582l111 151h103l111 -151h-81l-82 86l-82 -86h-80zM149 259q0 -101 37 -149.5t93 -48.5q79 0 133 56v288q-50 52 -124 52q-57 0 -98 -49t-41 -149z " />
<glyph horiz-adv-x="584" d="M48 259q0 132 67.5 202.5t160.5 70.5q85 0 136 -61v46h95v-517h-95v56q-69 -71 -164 -71q-84 0 -142 70t-58 204zM142 661q0 25 18 43t44 18t43.5 -18t17.5 -43t-17.5 -43t-43.5 -18t-44 18t-18 43zM149 259q0 -101 37 -149.5t93 -48.5q79 0 133 56v288q-50 52 -124 52 q-57 0 -98 -49t-41 -149zM331 661q0 25 18 43t44 18q25 0 43 -18t18 -43t-18 -43t-43 -18q-26 0 -44 18t-18 43z" />
<glyph horiz-adv-x="584" d="M48 259q0 132 67.5 202.5t160.5 70.5q85 0 136 -61v46h95v-517h-95v56q-69 -71 -164 -71q-84 0 -142 70t-58 204zM135 733h122l102 -151h-81zM149 259q0 -101 37 -149.5t93 -48.5q79 0 133 56v288q-50 52 -124 52q-57 0 -98 -49t-41 -149z" />
<glyph horiz-adv-x="584" d="M48 259q0 132 67.5 202.5t160.5 70.5q85 0 136 -61v46h95v-517h-95v56q-69 -71 -164 -71q-84 0 -142 70t-58 204zM149 259q0 -101 37 -149.5t93 -48.5q79 0 133 56v288q-50 52 -124 52q-57 0 -98 -49t-41 -149zM149 612v71h296v-71h-296z" />
<glyph horiz-adv-x="584" d="M48 259q0 132 67.5 202.5t160.5 70.5q85 0 136 -61v46h95v-517h-1q-122 -62 -122 -136q0 -23 14.5 -36.5t35.5 -13.5q33 0 72 22v-60q-42 -24 -95 -24q-48 0 -77 28t-29 71q0 86 112 149h-5v56q-69 -71 -164 -71q-84 0 -142 70t-58 204zM149 259q0 -101 37 -149.5 t93 -48.5q79 0 133 56v288q-50 52 -124 52q-57 0 -98 -49t-41 -149z" />
<glyph horiz-adv-x="584" d="M48 259q0 132 67.5 202.5t160.5 70.5q85 0 136 -61v46h95v-517h-95v56q-69 -71 -164 -71q-84 0 -142 70t-58 204zM149 259q0 -101 37 -149.5t93 -48.5q79 0 133 56v288q-50 52 -124 52q-57 0 -98 -49t-41 -149zM184 657q0 44 32 70t81 26q48 0 80 -26t32 -70t-32 -70 t-80 -26q-49 0 -81 26t-32 70zM256 652q6 -42 47 -37q40 5 34 47q-5 41 -47 36q-40 -5 -34 -46z" />
<glyph horiz-adv-x="584" d="M48 259q0 132 67.5 202.5t160.5 70.5q85 0 136 -61v46h95v-517h-95v56q-69 -71 -164 -71q-84 0 -142 70t-58 204zM127 619q18 46 49 70t61 24q29 0 71.5 -23t55.5 -23q31 0 51 42l53 -26q-18 -45 -48.5 -69t-60.5 -24t-72 23t-56 23q-29 0 -52 -43zM149 259 q0 -101 37 -149.5t93 -48.5q79 0 133 56v288q-50 52 -124 52q-57 0 -98 -49t-41 -149z" />
<glyph horiz-adv-x="581" d="M28 -69q0 71 71 127q-35 26 -35 80q0 50 46 102q-63 45 -63 125t62.5 123.5t160.5 43.5q56 0 103 -15h177v-67h-82q25 -36 25 -85q0 -81 -62.5 -124.5t-160.5 -43.5q-62 0 -112 18q-10 -26 -10 -47q0 -48 51 -48h158q80 0 128.5 -37.5t48.5 -101.5q0 -85 -80.5 -144.5 t-192.5 -59.5q-113 0 -173 41.5t-60 112.5zM119 -37q0 -120 157 -120q73 0 116 31t43 85q0 40 -26.5 59.5t-64.5 19.5h-170q-11 0 -31 2q-24 -37 -24 -77zM135 733h67q0 -38 18.5 -61.5t53.5 -23.5q36 0 54.5 23.5t18.5 61.5h67q0 -78 -39 -119t-101 -41t-100.5 41 t-38.5 119zM145 365q0 -104 125 -104t125 104q0 103 -125 103t-125 -103z" />
<glyph horiz-adv-x="581" d="M28 -69q0 71 71 127q-35 26 -35 80q0 50 46 102q-63 45 -63 125t62.5 123.5t160.5 43.5q56 0 103 -15h177v-67h-82q25 -36 25 -85q0 -81 -62.5 -124.5t-160.5 -43.5q-62 0 -112 18q-10 -26 -10 -47q0 -48 51 -48h158q80 0 128.5 -37.5t48.5 -101.5q0 -85 -80.5 -144.5 t-192.5 -59.5q-113 0 -173 41.5t-60 112.5zM112 582l111 151h103l111 -151h-81l-82 86l-82 -86h-80zM119 -37q0 -120 157 -120q73 0 116 31t43 85q0 40 -26.5 59.5t-64.5 19.5h-170q-11 0 -31 2q-24 -37 -24 -77zM145 365q0 -104 125 -104t125 104q0 103 -125 103t-125 -103 z" />
<glyph horiz-adv-x="581" d="M28 -69q0 71 71 127q-35 26 -35 80q0 50 46 102q-63 45 -63 125t62.5 123.5t160.5 43.5q56 0 103 -15h177v-67h-82q25 -36 25 -85q0 -81 -62.5 -124.5t-160.5 -43.5q-62 0 -112 18q-10 -26 -10 -47q0 -48 51 -48h158q80 0 128.5 -37.5t48.5 -101.5q0 -85 -80.5 -144.5 t-192.5 -59.5q-113 0 -173 41.5t-60 112.5zM119 -37q0 -120 157 -120q73 0 116 31t43 85q0 40 -26.5 59.5t-64.5 19.5h-170q-11 0 -31 2q-24 -37 -24 -77zM145 365q0 -104 125 -104t125 104q0 103 -125 103t-125 -103zM222 584l42 183h69l-20 -183h-91z" />
<glyph horiz-adv-x="581" d="M28 -69q0 71 71 127q-35 26 -35 80q0 50 46 102q-63 45 -63 125t62.5 123.5t160.5 43.5q56 0 103 -15h177v-67h-82q25 -36 25 -85q0 -81 -62.5 -124.5t-160.5 -43.5q-62 0 -112 18q-10 -26 -10 -47q0 -48 51 -48h158q80 0 128.5 -37.5t48.5 -101.5q0 -85 -80.5 -144.5 t-192.5 -59.5q-113 0 -173 41.5t-60 112.5zM119 -37q0 -120 157 -120q73 0 116 31t43 85q0 40 -26.5 59.5t-64.5 19.5h-170q-11 0 -31 2q-24 -37 -24 -77zM145 365q0 -104 125 -104t125 104q0 103 -125 103t-125 -103zM211 661q0 26 18.5 44t44.5 18t44 -18.5t18 -43.5 t-18 -43.5t-44 -18.5t-44.5 18t-18.5 44z" />
<glyph horiz-adv-x="249" d="M62 661q0 25 18 43.5t44 18.5t44.5 -18t18.5 -44t-18.5 -44t-44.5 -18t-44 18.5t-18 43.5zM77 0v517h95v-517h-95z" />
<glyph horiz-adv-x="249" d="M-69 -142q38 -11 69 -11q35 0 56 20t21 61v589h95v-589q0 -75 -43.5 -113t-122.5 -38q-40 0 -75 16v65zM-37 582l111 151h103l111 -151h-81l-82 86l-82 -86h-80z" />
<glyph horiz-adv-x="369" d="M20 450v67h117v143h95v-143h117v-67h-117v-112h97v-71h-97v-267h-95v267h-97v71h97v112h-117z" />
<glyph horiz-adv-x="369" d="M20 450v67h117v143h95v-143h117v-67h-117v-450h-95v450h-117zM282 580v223h88l-21 -223h-67z" />
<glyph horiz-adv-x="369" d="M20 450v67h117v143h95v-143h117v-67h-117v-450h-6l-49 -66q46 3 78.5 -18t32.5 -65q0 -46 -36 -72.5t-86 -26.5q-42 0 -71 14v54q26 -13 65 -13q21 0 38 11t17 30t-17 29.5t-38 10.5q-26 0 -43 -6l-19 34l63 84h-24v450h-117z" />
<glyph horiz-adv-x="369" d="M20 450v67h117v143h95v-143h117v-67h-117v-450h-95v450h-117zM119 -248l20 183h91l-42 -183h-69z" />
<glyph horiz-adv-x="533" d="M10 0l206 543h87l220 -543h-104l-54 142h-212l-49 -142h-94zM177 211h162l-49 128l-35 98l-33 -98z" />
<glyph horiz-adv-x="556" d="M87 0v543h193q91 0 147.5 -35.5t56.5 -110.5q0 -42 -26 -73t-65 -42q48 -7 81 -39.5t33 -88.5q0 -76 -57.5 -115t-153.5 -39h-209zM181 68h115q60 0 87 20t27 66q0 86 -114 86h-115v-172zM181 307h99q107 0 107 87q0 81 -107 81h-99v-168z" />
<glyph horiz-adv-x="572" d="M48 271q0 131 65.5 208.5t181.5 77.5q92 0 155 -49t75 -141h-102q-18 121 -128 121q-69 0 -107.5 -55.5t-38.5 -161.5t38.5 -161.5t107.5 -55.5q110 0 128 121h102q-12 -92 -75 -141t-155 -49q-116 0 -181.5 77.5t-65.5 208.5z" />
<glyph horiz-adv-x="606" d="M87 0v543h172q139 0 219 -72t80 -200t-80 -199.5t-219 -71.5h-172zM181 70h78q198 0 198 201q0 202 -198 202h-78v-403z" />
<glyph horiz-adv-x="482" d="M87 0v543h344v-70h-250v-153h234v-70h-234v-180h250v-70h-344z" />
<glyph horiz-adv-x="461" d="M87 0v543h335v-70h-241v-169h225v-70h-225v-234h-94z" />
<glyph horiz-adv-x="584" d="M48 271q0 131 65.5 208.5t181.5 77.5q91 0 154 -46.5t75 -132.5h-102q-19 110 -127 110q-69 0 -107.5 -55.5t-38.5 -161.5q0 -107 36 -162t104 -55q76 0 138 62v89h-131v68h223v-273h-92v51q-28 -28 -70.5 -47t-85.5 -19q-107 0 -165 77t-58 209z" />
<glyph horiz-adv-x="631" d="M87 0v543h94v-223h269v223h94v-543h-94v250h-269v-250h-94z" />
<glyph horiz-adv-x="268" d="M87 0v543h94v-543h-94z" />
<glyph horiz-adv-x="491" d="M30 176h103q4 -66 27 -93t65 -27q45 0 70 25.5t25 73.5v388h94v-372q0 -89 -54.5 -137.5t-134.5 -48.5q-85 0 -138 45.5t-57 145.5z" />
<glyph horiz-adv-x="544" d="M87 0v543h94v-257l204 257h101l-207 -251l238 -292h-118l-218 280v-280h-94z" />
<glyph horiz-adv-x="471" d="M97 0v543h95v-473h222v-70h-317z" />
<glyph horiz-adv-x="730" d="M87 0v543h105l177 -424l180 424h94v-543h-91v288l2 84l-148 -357h-79l-156 371l1 -98v-288h-85z" />
<glyph horiz-adv-x="621" d="M87 0v543h98l266 -414l-2 99v315h85v-543h-97l-266 413l1 -98v-315h-85z" />
<glyph horiz-adv-x="626" d="M48 271q0 129 73.5 207.5t191.5 78.5t191 -78.5t73 -207.5t-73 -207.5t-191 -78.5t-191.5 78.5t-73.5 207.5zM149 271q0 -104 45.5 -160.5t118.5 -56.5t118.5 56.5t45.5 160.5t-45.5 160.5t-118.5 56.5t-118.5 -56.5t-45.5 -160.5z" />
<glyph horiz-adv-x="517" d="M87 0v543h188q83 0 142.5 -46t59.5 -130t-59 -130t-143 -46h-94v-191h-94zM181 260h94q104 0 104 107t-104 107h-94v-214z" />
<glyph horiz-adv-x="626" d="M48 271q0 129 73.5 207.5t191.5 78.5t191 -78.5t73 -207.5q0 -92 -38.5 -160t-106.5 -100l130 -128h-118l-102 103q-10 -1 -29 -1q-118 0 -191.5 78.5t-73.5 207.5zM149 271q0 -104 45.5 -160.5t118.5 -56.5t118.5 56.5t45.5 160.5t-45.5 160.5t-118.5 56.5t-118.5 -56.5 t-45.5 -160.5z" />
<glyph horiz-adv-x="626" d="M48 271q0 129 73.5 207.5t191.5 78.5t191 -78.5t73 -207.5t-73 -207.5t-191 -78.5t-191.5 78.5t-73.5 207.5zM149 271q0 -104 45.5 -160.5t118.5 -56.5t118.5 56.5t45.5 160.5t-45.5 160.5t-118.5 56.5t-118.5 -56.5t-45.5 -160.5zM209 -53h295v-69h-295v69z" />
<glyph horiz-adv-x="532" d="M87 0v543h184q83 0 142 -44t59 -125q0 -61 -35 -101t-92 -56l158 -217h-112l-141 207h-69v-207h-94zM181 275h90q104 0 104 99q0 100 -104 100h-90v-199z" />
<glyph horiz-adv-x="532" d="M50 160h99q5 -53 39.5 -80t87.5 -27q46 0 80 23.5t34 65.5t-36 63t-97 33q-32 6 -48.5 10t-44 13t-43 19.5t-32 27t-24 39.5t-7.5 52q0 70 56 114t143 44q101 0 157.5 -44t61.5 -124h-99q-4 50 -36 75t-84 25q-45 0 -76 -21t-31 -59q0 -29 20.5 -48.5t44 -27t64.5 -15.5 q36 -7 58 -13t52.5 -19t48 -29t30.5 -43t13 -62q0 -73 -59.5 -120t-145.5 -47q-103 0 -162.5 45t-63.5 130z" />
<glyph horiz-adv-x="453" d="M30 473v70h393v-70h-149v-473h-95v473h-149z" />
<glyph horiz-adv-x="611" d="M85 185v358h95v-343q0 -144 127 -144q68 0 101 36.5t33 92.5v358h85v-343q0 -100 -59.5 -157.5t-159.5 -57.5q-103 0 -162.5 52.5t-59.5 147.5z" />
<glyph horiz-adv-x="533" d="M10 543h105l126 -332l37 -102l35 102l117 332h93l-206 -543h-87z" />
<glyph horiz-adv-x="762" d="M10 543h104l87 -315l26 -101l26 101l93 315h86l98 -315l29 -102l25 102l76 315h92l-153 -543h-85l-99 316l-30 104l-27 -104l-94 -316h-87z" />
<glyph horiz-adv-x="500" d="M19 0l179 271l-177 272h105l120 -192l119 192h95l-168 -254l189 -289h-104l-133 210l-130 -210h-95z" />
<glyph horiz-adv-x="534" d="M39 543h105l134 -265l125 265h92l-177 -338v-205h-94v208z" />
<glyph horiz-adv-x="447" d="M40 0v70l269 403h-262v70h360v-70l-269 -403h269v-70h-367z" />
<glyph horiz-adv-x="791" d="M10 0l382 543h348v-70h-249v-153h233v-70h-233v-180h249v-70h-344v142h-186l-96 -142h-104zM257 211h139v212l-58 -93z" />
<glyph horiz-adv-x="606" d="M3 233v72h84v238h172q139 0 219 -72t80 -200t-80 -199.5t-219 -71.5h-172v233h-84zM181 70h78q198 0 198 201q0 202 -198 202h-78v-168h107v-72h-107v-163z" />
<glyph horiz-adv-x="760" d="M87 0v543h94v-543h-94zM298 176h103q4 -66 27 -93t65 -27q45 0 70 25.5t25 73.5v388h94v-372q0 -89 -54.5 -137.5t-134.5 -48.5q-85 0 -138 45.5t-57 145.5z" />
<glyph horiz-adv-x="621" d="M87 0v543h98l266 -414l-2 99v315h85v-543q0 -93 -50.5 -133t-128.5 -40q-45 0 -70 13v68q33 -10 67 -10q94 0 94 88l-275 427l1 -98v-315h-85z" />
<glyph horiz-adv-x="626" d="M48 271q0 129 73.5 207.5t191.5 78.5q54 0 100 -17l40 72h100l-66 -117q90 -81 90 -224q0 -129 -73 -207.5t-191 -78.5q-55 0 -100 18l-41 -73h-99l65 117q-90 80 -90 224zM149 271q0 -88 34 -144l194 348q-29 13 -64 13q-73 0 -118.5 -56.5t-45.5 -160.5zM249 67 q27 -13 64 -13q73 0 118.5 56.5t45.5 160.5q0 87 -34 144z" />
<glyph horiz-adv-x="795" d="M48 272q0 128 80 199.5t219 71.5h397v-70h-250v-153h234v-70h-234v-180h250v-70h-397q-139 0 -219 72t-80 200zM149 272q0 -202 198 -202h53v403h-53q-198 0 -198 -201z" />
<glyph horiz-adv-x="517" d="M87 0v543h94v-87h94q83 0 142.5 -46t59.5 -130t-59 -130t-143 -46h-94v-104h-94zM181 173h94q104 0 104 107t-104 107h-94v-214z" />
<glyph horiz-adv-x="590" d="M85 0v301q0 120 65 181t175 61h183v-70l-118 -164q44 -9 76 -29.5t47.5 -46.5t22 -49.5t6.5 -45.5q0 -72 -50.5 -112.5t-116.5 -40.5q-67 0 -106.5 34t-40.5 92h84q6 -60 67 -60q31 0 50 22t19 64q0 47 -34.5 77.5t-96.5 30.5h-22v71l114 157h-86q-143 0 -143 -162v-311 h-95z" />
<glyph horiz-adv-x="533" d="M10 0l206 543h87l220 -543h-104l-54 142h-212l-49 -142h-94zM176 583l106 109h118l-140 -109h-84zM177 211h162l-49 128l-35 98l-33 -98z" />
<glyph horiz-adv-x="533" d="M10 0l206 543h87l220 -543h-104l-54 142h-212l-49 -142h-94zM130 692h67q0 -46 60 -46q58 0 58 46h67q0 -55 -35 -85.5t-90 -30.5q-57 0 -92 30.5t-35 85.5zM177 211h162l-49 128l-35 98l-33 -98z" />
<glyph horiz-adv-x="533" d="M10 0l206 543h87l220 -543h-104l-54 142h-212l-49 -142h-94zM96 583l124 109h73l123 -109h-85l-75 44l-75 -44h-85zM177 211h162l-49 128l-35 98l-33 -98z" />
<glyph horiz-adv-x="533" d="M10 0l206 543h87l220 -543h-104l-54 142h-212l-49 -142h-94zM116 641q0 22 16 37t38 15t38.5 -15t16.5 -37t-16.5 -36.5t-38.5 -14.5t-38 14.5t-16 36.5zM177 211h162l-49 128l-35 98l-33 -98zM288 641q0 22 16 37t38 15t38.5 -15t16.5 -37t-16.5 -36.5t-38.5 -14.5 t-38 14.5t-16 36.5z" />
<glyph horiz-adv-x="533" d="M10 0l206 543h87l220 -543h-104l-54 142h-212l-49 -142h-94zM116 692h119l105 -109h-84zM177 211h162l-49 128l-35 98l-33 -98z" />
<glyph horiz-adv-x="533" d="M10 0l206 543h87l220 -543h-104l-54 142h-212l-49 -142h-94zM129 603v65h254v-65h-254zM177 211h162l-49 128l-35 98l-33 -98z" />
<glyph horiz-adv-x="533" d="M10 0l206 543h87l220 -543h-1q-122 -62 -122 -136q0 -23 14.5 -36.5t35.5 -13.5q33 0 72 22v-60q-42 -24 -95 -24q-48 0 -77 28t-29 71q0 86 112 149h-14l-54 142h-212l-49 -142h-94zM177 211h162l-49 128l-35 98l-33 -98z" />
<glyph horiz-adv-x="533" d="M10 0l206 543h87l220 -543h-104l-54 142h-212l-49 -142h-94zM169 638q0 34 25.5 54.5t64.5 20.5q40 0 65.5 -20t25.5 -55q0 -34 -25.5 -54t-65.5 -20q-39 0 -64.5 20t-25.5 54zM177 211h162l-49 128l-35 98l-33 -98zM226 638q0 -33 33 -33q34 0 34 33t-34 33 q-33 0 -33 -33z" />
<glyph horiz-adv-x="533" d="M10 0l206 543h87l220 -543h-104l-54 142h-212l-49 -142h-94zM107 619q30 72 89 72q23 0 65 -16t54 -16q22 0 38 29l51 -25q-29 -72 -88 -72q-24 0 -66 15.5t-54 15.5q-23 0 -39 -28zM177 211h162l-49 128l-35 98l-33 -98z" />
<glyph horiz-adv-x="572" d="M48 271q0 131 65.5 208.5t181.5 77.5q92 0 155 -49t75 -141h-102q-18 121 -128 121q-69 0 -107.5 -55.5t-38.5 -161.5t38.5 -161.5t107.5 -55.5q110 0 128 121h102q-12 -92 -75 -141t-155 -49q-116 0 -181.5 77.5t-65.5 208.5zM196 583l106 109h118l-140 -109h-84z" />
<glyph horiz-adv-x="572" d="M48 271q0 131 65.5 208.5t181.5 77.5q92 0 155 -49t75 -141h-102q-18 121 -128 121q-69 0 -107.5 -55.5t-38.5 -161.5t38.5 -161.5t107.5 -55.5q110 0 128 121h102q-12 -92 -75 -141t-155 -49q-116 0 -181.5 77.5t-65.5 208.5zM126 692h85l75 -44l75 44h85l-123 -109h-73 z" />
<glyph horiz-adv-x="572" d="M48 271q0 131 65.5 208.5t181.5 77.5q92 0 155 -49t75 -141h-102q-18 121 -128 121q-69 0 -107.5 -55.5t-38.5 -161.5t38.5 -161.5t107.5 -55.5q110 0 128 121h102q-11 -86 -66 -134t-138 -55l-39 -52q46 3 78.5 -18t32.5 -65q0 -46 -36 -72.5t-86 -26.5q-42 0 -71 14v54 q26 -13 65 -13q21 0 38 11t17 30t-17 29.5t-38 10.5q-26 0 -43 -6l-19 34l54 71q-99 13 -154 89t-55 195z" />
<glyph horiz-adv-x="572" d="M48 271q0 131 65.5 208.5t181.5 77.5q92 0 155 -49t75 -141h-102q-18 121 -128 121q-69 0 -107.5 -55.5t-38.5 -161.5t38.5 -161.5t107.5 -55.5q110 0 128 121h102q-12 -92 -75 -141t-155 -49q-116 0 -181.5 77.5t-65.5 208.5zM126 583l124 109h73l123 -109h-85l-75 44 l-75 -44h-85z" />
<glyph horiz-adv-x="572" d="M48 271q0 131 65.5 208.5t181.5 77.5q92 0 155 -49t75 -141h-102q-18 121 -128 121q-69 0 -107.5 -55.5t-38.5 -161.5t38.5 -161.5t107.5 -55.5q110 0 128 121h102q-12 -92 -75 -141t-155 -49q-116 0 -181.5 77.5t-65.5 208.5zM231 641q0 22 16.5 37t38.5 15t38.5 -15 t16.5 -37t-16.5 -37t-38.5 -15t-38.5 15t-16.5 37z" />
<glyph horiz-adv-x="606" d="M87 0v543h172q139 0 219 -72t80 -200t-80 -199.5t-219 -71.5h-172zM112 692h85l75 -44l75 44h85l-123 -109h-73zM181 70h78q198 0 198 201q0 202 -198 202h-78v-403z" />
<glyph horiz-adv-x="606" d="M3 233v72h84v238h172q139 0 219 -72t80 -200t-80 -199.5t-219 -71.5h-172v233h-84zM181 70h78q198 0 198 201q0 202 -198 202h-78v-168h107v-72h-107v-163z" />
<glyph horiz-adv-x="482" d="M87 0v543h344v-70h-250v-153h234v-70h-234v-180h250v-70h-344zM150 583l106 109h118l-140 -109h-84z" />
<glyph horiz-adv-x="482" d="M87 0v543h344v-70h-250v-153h234v-70h-234v-180h250v-70h-344zM128 692h67q0 -46 60 -46q58 0 58 46h67q0 -55 -35 -85.5t-90 -30.5q-57 0 -92 30.5t-35 85.5z" />
<glyph horiz-adv-x="482" d="M87 0v543h344v-70h-250v-153h234v-70h-234v-180h250v-70h-344zM94 692h85l75 -44l75 44h85l-123 -109h-73z" />
<glyph horiz-adv-x="482" d="M87 0v543h344v-70h-250v-153h234v-70h-234v-180h250v-70h-344zM94 583l124 109h73l123 -109h-85l-75 44l-75 -44h-85z" />
<glyph horiz-adv-x="482" d="M87 0v543h344v-70h-250v-153h234v-70h-234v-180h250v-70h-344zM114 641q0 22 16 37t38 15t38.5 -15t16.5 -37t-16.5 -36.5t-38.5 -14.5t-38 14.5t-16 36.5zM286 641q0 22 16 37t38 15t38.5 -15t16.5 -37t-16.5 -36.5t-38.5 -14.5t-38 14.5t-16 36.5z" />
<glyph horiz-adv-x="482" d="M87 0v543h344v-70h-250v-153h234v-70h-234v-180h250v-70h-344zM198 641q0 22 16.5 37t38.5 15t38.5 -15t16.5 -37t-16.5 -37t-38.5 -15t-38.5 15t-16.5 37z" />
<glyph horiz-adv-x="482" d="M87 0v543h344v-70h-250v-153h234v-70h-234v-180h250v-70h-344zM117 692h119l105 -109h-84z" />
<glyph horiz-adv-x="482" d="M87 0v543h344v-70h-250v-153h234v-70h-234v-180h250v-70h-344zM126 603v65h254v-65h-254z" />
<glyph horiz-adv-x="482" d="M87 0v543h344v-70h-250v-153h234v-70h-234v-180h250v-70h-1q-122 -62 -122 -136q0 -23 14.5 -36.5t35.5 -13.5q33 0 72 22v-60q-42 -24 -95 -24q-48 0 -77 28t-29 71q0 86 112 149h-254z" />
<glyph horiz-adv-x="584" d="M48 271q0 131 65.5 208.5t181.5 77.5q91 0 154 -46.5t75 -132.5h-102q-19 110 -127 110q-69 0 -107.5 -55.5t-38.5 -161.5q0 -107 36 -162t104 -55q76 0 138 62v89h-131v68h223v-273h-92v51q-28 -28 -70.5 -47t-85.5 -19q-107 0 -165 77t-58 209zM161 692h67 q0 -46 60 -46q58 0 58 46h67q0 -55 -35 -85.5t-90 -30.5q-57 0 -92 30.5t-35 85.5z" />
<glyph horiz-adv-x="584" d="M48 271q0 131 65.5 208.5t181.5 77.5q91 0 154 -46.5t75 -132.5h-102q-19 110 -127 110q-69 0 -107.5 -55.5t-38.5 -161.5q0 -107 36 -162t104 -55q76 0 138 62v89h-131v68h223v-273h-92v51q-28 -28 -70.5 -47t-85.5 -19q-107 0 -165 77t-58 209zM127 583l124 109h73 l123 -109h-85l-75 44l-75 -44h-85z" />
<glyph horiz-adv-x="584" d="M48 271q0 131 65.5 208.5t181.5 77.5q91 0 154 -46.5t75 -132.5h-102q-19 110 -127 110q-69 0 -107.5 -55.5t-38.5 -161.5q0 -107 36 -162t104 -55q76 0 138 62v89h-131v68h223v-273h-92v51q-28 -28 -70.5 -47t-85.5 -19q-107 0 -165 77t-58 209zM232 -248l20 183h91 l-42 -183h-69z" />
<glyph horiz-adv-x="584" d="M48 271q0 131 65.5 208.5t181.5 77.5q91 0 154 -46.5t75 -132.5h-102q-19 110 -127 110q-69 0 -107.5 -55.5t-38.5 -161.5q0 -107 36 -162t104 -55q76 0 138 62v89h-131v68h223v-273h-92v51q-28 -28 -70.5 -47t-85.5 -19q-107 0 -165 77t-58 209zM232 641q0 22 16.5 37 t38.5 15t38.5 -15t16.5 -37t-16.5 -37t-38.5 -15t-38.5 15t-16.5 37z" />
<glyph horiz-adv-x="631" d="M30 393v70h57v80h94v-80h269v80h94v-80h57v-70h-57v-393h-94v244h-269v-244h-94v393h-57zM181 314h269v79h-269v-79z" />
<glyph horiz-adv-x="631" d="M87 0v543h94v-223h269v223h94v-543h-94v250h-269v-250h-94zM155 583l124 109h73l123 -109h-85l-75 44l-75 -44h-85z" />
<glyph horiz-adv-x="268" d="M55 583l106 109h118l-140 -109h-84zM87 0v543h94v-543h-94z" />
<glyph horiz-adv-x="268" d="M9 692h67q0 -46 60 -46q58 0 58 46h67q0 -55 -35 -85.5t-90 -30.5q-57 0 -92 30.5t-35 85.5zM87 0v543h94v-543h-94z" />
<glyph horiz-adv-x="268" d="M-25 583l124 109h73l123 -109h-85l-75 44l-75 -44h-85zM87 0v543h94v-543h-94z" />
<glyph horiz-adv-x="268" d="M4 641q0 22 16 37t38 15t38.5 -15t16.5 -37t-16.5 -36.5t-38.5 -14.5t-38 14.5t-16 36.5zM87 0v543h94v-543h-94zM157 641q0 22 16 37t38 15t38.5 -15t16.5 -37t-16.5 -36.5t-38.5 -14.5t-38 14.5t-16 36.5z" />
<glyph horiz-adv-x="268" d="M-11 692h119l105 -109h-84zM87 0v543h94v-543h-94z" />
<glyph horiz-adv-x="268" d="M9 603v65h254v-65h-254zM87 0v543h94v-543h-94z" />
<glyph horiz-adv-x="268" d="M-19 -149q0 86 112 149h-6v543h94v-543h1q-122 -62 -122 -136q0 -23 14.5 -36.5t35.5 -13.5q33 0 72 22v-60q-42 -24 -95 -24q-48 0 -77 28t-29 71z" />
<glyph horiz-adv-x="268" d="M-13 619q30 72 89 72q23 0 65 -16t54 -16q22 0 38 29l51 -25q-29 -72 -88 -72q-24 0 -66.5 15.5t-53.5 15.5q-23 0 -39 -28zM87 0v543h94v-543h-94z" />
<glyph horiz-adv-x="491" d="M30 176h103q4 -66 27 -93t65 -27q45 0 70 25.5t25 73.5v388h94v-372q0 -89 -54.5 -137.5t-134.5 -48.5q-85 0 -138 45.5t-57 145.5zM206 583l124 109h73l123 -109h-85l-75 44l-75 -44h-85z" />
<glyph horiz-adv-x="544" d="M87 0v543h94v-257l204 257h101l-207 -251l238 -292h-118l-218 280v-280h-94zM198 -248l20 183h91l-42 -183h-69z" />
<glyph horiz-adv-x="471" d="M81 583l106 109h118l-140 -109h-84zM97 0v543h95v-473h222v-70h-317z" />
<glyph horiz-adv-x="471" d="M97 0v543h95v-473h222v-70h-317zM250 379v223h88l-21 -223h-67z" />
<glyph horiz-adv-x="471" d="M97 0v543h95v-473h222v-70h-317zM189 -248l20 183h91l-42 -183h-69z" />
<glyph horiz-adv-x="471" d="M97 0v543h95v-473h222v-70h-317zM257 266q0 22 16.5 37t38.5 15t38.5 -15t16.5 -37t-16.5 -37t-38.5 -15t-38.5 15t-16.5 37z" />
<glyph horiz-adv-x="471" d="M35 167v81l62 36v259h95v-205l104 60v-80l-104 -60v-188h222v-70h-317v203z" />
<glyph horiz-adv-x="621" d="M87 0v543h98l266 -414l-2 99v315h85v-543h-97l-266 413l1 -98v-315h-85zM227 583l106 109h118l-140 -109h-84z" />
<glyph horiz-adv-x="621" d="M87 0v543h98l266 -414l-2 99v315h85v-543h-97l-266 413l1 -98v-315h-85zM149 692h85l75 -44l75 44h85l-123 -109h-73z" />
<glyph horiz-adv-x="621" d="M87 0v543h98l266 -414l-2 99v315h85v-543h-97l-266 413l1 -98v-315h-85zM257 -248l20 183h91l-42 -183h-69z" />
<glyph horiz-adv-x="621" d="M87 0v543h98l266 -414l-2 99v315h85v-543h-97l-266 413l1 -98v-315h-85zM160 619q30 72 89 72q23 0 65 -16t54 -16q22 0 38 29l51 -25q-29 -72 -88 -72q-23 0 -66 15.5t-54 15.5q-23 0 -39 -28z" />
<glyph horiz-adv-x="626" d="M48 271q0 129 73.5 207.5t191.5 78.5t191 -78.5t73 -207.5t-73 -207.5t-191 -78.5t-191.5 78.5t-73.5 207.5zM149 271q0 -104 45.5 -160.5t118.5 -56.5t118.5 56.5t45.5 160.5t-45.5 160.5t-118.5 56.5t-118.5 -56.5t-45.5 -160.5zM230 583l106 109h118l-140 -109h-84z " />
<glyph horiz-adv-x="626" d="M48 271q0 129 73.5 207.5t191.5 78.5t191 -78.5t73 -207.5t-73 -207.5t-191 -78.5t-191.5 78.5t-73.5 207.5zM149 271q0 -104 45.5 -160.5t118.5 -56.5t118.5 56.5t45.5 160.5t-45.5 160.5t-118.5 56.5t-118.5 -56.5t-45.5 -160.5zM187 692h67q0 -46 60 -46q58 0 58 46 h67q0 -55 -35 -85.5t-90 -30.5q-57 0 -92 30.5t-35 85.5z" />
<glyph horiz-adv-x="626" d="M48 271q0 129 73.5 207.5t191.5 78.5t191 -78.5t73 -207.5t-73 -207.5t-191 -78.5t-191.5 78.5t-73.5 207.5zM149 271q0 -104 45.5 -160.5t118.5 -56.5t118.5 56.5t45.5 160.5t-45.5 160.5t-118.5 56.5t-118.5 -56.5t-45.5 -160.5zM153 583l124 109h73l123 -109h-85 l-75 44l-75 -44h-85z" />
<glyph horiz-adv-x="626" d="M48 271q0 129 73.5 207.5t191.5 78.5t191 -78.5t73 -207.5t-73 -207.5t-191 -78.5t-191.5 78.5t-73.5 207.5zM149 271q0 -104 45.5 -160.5t118.5 -56.5t118.5 56.5t45.5 160.5t-45.5 160.5t-118.5 56.5t-118.5 -56.5t-45.5 -160.5zM173 641q0 22 16 37t38 15t38.5 -15 t16.5 -37t-16.5 -36.5t-38.5 -14.5t-38 14.5t-16 36.5zM345 641q0 22 16 37t38 15t38.5 -15t16.5 -37t-16.5 -36.5t-38.5 -14.5t-38 14.5t-16 36.5z" />
<glyph horiz-adv-x="626" d="M48 271q0 129 73.5 207.5t191.5 78.5t191 -78.5t73 -207.5t-73 -207.5t-191 -78.5t-191.5 78.5t-73.5 207.5zM149 271q0 -104 45.5 -160.5t118.5 -56.5t118.5 56.5t45.5 160.5t-45.5 160.5t-118.5 56.5t-118.5 -56.5t-45.5 -160.5zM173 692h119l105 -109h-84z" />
<glyph horiz-adv-x="626" d="M48 271q0 129 73.5 207.5t191.5 78.5t191 -78.5t73 -207.5t-73 -207.5t-191 -78.5t-191.5 78.5t-73.5 207.5zM149 271q0 -104 45.5 -160.5t118.5 -56.5t118.5 56.5t45.5 160.5t-45.5 160.5t-118.5 56.5t-118.5 -56.5t-45.5 -160.5zM162 583l89 109h112l-122 -109h-79z M323 583l87 109h113l-121 -109h-79z" />
<glyph horiz-adv-x="626" d="M48 271q0 129 73.5 207.5t191.5 78.5t191 -78.5t73 -207.5t-73 -207.5t-191 -78.5t-191.5 78.5t-73.5 207.5zM149 271q0 -104 45.5 -160.5t118.5 -56.5t118.5 56.5t45.5 160.5t-45.5 160.5t-118.5 56.5t-118.5 -56.5t-45.5 -160.5zM185 603v65h254v-65h-254z" />
<glyph horiz-adv-x="626" d="M48 271q0 129 73.5 207.5t191.5 78.5t191 -78.5t73 -207.5t-73 -207.5t-191 -78.5t-191.5 78.5t-73.5 207.5zM149 271q0 -104 45.5 -160.5t118.5 -56.5t118.5 56.5t45.5 160.5t-45.5 160.5t-118.5 56.5t-118.5 -56.5t-45.5 -160.5zM164 619q30 72 89 72q23 0 65 -16 t54 -16q22 0 38 29l51 -25q-29 -72 -88 -72q-23 0 -66 15.5t-54 15.5q-23 0 -39 -28z" />
<glyph horiz-adv-x="532" d="M87 0v543h184q83 0 142 -44t59 -125q0 -61 -35 -101t-92 -56l158 -217h-112l-141 207h-69v-207h-94zM155 583l106 109h118l-140 -109h-84zM181 275h90q104 0 104 99q0 100 -104 100h-90v-199z" />
<glyph horiz-adv-x="532" d="M87 0v543h184q83 0 142 -44t59 -125q0 -61 -35 -101t-92 -56l158 -217h-112l-141 207h-69v-207h-94zM91 692h85l75 -44l75 44h85l-123 -109h-73zM181 275h90q104 0 104 99q0 100 -104 100h-90v-199z" />
<glyph horiz-adv-x="532" d="M87 0v543h184q83 0 142 -44t59 -125q0 -61 -35 -101t-92 -56l158 -217h-112l-141 207h-69v-207h-94zM181 275h90q104 0 104 99q0 100 -104 100h-90v-199zM201 -248l20 183h91l-42 -183h-69z" />
<glyph horiz-adv-x="532" d="M50 160h99q5 -53 39.5 -80t87.5 -27q46 0 80 23.5t34 65.5t-36 63t-97 33q-32 6 -48.5 10t-44 13t-43 19.5t-32 27t-24 39.5t-7.5 52q0 70 56 114t143 44q101 0 157.5 -44t61.5 -124h-99q-4 50 -36 75t-84 25q-45 0 -76 -21t-31 -59q0 -29 20.5 -48.5t44 -27t64.5 -15.5 q36 -7 58 -13t52.5 -19t48 -29t30.5 -43t13 -62q0 -73 -59.5 -120t-145.5 -47q-103 0 -162.5 45t-63.5 130zM173 583l106 109h118l-140 -109h-84z" />
<glyph horiz-adv-x="532" d="M50 160h99q5 -53 39.5 -80t87.5 -27q46 0 80 23.5t34 65.5t-36 63t-97 33q-32 6 -48.5 10t-44 13t-43 19.5t-32 27t-24 39.5t-7.5 52q0 70 56 114t143 44q101 0 157.5 -44t61.5 -124h-99q-4 50 -36 75t-84 25q-45 0 -76 -21t-31 -59q0 -29 20.5 -48.5t44 -27t64.5 -15.5 q36 -7 58 -13t52.5 -19t48 -29t30.5 -43t13 -62q0 -73 -59.5 -120t-145.5 -47q-103 0 -162.5 45t-63.5 130zM100 692h85l75 -44l75 44h85l-123 -109h-73z" />
<glyph horiz-adv-x="532" d="M50 160h99q5 -53 39.5 -80t87.5 -27q46 0 80 23.5t34 65.5t-36 63t-97 33q-32 6 -48.5 10t-44 13t-43 19.5t-32 27t-24 39.5t-7.5 52q0 70 56 114t143 44q101 0 157.5 -44t61.5 -124h-99q-4 50 -36 75t-84 25q-45 0 -76 -21t-31 -59q0 -29 20.5 -48.5t44 -27t64.5 -15.5 q36 -7 58 -13t52.5 -19t48 -29t30.5 -43t13 -62q0 -73 -59.5 -120t-145.5 -47q-103 0 -162.5 45t-63.5 130zM201 -248l20 183h91l-42 -183h-69z" />
<glyph horiz-adv-x="532" d="M50 160h99q5 -53 39.5 -80t87.5 -27q46 0 80 23.5t34 65.5t-36 63t-97 33q-32 6 -48.5 10t-44 13t-43 19.5t-32 27t-24 39.5t-7.5 52q0 70 56 114t143 44q101 0 157.5 -44t61.5 -124h-99q-4 50 -36 75t-84 25q-45 0 -76 -21t-31 -59q0 -29 20.5 -48.5t44 -27t64.5 -15.5 q36 -7 58 -13t52.5 -19t48 -29t30.5 -43t13 -62q0 -73 -59.5 -120t-145.5 -47q-103 0 -162.5 45t-63.5 130zM99 583l124 109h73l123 -109h-85l-75 44l-75 -44h-85z" />
<glyph horiz-adv-x="532" d="M50 160h99q5 -53 39.5 -80t87.5 -27q46 0 80 23.5t34 65.5t-36 63t-97 33q-32 6 -48.5 10t-44 13t-43 19.5t-32 27t-24 39.5t-7.5 52q0 70 56 114t143 44q101 0 157.5 -44t61.5 -124h-99q-4 50 -36 75t-84 25q-45 0 -76 -21t-31 -59q0 -29 20.5 -48.5t44 -27t64.5 -15.5 q36 -7 58 -13t52.5 -19t48 -29t30.5 -43t13 -62q0 -69 -55 -115.5t-135 -51.5l-38 -51q46 3 78.5 -18t32.5 -65q0 -46 -36 -72.5t-86 -26.5q-42 0 -71 14v54q26 -13 65 -13q21 0 38 11t17 30t-17 29.5t-38 10.5q-26 0 -43 -6l-19 34l54 72q-82 10 -128.5 54t-49.5 118z" />
<glyph horiz-adv-x="453" d="M30 473v70h393v-70h-149v-168h104v-72h-104v-233h-95v233h-104v72h104v168h-149z" />
<glyph horiz-adv-x="453" d="M30 473v70h393v-70h-149v-473h-95v473h-149zM66 692h85l75 -44l75 44h85l-123 -109h-73z" />
<glyph horiz-adv-x="453" d="M30 473v70h393v-70h-149v-473h-7l-49 -66q46 3 78.5 -18t32.5 -65q0 -46 -36 -72.5t-86 -26.5q-42 0 -71 14v54q26 -13 65 -13q21 0 38 11t17 30t-17 29.5t-38 10.5q-26 0 -43 -6l-19 34l63 84h-23v473h-149z" />
<glyph horiz-adv-x="453" d="M30 473v70h393v-70h-149v-473h-95v473h-149zM161 -248l20 183h91l-42 -183h-69z" />
<glyph horiz-adv-x="611" d="M85 185v358h95v-343q0 -144 127 -144q68 0 101 36.5t33 92.5v358h85v-343q0 -100 -59.5 -157.5t-159.5 -57.5q-103 0 -162.5 52.5t-59.5 147.5zM215 583l106 109h118l-140 -109h-84z" />
<glyph horiz-adv-x="611" d="M85 185v358h95v-343q0 -144 127 -144q68 0 101 36.5t33 92.5v358h85v-343q0 -100 -59.5 -157.5t-159.5 -57.5q-103 0 -162.5 52.5t-59.5 147.5zM179 692h67q0 -46 60 -46q58 0 58 46h67q0 -55 -35 -85.5t-90 -30.5q-57 0 -92 30.5t-35 85.5z" />
<glyph horiz-adv-x="611" d="M85 185v358h95v-343q0 -144 127 -144q68 0 101 36.5t33 92.5v358h85v-343q0 -100 -59.5 -157.5t-159.5 -57.5q-103 0 -162.5 52.5t-59.5 147.5zM145 583l124 109h73l123 -109h-85l-75 44l-75 -44h-85z" />
<glyph horiz-adv-x="611" d="M85 185v358h95v-343q0 -144 127 -144q68 0 101 36.5t33 92.5v358h85v-343q0 -100 -59.5 -157.5t-159.5 -57.5q-103 0 -162.5 52.5t-59.5 147.5zM165 641q0 22 16 37t38 15t38.5 -15t16.5 -37t-16.5 -36.5t-38.5 -14.5t-38 14.5t-16 36.5zM337 641q0 22 16 37t38 15 t38.5 -15t16.5 -37t-16.5 -36.5t-38.5 -14.5t-38 14.5t-16 36.5z" />
<glyph horiz-adv-x="611" d="M85 185v358h95v-343q0 -144 127 -144q68 0 101 36.5t33 92.5v358h85v-343q0 -100 -59.5 -157.5t-159.5 -57.5q-103 0 -162.5 52.5t-59.5 147.5zM172 692h119l105 -109h-84z" />
<glyph horiz-adv-x="611" d="M85 185v358h95v-343q0 -144 127 -144q68 0 101 36.5t33 92.5v358h85v-343q0 -100 -59.5 -157.5t-159.5 -57.5q-103 0 -162.5 52.5t-59.5 147.5zM155 583l89 109h112l-122 -109h-79zM316 583l87 109h113l-121 -109h-79z" />
<glyph horiz-adv-x="611" d="M85 185v358h95v-343q0 -144 127 -144q68 0 101 36.5t33 92.5v358h85v-343q0 -100 -59.5 -157.5t-159.5 -57.5q-103 0 -162.5 52.5t-59.5 147.5zM178 603v65h254v-65h-254z" />
<glyph horiz-adv-x="611" d="M85 185v358h95v-343q0 -144 127 -144q68 0 101 36.5t33 92.5v358h85v-343q0 -80 -39.5 -134t-108.5 -72q-110 -59 -110 -130q0 -23 14.5 -36.5t35.5 -13.5q33 0 72 22v-60q-42 -24 -95 -24q-48 0 -77 28t-29 71q0 77 89 135q-90 8 -141.5 59.5t-51.5 139.5z" />
<glyph horiz-adv-x="611" d="M85 185v358h95v-343q0 -144 127 -144q68 0 101 36.5t33 92.5v358h85v-343q0 -100 -59.5 -157.5t-159.5 -57.5q-103 0 -162.5 52.5t-59.5 147.5zM214 638q0 34 25.5 54.5t64.5 20.5q40 0 65.5 -20t25.5 -55q0 -34 -25.5 -54t-65.5 -20q-39 0 -64.5 20t-25.5 54zM271 638 q0 -33 33 -33q34 0 34 33t-34 33q-33 0 -33 -33z" />
<glyph horiz-adv-x="611" d="M85 185v358h95v-343q0 -144 127 -144q68 0 101 36.5t33 92.5v358h85v-343q0 -100 -59.5 -157.5t-159.5 -57.5q-103 0 -162.5 52.5t-59.5 147.5zM156 619q30 72 89 72q23 0 65 -16t54 -16q22 0 38 29l51 -25q-29 -72 -88 -72q-23 0 -66 15.5t-54 15.5q-23 0 -39 -28z" />
<glyph horiz-adv-x="762" d="M10 543h104l87 -315l26 -101l26 101l93 315h86l98 -315l29 -102l25 102l76 315h92l-153 -543h-85l-99 316l-30 104l-27 -104l-94 -316h-87zM308 583l106 109h118l-140 -109h-84z" />
<glyph horiz-adv-x="762" d="M10 543h104l87 -315l26 -101l26 101l93 315h86l98 -315l29 -102l25 102l76 315h92l-153 -543h-85l-99 316l-30 104l-27 -104l-94 -316h-87zM230 583l124 109h73l123 -109h-85l-75 44l-75 -44h-85z" />
<glyph horiz-adv-x="762" d="M10 543h104l87 -315l26 -101l26 101l93 315h86l98 -315l29 -102l25 102l76 315h92l-153 -543h-85l-99 316l-30 104l-27 -104l-94 -316h-87zM249 641q0 22 16 37t38 15t38.5 -15t16.5 -37t-16.5 -36.5t-38.5 -14.5t-38 14.5t-16 36.5zM421 641q0 22 16 37t38 15t38.5 -15 t16.5 -37t-16.5 -36.5t-38.5 -14.5t-38 14.5t-16 36.5z" />
<glyph horiz-adv-x="762" d="M10 543h104l87 -315l26 -101l26 101l93 315h86l98 -315l29 -102l25 102l76 315h92l-153 -543h-85l-99 316l-30 104l-27 -104l-94 -316h-87zM239 692h119l105 -109h-84z" />
<glyph horiz-adv-x="534" d="M39 543h105l134 -265l125 265h92l-177 -338v-205h-94v208zM187 583l106 109h118l-140 -109h-84z" />
<glyph horiz-adv-x="534" d="M39 543h105l134 -265l125 265h92l-177 -338v-205h-94v208zM112 583l124 109h73l123 -109h-85l-75 44l-75 -44h-85z" />
<glyph horiz-adv-x="534" d="M39 543h105l134 -265l125 265h92l-177 -338v-205h-94v208zM132 641q0 22 16 37t38 15t38.5 -15t16.5 -37t-16.5 -36.5t-38.5 -14.5t-38 14.5t-16 36.5zM304 641q0 22 16 37t38 15t38.5 -15t16.5 -37t-16.5 -36.5t-38.5 -14.5t-38 14.5t-16 36.5z" />
<glyph horiz-adv-x="534" d="M39 543h105l134 -265l125 265h92l-177 -338v-205h-94v208zM124 692h119l105 -109h-84z" />
<glyph horiz-adv-x="447" d="M40 0v70l269 403h-262v70h360v-70l-269 -403h269v-70h-367zM133 583l106 109h118l-140 -109h-84z" />
<glyph horiz-adv-x="447" d="M40 0v70l269 403h-262v70h360v-70l-269 -403h269v-70h-367zM68 692h85l75 -44l75 44h85l-123 -109h-73z" />
<glyph horiz-adv-x="447" d="M40 0v70l269 403h-262v70h360v-70l-269 -403h269v-70h-367zM168 641q0 22 16.5 37t38.5 15t38.5 -15t16.5 -37t-16.5 -37t-38.5 -15t-38.5 15t-16.5 37z" />
<glyph horiz-adv-x="791" d="M10 0l382 543h348v-70h-249v-153h233v-70h-233v-180h249v-70h-344v142h-186l-96 -142h-104zM257 211h139v212l-58 -93zM402 583l106 109h118l-140 -109h-84z" />
<glyph horiz-adv-x="605" d="M20 450v67h88v91q0 75 41.5 113t119.5 38q48 0 80 -16v-65q-44 11 -64 11q-82 0 -82 -81v-91h325v-589q0 -75 -43.5 -113t-122.5 -38q-40 0 -75 16v65q39 -11 69 -11q35 0 56 20t21 61v522h-230v-450h-95v450h-88zM418 661q0 25 18 43.5t44 18.5t44.5 -18t18.5 -44 t-18.5 -44t-44.5 -18t-44 18.5t-18 43.5z" />
<glyph horiz-adv-x="665" d="M20 450v67h88v91q0 75 41.5 113t119.5 38q49 0 81 -16v-65q-42 11 -65 11q-82 0 -82 -81v-91h230v143h95v-143h117v-67h-117v-450h-95v450h-230v-450h-95v450h-88z" />
<glyph horiz-adv-x="929" d="M20 450v67h88v91q0 75 41.5 113t119.5 38q49 0 81 -16v-65q-42 11 -65 11q-82 0 -82 -81v-91h230v91q0 75 41.5 113t118.5 38q48 0 80 -16v-65q-42 11 -63 11q-82 0 -82 -81v-91h324v-589q0 -75 -43.5 -113t-122.5 -38q-40 0 -74 16v65q37 -11 69 -11q35 0 55.5 20 t20.5 61v522h-229v-450h-95v450h-230v-450h-95v450h-88zM742 661q0 26 18.5 44t44.5 18t44.5 -18.5t18.5 -43.5t-18.5 -43.5t-44.5 -18.5t-44.5 18t-18.5 44z" />
<glyph horiz-adv-x="989" d="M20 450v67h88v91q0 75 41.5 113t119.5 38q49 0 81 -16v-65q-42 11 -65 11q-82 0 -82 -81v-91h230v91q0 75 41.5 113t118.5 38q50 0 82 -16v-65q-44 11 -65 11q-82 0 -82 -81v-91h229v143h95v-143h117v-67h-117v-450h-95v450h-229v-450h-95v450h-230v-450h-95v450h-88z " />
<glyph horiz-adv-x="710" d="M20 450v67h117v143h95v-143h246v143h95v-143h117v-67h-117v-450h-95v450h-246v-450h-95v450h-117z" />
<glyph horiz-adv-x="335" d="M27 515q0 95 150 95q11 0 49 -2v29q0 27 -16 40.5t-39 13.5q-57 0 -60 -54h-75q0 51 37 79t98 28q51 0 89 -23.5t38 -77.5v-203h-72v30q-46 -39 -103 -39q-47 0 -71.5 23.5t-24.5 60.5zM101 522q0 -37 49 -37q42 0 76 31v47q-27 3 -46 3q-79 0 -79 -44z" />
<glyph horiz-adv-x="341" d="M37 440v424h73v-160q43 40 88 40q52 0 88 -40t36 -116t-39.5 -116.5t-95.5 -40.5q-47 0 -77 35v-26h-73zM110 520q29 -31 68 -31q69 0 69 99q0 98 -68 98q-38 0 -69 -33v-133z" />
<glyph horiz-adv-x="320" d="M18 588q0 70 40.5 113t107.5 43q58 0 94 -28t41 -76h-76q-12 51 -59 51q-71 0 -71 -103q0 -104 71 -104q46 0 59 50h76q-5 -48 -41 -75.5t-94 -27.5q-71 0 -109.5 43t-38.5 114z" />
<glyph horiz-adv-x="341" d="M18 588q0 76 40 116t97 40q45 0 76 -35v155h73v-424h-73v31q-42 -40 -88 -40q-52 0 -88.5 40.5t-36.5 116.5zM94 588q0 -99 68 -99q38 0 69 33v133q-29 31 -68 31q-69 0 -69 -98z" />
<glyph horiz-adv-x="321" d="M18 588q0 69 40.5 112.5t103.5 43.5q69 0 106.5 -43t33.5 -126h-207q4 -91 70 -91q26 0 37 9t18 29h76q-5 -40 -40.5 -65.5t-90.5 -25.5q-69 0 -108 43t-39 114zM98 625h126q0 67 -62 67q-54 0 -64 -67z" />
<glyph horiz-adv-x="226" d="M9 681v54h53v37q0 101 104 101q30 0 50 -9v-53q-26 6 -39 6q-42 0 -42 -45v-37h81v-54h-81v-241h-73v241h-53z" />
<glyph horiz-adv-x="341" d="M18 588q0 76 40 116t97 40q45 0 76 -35v26h73v-291q0 -64 -41 -97.5t-100 -33.5q-65 0 -101 25.5t-38 70.5h76q3 -43 63 -43q68 0 68 71v36q-43 -41 -88 -41q-52 0 -88.5 40t-36.5 116zM94 588q0 -98 68 -98q36 0 69 33v132q-29 31 -68 31q-69 0 -69 -98z" />
<glyph horiz-adv-x="354" d="M37 440v424h73v-164q46 44 101 44q44 0 75 -24t31 -73v-207h-73v181q0 33 -13.5 48.5t-44.5 15.5q-41 0 -76 -35v-210h-73z" />
<glyph horiz-adv-x="147" d="M35 825q0 19 13 31.5t32 12.5t32.5 -12.5t13.5 -31.5t-13.5 -31.5t-32.5 -12.5t-32 12.5t-13 31.5zM44 440v295h72v-295h-72z" />
<glyph horiz-adv-x="147" d="M35 825q0 19 13 31.5t32 12.5t32.5 -12.5t13.5 -31.5t-13.5 -31.5t-32.5 -12.5t-32 12.5t-13 31.5zM44 321v414h72v-414h-72z" />
<glyph horiz-adv-x="298" d="M37 440v424h73v-264l106 135h79l-110 -133l123 -162h-88l-110 154v-154h-73z" />
<glyph horiz-adv-x="147" d="M37 440v424h73v-424h-73z" />
<glyph horiz-adv-x="553" d="M37 440v295h73v-35q46 44 99 44q66 0 92 -46q49 46 111 46q44 0 74 -24t30 -73v-207h-73v181q0 64 -56 64q-37 0 -74 -35v-3v-207h-73v181q0 64 -56 64q-41 0 -74 -35v-210h-73z" />
<glyph horiz-adv-x="354" d="M37 440v295h73v-35q46 44 101 44q44 0 75 -24t31 -73v-207h-73v181q0 33 -13.5 48.5t-44.5 15.5q-41 0 -76 -35v-210h-73z" />
<glyph horiz-adv-x="344" d="M18 588q0 69 42.5 112.5t111.5 43.5t111 -43t42 -113t-42 -113.5t-111 -43.5t-111.5 43.5t-42.5 113.5zM95 588q0 -104 77 -104q78 0 78 104q0 103 -78 103q-77 0 -77 -103z" />
<glyph horiz-adv-x="341" d="M37 321v414h73v-31q43 40 88 40q52 0 88 -40t36 -116t-39.5 -116.5t-95.5 -40.5q-47 0 -77 35v-145h-73zM110 520q29 -31 68 -31q69 0 69 99q0 98 -68 98q-38 0 -69 -33v-133z" />
<glyph horiz-adv-x="341" d="M18 588q0 76 40 116t97 40q45 0 76 -35v26h73v-414h-73v150q-42 -40 -88 -40q-52 0 -88.5 40.5t-36.5 116.5zM94 588q0 -99 68 -99q38 0 69 33v133q-29 31 -68 31q-69 0 -69 -98z" />
<glyph horiz-adv-x="240" d="M37 440v295h74v-43q39 52 81 52q23 0 38 -15v-60q-22 9 -42 9q-50 0 -77 -40v-198h-74z" />
<glyph horiz-adv-x="300" d="M19 528h75q4 -45 63 -45q25 0 40 10t15 28t-15 26t-59 15q-36 6 -58 12.5t-41 27t-19 52.5q0 42 35 66t92 24q60 0 93 -24t34 -64h-76q-3 36 -53 36q-54 0 -54 -31q0 -17 13.5 -24.5t55.5 -14.5q28 -5 45 -9.5t37 -14.5t30 -27t10 -42q0 -44 -35.5 -71t-92.5 -27 q-65 0 -99.5 27t-35.5 70z" />
<glyph horiz-adv-x="238" d="M9 681v54h53v81h73v-81h79v-54h-79v-145q0 -26 7 -37.5t28 -11.5q20 0 50 10v-52q-32 -14 -69 -14q-89 0 -89 93v157h-53z" />
<glyph horiz-adv-x="350" d="M37 528v207h73v-181q0 -34 13 -49t43 -15q42 0 74 35v210h73v-295h-73v34q-46 -43 -98 -43q-44 0 -74.5 23.5t-30.5 73.5z" />
<glyph horiz-adv-x="321" d="M9 735h80l50 -140l26 -75l27 75l49 140h70l-117 -295h-63z" />
<glyph horiz-adv-x="492" d="M9 735h78l44 -139l21 -74l23 74l43 139h62l46 -139l23 -74l21 74l43 139h70l-106 -295h-63l-43 137l-22 74l-23 -74l-43 -137h-64z" />
<glyph horiz-adv-x="320" d="M9 440l109 153l-103 142h82l62 -91l61 91h75l-98 -137l114 -158h-81l-74 107l-72 -107h-75z" />
<glyph horiz-adv-x="321" d="M9 735h80l50 -140l26 -75l27 75l49 140h70l-163 -414h-70l50 124z" />
<glyph horiz-adv-x="277" d="M18 440v54l154 187h-148v54h234v-54l-153 -187h153v-54h-240z" />
<glyph horiz-adv-x="335" d="M27 -45q0 95 150 95q11 0 49 -2v29q0 27 -16 40.5t-39 13.5q-57 0 -60 -54h-75q0 51 37 79t98 28q51 0 89 -23.5t38 -77.5v-203h-72v30q-46 -39 -103 -39q-47 0 -71.5 23.5t-24.5 60.5zM101 -38q0 -37 49 -37q42 0 76 31v47q-27 3 -46 3q-79 0 -79 -44z" />
<glyph horiz-adv-x="341" d="M37 -120v424h73v-160q43 40 88 40q52 0 88 -40t36 -116t-39.5 -116.5t-95.5 -40.5q-47 0 -77 35v-26h-73zM110 -40q29 -31 68 -31q69 0 69 99q0 98 -68 98q-38 0 -69 -33v-133z" />
<glyph horiz-adv-x="320" d="M18 28q0 70 40.5 113t107.5 43q58 0 94 -28t41 -76h-76q-12 51 -59 51q-71 0 -71 -103q0 -104 71 -104q46 0 59 50h76q-5 -48 -41 -75.5t-94 -27.5q-71 0 -109.5 43t-38.5 114z" />
<glyph horiz-adv-x="341" d="M18 28q0 76 40 116t97 40q45 0 76 -35v155h73v-424h-73v31q-42 -40 -88 -40q-52 0 -88.5 40.5t-36.5 116.5zM94 28q0 -99 68 -99q38 0 69 33v133q-29 31 -68 31q-69 0 -69 -98z" />
<glyph horiz-adv-x="321" d="M18 28q0 69 40.5 112.5t103.5 43.5q69 0 106.5 -43t33.5 -126h-207q4 -91 70 -91q26 0 37 9t18 29h76q-5 -40 -40.5 -65.5t-90.5 -25.5q-69 0 -108 43t-39 114zM98 65h126q0 67 -62 67q-54 0 -64 -67z" />
<glyph horiz-adv-x="226" d="M9 121v54h53v37q0 101 104 101q30 0 50 -9v-53q-26 6 -39 6q-42 0 -42 -45v-37h81v-54h-81v-241h-73v241h-53z" />
<glyph horiz-adv-x="341" d="M18 28q0 76 40 116t97 40q45 0 76 -35v26h73v-291q0 -64 -41 -97.5t-100 -33.5q-65 0 -101 25.5t-38 70.5h76q3 -43 63 -43q68 0 68 71v36q-43 -41 -88 -41q-52 0 -88.5 40t-36.5 116zM94 28q0 -98 68 -98q36 0 69 33v132q-29 31 -68 31q-69 0 -69 -98z" />
<glyph horiz-adv-x="354" d="M37 -120v424h73v-164q46 44 101 44q44 0 75 -24t31 -73v-207h-73v181q0 33 -13.5 48.5t-44.5 15.5q-41 0 -76 -35v-210h-73z" />
<glyph horiz-adv-x="147" d="M35 265q0 19 13 31.5t32 12.5t32.5 -12.5t13.5 -31.5t-13.5 -31.5t-32.5 -12.5t-32 12.5t-13 31.5zM44 -120v295h72v-295h-72z" />
<glyph horiz-adv-x="147" d="M35 265q0 19 13 31.5t32 12.5t32.5 -12.5t13.5 -31.5t-13.5 -31.5t-32.5 -12.5t-32 12.5t-13 31.5zM44 175h72v-414h-72v414z" />
<glyph horiz-adv-x="298" d="M37 -120v424h73v-264l106 135h79l-110 -133l123 -162h-88l-110 154v-154h-73z" />
<glyph horiz-adv-x="147" d="M37 -120v424h73v-424h-73z" />
<glyph horiz-adv-x="553" d="M37 -120v295h73v-35q46 44 99 44q66 0 92 -46q49 46 111 46q44 0 74 -24t30 -73v-207h-73v181q0 64 -56 64q-37 0 -74 -35v-3v-207h-73v181q0 64 -56 64q-41 0 -74 -35v-210h-73z" />
<glyph horiz-adv-x="354" d="M37 -120v295h73v-35q46 44 101 44q44 0 75 -24t31 -73v-207h-73v181q0 33 -13.5 48.5t-44.5 15.5q-41 0 -76 -35v-210h-73z" />
<glyph horiz-adv-x="344" d="M18 28q0 69 42.5 112.5t111.5 43.5t111 -43t42 -113t-42 -113.5t-111 -43.5t-111.5 43.5t-42.5 113.5zM95 28q0 -104 77 -104q78 0 78 104q0 103 -78 103q-77 0 -77 -103z" />
<glyph horiz-adv-x="341" d="M37 175h73v-31q43 40 88 40q52 0 88 -40t36 -116t-39.5 -116.5t-95.5 -40.5q-47 0 -77 35v-145h-73v414zM110 -40q29 -31 68 -31q69 0 69 99q0 98 -68 98q-38 0 -69 -33v-133z" />
<glyph horiz-adv-x="341" d="M18 28q0 76 40 116t97 40q45 0 76 -35v26h73v-414h-73v150q-42 -40 -88 -40q-52 0 -88.5 40.5t-36.5 116.5zM94 28q0 -99 68 -99q38 0 69 33v133q-29 31 -68 31q-69 0 -69 -98z" />
<glyph horiz-adv-x="240" d="M37 -120v295h74v-43q39 52 81 52q23 0 38 -15v-60q-22 9 -42 9q-50 0 -77 -40v-198h-74z" />
<glyph horiz-adv-x="300" d="M19 -32h75q4 -45 63 -45q25 0 40 10t15 28t-15 26t-59 15q-36 6 -58 12.5t-41 27t-19 52.5q0 42 35 66t92 24q60 0 93 -24t34 -64h-76q-3 36 -53 36q-54 0 -54 -31q0 -17 13.5 -24.5t55.5 -14.5q28 -5 45 -9.5t37 -14.5t30 -27t10 -42q0 -44 -35.5 -71t-92.5 -27 q-65 0 -99.5 27t-35.5 70z" />
<glyph horiz-adv-x="238" d="M9 121v54h53v81h73v-81h79v-54h-79v-145q0 -26 7 -37.5t28 -11.5q20 0 50 10v-52q-32 -14 -69 -14q-89 0 -89 93v157h-53z" />
<glyph horiz-adv-x="350" d="M37 -32v207h73v-181q0 -34 13 -49t43 -15q42 0 74 35v210h73v-295h-73v34q-46 -43 -98 -43q-44 0 -74.5 23.5t-30.5 73.5z" />
<glyph horiz-adv-x="321" d="M9 175h80l50 -140l26 -75l27 75l49 140h70l-117 -295h-63z" />
<glyph horiz-adv-x="492" d="M9 175h78l44 -139l21 -74l23 74l43 139h62l46 -139l23 -74l21 74l43 139h70l-106 -295h-63l-43 137l-22 74l-23 -74l-43 -137h-64z" />
<glyph horiz-adv-x="320" d="M9 -120l109 153l-103 142h82l62 -91l61 91h75l-98 -137l114 -158h-81l-74 107l-72 -107h-75z" />
<glyph horiz-adv-x="321" d="M9 175h80l50 -140l26 -75l27 75l49 140h70l-163 -414h-70l50 124z" />
<glyph horiz-adv-x="277" d="M18 -66l154 187h-148v54h234v-54l-153 -187h153v-54h-240v54z" />
<glyph d="M45 207h108q8 -116 101 -139v255q-43 9 -73 20t-61.5 32t-48 56.5t-16.5 84.5q0 79 55 132.5t144 64.5v107h92v-108q94 -11 146 -64.5t56 -144.5h-107q-8 109 -95 129v-237q36 -8 60.5 -15t55 -22.5t49 -34.5t31.5 -50.5t13 -71.5q0 -84 -59.5 -143t-149.5 -71v-107h-92 v108q-96 12 -150.5 67.5t-58.5 151.5zM155 528q0 -48 26 -73t73 -39v219q-46 -8 -72.5 -35t-26.5 -72zM346 65q49 9 79 40.5t30 81.5t-28.5 75t-80.5 40v-237z" />
<glyph d="M75 259q0 110 48 181.5t137 87.5v109h91v-108q77 -10 122 -57t53 -121h-102q-13 91 -73 109v-402q59 18 73 106h101q-8 -72 -53 -119t-121 -57v-108h-91v109q-93 15 -139 86t-46 184zM176 259q0 -165 84 -199v395q-84 -37 -84 -196z" />
<glyph d="M37 0v78h87v215h-87v78h87v136q0 97 59 152.5t152 55.5q99 0 157.5 -50t63.5 -145h-107q-12 118 -114 118q-47 0 -78.5 -28t-31.5 -90v-149h217v-78h-217v-215h317v-78h-505z" />
<glyph d="M31 700h110l170 -284l163 284h95l-196 -329h158v-78h-175v-124h175v-78h-175v-91h-101v91h-176v78h176v124h-176v78h158z" />
<glyph d="M-35 -44h102q12 -102 90 -102q39 0 65.5 27t26.5 87v239h-158v78h158v225q0 99 44.5 152t126.5 53t124.5 -41.5t47.5 -112.5h-102q-6 41 -21 59t-48 18q-35 0 -53 -26t-18 -88v-239h159v-78h-159v-225q0 -97 -53.5 -151t-137.5 -54q-86 0 -137.5 46.5t-56.5 132.5z" />
<glyph d="M37 207v78h53q-2 42 -2 65q0 20 2 58h-53v78h64q21 109 80.5 169t150.5 60q206 0 237 -241h-112q-11 87 -39.5 125t-85.5 38q-99 0 -128 -151h146v-78h-155q-2 -36 -2 -58q0 -25 2 -65h155v-78h-146q26 -144 128 -144q58 0 86 37.5t39 125.5h112q-31 -241 -237 -241 q-189 0 -232 222h-63z" />
<glyph d="M31 0v700h158q116 0 172 -59t56 -203q0 -100 -26 -239h-78q24 150 24 232q0 102 -36.5 149t-121.5 47h-65v-627h-83zM180 0v500h83v-427h63q86 0 125 64.5t39 207.5q0 145 -43 355h77q44 -191 44 -348q0 -187 -59 -269.5t-173 -82.5h-156z" />
<glyph d="M32 350q0 138 56 232t152 122l29 116h96l-26 -106q34 -1 70 -13l30 119h96l-42 -167q69 -64 83 -179h-112q-4 24 -7 36l-111 -444q99 18 118 160h112q-15 -117 -82 -177.5t-168 -63.5l-26 -105h-96l29 117q-36 11 -66 30l-37 -147h-96l57 227q-59 94 -59 243zM128 350 q0 -45 4 -77l81 323q-85 -76 -85 -246zM190 119q25 -31 63 -45l136 545q-30 18 -70 18z" />
<glyph d="M30 0v516h89v-50q54 65 111 65q78 0 100 -71q37 47 82 64l59 112h95l-62 -119q49 -27 49 -107v-410h-89v388q0 27 -7 41l-121 -231v-198h-89v29l-73 -139h-95l168 320v178q0 67 -47 67q-40 0 -81 -50v-405h-89zM336 379l28 54q-14 -11 -28 -28v-26z" />
<glyph d="M19 213v78h58v123h-58v78h58v208h106l95 -208h154v208h90v-208h59v-78h-59v-123h59v-78h-59v-213h-105l-98 213h-151v-213h-91v213h-58zM165 547l1 -55h24zM168 291h115l-57 123h-58v-123zM314 414l57 -123h61v123h-118zM406 213l28 -60l-1 60h-27z" />
<glyph d="M49 467v78h310q-28 77 -137 77h-173v78h101h389v-78h-129q36 -32 53 -77h76v-78h-68q-6 -96 -72.5 -145.5t-162.5 -52.5l279 -269h-128l-272 269v77h107q137 0 145 121h-318z" />
<glyph d="M6 213v78h84l-17 123h-67v78h57l-28 208h88l21 -208h87l31 208h93l31 -208h83l18 208h78l-24 -208h53v-78h-62l-14 -123h76v-78h-85l-25 -213h-89l-34 213h-108l-34 -213h-90l-29 213h-94zM152 414l12 -123h37l18 123h-67zM172 213l7 -86l11 86h-18zM266 291h82l-19 123 h-44zM296 492h22l-11 77zM398 414l18 -123h35l11 123h-64zM427 213l11 -90l7 90h-18z" />
<glyph d="M56 0v74h505v-74h-505zM56 349q0 106 60 163t142 57q42 0 77.5 -16.5t54.5 -43.5v98h-124v71h124v66h94v-66h77v-71h-77v-464h-94v55q-54 -70 -146 -70q-76 0 -132 57.5t-56 163.5zM154 349q0 -74 32.5 -110.5t79.5 -36.5q71 0 124 55v187q-48 51 -119 51 q-48 0 -82.5 -36.5t-34.5 -109.5z" />
<glyph d="M20 329v78h85v293h101v-293h4l221 293h108l-231 -293h234v-78h-222l252 -329h-126l-240 327v-327h-101v329h-85z" />
<glyph d="M56 622v78h487v-78h-193v-148l127 56v-82l-127 -56v-69l127 56v-82l-127 -56v-241h-101v196l-127 -56v82l127 56v69l-127 -56v82l127 56v193h-193z" />
<glyph d="M19 437v77h78v186h167q94 0 163 -47.5t82 -138.5h70v-77h-70q-13 -90 -82 -137.5t-163 -47.5h-66v-252h-101v437h-78zM198 330h66q119 0 140 107h-206v-107zM198 514h206q-19 109 -140 109h-66v-109z" />
<glyph d="M37 309v78h264q66 24 100.5 53.5t34.5 80.5q0 117 -131 117q-130 0 -142 -118h-107q5 91 69.5 143t179.5 52q109 0 170 -50t61 -133q0 -93 -76 -145h103v-78h-284q-61 -24 -93 -52.5t-32 -77.5q0 -117 132 -117q137 0 150 118h107q-5 -91 -73 -143t-184 -52 q-109 0 -170.5 50t-61.5 133q0 88 70 141h-87z" />
<glyph d="M32 350q0 147 63.5 243.5t170.5 116.5v110h92v-108q89 -11 146.5 -70.5t71.5 -167.5h-112q-17 132 -106 158v-564q89 24 106 158h112q-14 -108 -71.5 -167.5t-146.5 -70.5v-108h-92v109q-112 19 -173 114.5t-61 246.5zM138 350q0 -118 34 -188.5t94 -90.5v557 q-58 -22 -93 -92.5t-35 -185.5z" />
<glyph d="M73 0v700h169v120h92v-122q89 -7 146 -49t57 -126q0 -55 -33 -100t-81 -59q62 -8 102.5 -47t40.5 -111q0 -94 -63.5 -147.5t-168.5 -58.5v-120h-92v120h-169zM174 77h68v238h-68v-238zM174 391h68v232h-68v-232zM334 78q128 7 128 128q0 102 -128 109v-237zM334 394 q47 9 73 40.5t26 82.5q0 91 -99 104v-227z" />
<glyph d="M25 124l81 81q-44 66 -44 155t44 155l-81 81l55 54l80 -80q60 41 140 41t140 -41l80 80l55 -54l-81 -81q44 -66 44 -155t-44 -155l81 -81l-55 -54l-80 80q-60 -41 -140 -41t-140 41l-80 -80zM162 360q0 -89 36.5 -136t101.5 -47q64 0 101 47t37 136t-37 136t-101 47 q-65 0 -101.5 -47t-36.5 -136z" />
<glyph d="M29 191v78h93l42 161h-85v78h105l49 192h91l-49 -192h132l49 192h91l-49 -192h74v-78h-94l-42 -161h86v-78h-106l-49 -191h-91l49 191h-132l-49 -191h-91l49 191h-73zM213 269h132l42 161h-132z" />
<glyph horiz-adv-x="532" d="M50 160h99q7 -75 73 -98v183q-37 8 -62 17.5t-50.5 26.5t-38.5 44.5t-13 65.5q0 62 45 104.5t119 51.5v81h89v-83q76 -10 118.5 -52.5t46.5 -111.5h-99q-6 70 -66 91v-169q78 -18 124 -52.5t46 -106.5q0 -65 -48 -110t-122 -55v-80h-89v82q-79 11 -124 54.5t-48 116.5z M150 409q0 -54 72 -77v153q-72 -16 -72 -76zM311 57q35 8 57 30t22 55q0 56 -79 83v-168z" />
<glyph horiz-adv-x="462" d="M50 201q0 85 37 141t109 70v82h89v-82q60 -10 95.5 -46t41.5 -91h-91q-10 59 -46 71v-291q35 13 45 70h91q-6 -54 -41.5 -90t-94.5 -46v-82h-89v82q-72 14 -109 70t-37 142zM141 201q0 -114 55 -142v283q-55 -28 -55 -141z" />
<glyph horiz-adv-x="474" d="M23 0v70h64v152h-64v70h64v99q0 77 51 121.5t127 44.5q80 0 129 -39.5t53 -114.5h-98q-11 86 -84 86q-37 0 -60 -21.5t-23 -66.5v-109h168v-70h-168v-152h248v-70h-407z" />
<glyph horiz-adv-x="534" d="M39 543h105l134 -219l125 219h92l-153 -250h113v-69h-137v-87h137v-69h-137v-68h-94v68h-137v69h137v87h-137v69h113z" />
<glyph horiz-adv-x="540" d="M-23 -31h99q10 -77 72 -77q33 0 53.5 21t20.5 67v176h-118v70h118v165q0 77 49 121.5t121 44.5q73 0 120 -38t51 -107h-99q-9 77 -72 77q-74 0 -74 -88v-175h120v-70h-120v-166q0 -77 -49 -121.5t-121 -44.5q-73 0 -120 38t-51 107z" />
<glyph horiz-adv-x="564" d="M21 157v69h54q-2 30 -2 45t2 41h-54v68h65q21 83 77 130t139 47q85 0 144 -48.5t71 -141.5h-103q-17 121 -112 121q-88 0 -116 -108h142v-68h-154q-1 -13 -1 -41q0 -17 2 -45h153v-69h-141q30 -103 115 -103q95 0 112 121h103q-12 -93 -71 -141.5t-144 -48.5 q-82 0 -137 45t-78 127h-66z" />
<glyph horiz-adv-x="647" d="M87 0v543h167q102 0 150 -45.5t48 -157.5q0 -80 -20 -186h-79q19 116 19 180q0 71 -29 105t-97 34h-77v-473h-82zM225 0v388h82v-318h68q70 0 102 48.5t32 149.5q0 115 -34 275h78q36 -155 36 -270q0 -146 -52 -209.5t-154 -63.5h-158z" />
<glyph horiz-adv-x="572" d="M39 -93l57 179q-48 74 -48 185q0 116 52 191t146 91l27 83h89l-26 -82q28 -3 46 -10l30 92h89l-43 -134q57 -50 67 -135h-102l-3 17l-106 -329q92 9 109 120h102q-12 -92 -75 -141t-155 -49h-4l-25 -78h-88l29 92q-24 8 -44 21l-36 -113h-88zM139 271q0 -16 2 -46l77 241 q-79 -51 -79 -195zM188 98q17 -18 41 -31l131 407q-18 10 -46 13z" />
<glyph horiz-adv-x="786" d="M78 0v401h89v-52q63 65 136 65q88 0 118 -65q42 41 105 59l60 85h90l-59 -84q90 -23 90 -137v-272h-89v252q0 76 -50 86l-131 -187v-151h-89v24l-76 -109h-90l166 237v100q0 46 -16.5 67t-56.5 21q-58 0 -108 -50v-290h-89zM435 301q1 -4 1.5 -11t0.5 -11l30 44 q-17 -8 -32 -22z" />
<glyph horiz-adv-x="596" d="M13 157v69h77v86h-77v68h77v163h98l90 -163h143v163h85v-163h77v-68h-77v-86h77v-69h-77v-157h-98l-87 157h-146v-157h-85v157h-77zM174 380h24l-24 43v-43zM175 226h108l-48 86h-60v-86zM316 312l48 -86h57v86h-105zM402 157l21 -38l-1 38h-20z" />
<glyph horiz-adv-x="491" d="M37 352v68h246q-23 55 -107 55h-139v68h84h316v-68h-90q23 -21 34 -55h56v-68h-50q-7 -68 -54.5 -104.5t-121.5 -42.5l216 -205h-121l-213 203v68h83q101 0 113 81h-252z" />
<glyph horiz-adv-x="778" d="M11 157v69h113l-25 86h-88v68h69l-47 163h105l39 -163h131l46 163h86l47 -163h129l36 163h92l-43 -163h65v-68h-82l-23 -86h105v-69h-123l-41 -157h-85l-46 157h-152l-43 -157h-87l-45 157h-133zM193 312l21 -86h51l24 86h-96zM229 157l8 -39l10 39h-18zM339 226h112 l-25 86h-64zM380 380h27l-14 49zM507 312l24 -86h51l19 86h-94zM550 157l11 -40l8 40h-19z" />
<glyph horiz-adv-x="472" d="M48 0v68h404v-68h-404zM48 272q0 81 48.5 125.5t114.5 44.5q69 0 103 -48v77h-97v63h97v43h86v-43h52v-63h-52v-357h-86v43q-43 -55 -115 -55q-61 0 -106 44.5t-45 125.5zM138 272q0 -53 22 -78.5t56 -25.5q57 0 98 43v125q-40 40 -94 40q-35 0 -58.5 -26t-23.5 -78z" />
<glyph horiz-adv-x="508" d="M16 251v68h71v224h94v-212l168 212h100l-184 -224h189v-68h-178l205 -251h-118l-182 234v-234h-94v251h-71z" />
<glyph horiz-adv-x="453" d="M30 473v70h393v-70h-149v-93l97 41v-74l-97 -41v-60l97 41v-73l-97 -41v-173h-95v133l-97 -41v74l97 41v60l-97 -41v74l97 41v132h-149z" />
<glyph horiz-adv-x="522" d="M16 335v68h71v140h166q74 0 130 -36.5t69 -103.5h60v-68h-60q-11 -69 -67.5 -106.5t-131.5 -37.5h-72v-191h-94v335h-71zM181 260h72q88 0 102 75h-174v-75zM181 403h173q-15 71 -101 71h-72v-71z" />
<glyph horiz-adv-x="543" d="M48 235v68h218q52 19 79 41t27 62q0 38 -26 60.5t-71 22.5q-93 0 -105 -84h-98q5 71 57.5 111.5t145.5 40.5q88 0 138.5 -39.5t50.5 -103.5q0 -71 -53 -111h82v-68h-237q-45 -17 -69 -39.5t-24 -59.5q0 -38 26.5 -60.5t70.5 -22.5q102 0 111 84h99q-5 -70 -60.5 -111 t-149.5 -41q-89 0 -139 39.5t-50 104.5q0 66 47 106h-70z" />
<glyph horiz-adv-x="572" d="M48 271q0 116 52 191t147 91v83h89v-82q77 -10 128 -57.5t61 -129.5h-102q-14 97 -87 116v-424q73 19 87 116h102q-10 -82 -61 -129.5t-128 -57.5v-81h-89v82q-95 16 -147 91t-52 191zM149 271q0 -172 98 -209v418q-98 -37 -98 -209z" />
<glyph horiz-adv-x="556" d="M87 0v543h136v93h89v-94q78 -6 125 -41.5t47 -103.5q0 -42 -26 -73t-65 -42q48 -7 81 -39.5t33 -88.5q0 -72 -53 -111.5t-142 -42.5v-93h-89v93h-136zM181 68h42v172h-42v-172zM181 307h42v168h-42v-168zM312 68q52 3 75 23t23 63q0 79 -98 86v-172zM312 309q75 13 75 85 q0 69 -75 79v-164z" />
<glyph horiz-adv-x="563" d="M45 455l58 55l68 -66q47 29 110 29q64 0 111 -29l68 66l57 -55l-68 -65q33 -49 33 -111t-33 -111l67 -65l-56 -55l-68 66q-47 -29 -111 -29q-63 0 -110 29l-68 -66l-57 55l67 65q-32 50 -32 111q0 60 32 110zM172 279q0 -66 31 -99.5t78 -33.5q48 0 79 33.5t31 99.5 q0 65 -31 99t-79 34q-47 0 -78 -34t-31 -99z" />
<glyph horiz-adv-x="607" d="M45 144v68h93l31 117h-84v68h102l39 146h87l-39 -146h125l39 146h87l-39 -146h76v-68h-94l-31 -117h85v-68h-103l-38 -144h-87l38 144h-125l-38 -144h-87l38 144h-75zM225 212h125l31 117h-125z" />
<glyph horiz-adv-x="627" d="M48 350q0 167 70.5 266t194.5 99t194.5 -99t70.5 -266t-70.5 -266t-194.5 -99t-194.5 99t-70.5 266zM152 350q0 -110 28 -182l212 443q-35 26 -79 26q-73 0 -117 -72.5t-44 -214.5zM235 89q32 -26 78 -26q73 0 117 72.5t44 214.5q0 109 -27 180z" />
<glyph horiz-adv-x="574" d="M48 284q0 136 62 217t177 81q114 0 176 -81t62 -217q0 -137 -62 -218t-176 -81q-115 0 -177 81t-62 218zM152 284q0 -228 135 -228t135 228t-135 228t-135 -228z" />
<glyph horiz-adv-x="574" d="M48 284q0 136 62 217t177 81q114 0 176 -81t62 -217q0 -137 -62 -218t-176 -81q-115 0 -177 81t-62 218zM148 284q0 -95 24 -149l175 363q-26 14 -60 14q-139 0 -139 -228zM227 70q26 -14 60 -14q138 0 138 228q0 93 -23 148z" />
<glyph horiz-adv-x="384" d="M38 390v87l162 90h98v-567h-98v477z" />
<glyph horiz-adv-x="518" d="M40 381q5 98 62 149.5t162 51.5q99 0 153 -46t54 -130q0 -41 -15 -76.5t-54.5 -76.5t-84.5 -77.5t-126 -96.5h296v-79h-431v79q178 128 228 175q84 79 84 152q0 50 -27 77t-77 27q-110 0 -121 -129h-103z" />
<glyph horiz-adv-x="572" d="M45 53h105q6 -71 41 -100.5t102 -29.5q61 0 98.5 34.5t37.5 108.5q0 126 -163 126h-72v73h72q71 0 107.5 33.5t36.5 93.5q0 61 -32.5 89.5t-86.5 28.5q-60 0 -93.5 -29.5t-42.5 -100.5h-103q8 95 71 148.5t169 53.5q100 0 160.5 -50t60.5 -140q0 -52 -33.5 -97t-91.5 -62 q73 -12 108.5 -59.5t35.5 -107.5q0 -96 -69 -155.5t-170 -59.5q-119 0 -181 52.5t-67 149.5z" />
<glyph horiz-adv-x="563" d="M33 0v79l208 488h97l-209 -488h198v182h96v-182h103v-79h-103v-134h-96v134h-294z" />
<glyph horiz-adv-x="551" d="M48 38h105q10 -115 128 -115q127 0 127 170q0 91 -33.5 129t-95.5 38q-78 0 -126 -73h-87v380h403v-79h-316v-220q57 66 147 66q93 0 152 -61t59 -180q0 -113 -65.5 -177.5t-164.5 -64.5q-109 0 -168.5 48.5t-64.5 138.5z" />
<glyph horiz-adv-x="591" d="M48 332q0 217 69.5 322t194.5 105q97 0 154.5 -48t65.5 -138h-103q-8 63 -41 88.5t-76 25.5q-74 0 -115 -70.5t-45 -247.5q31 39 78.5 62.5t100.5 23.5q97 0 154.5 -60.5t57.5 -173.5q0 -106 -70.5 -171t-171.5 -65q-124 0 -188.5 89.5t-64.5 257.5zM153 293 q10 -236 148 -236q64 0 101 41t37 121q0 162 -128 162q-46 0 -89 -25t-69 -63z" />
<glyph horiz-adv-x="486" d="M38 488v79h418v-79l-247 -622h-98l252 622h-325z" />
<glyph horiz-adv-x="611" d="M48 203q0 65 40.5 120t103.5 72q-55 20 -89.5 62.5t-34.5 103.5q0 91 66 144.5t172 53.5t171.5 -54t65.5 -144q0 -61 -34.5 -103.5t-89.5 -62.5q64 -17 104 -71.5t40 -120.5q0 -103 -73 -160.5t-184 -57.5q-112 0 -185 57.5t-73 160.5zM151 204q0 -73 43 -110t112 -37 q68 0 111 37.5t43 109.5q0 63 -40.5 106t-113.5 43q-74 0 -114.5 -43t-40.5 -106zM171 560q0 -58 34.5 -95t100.5 -37t100.5 37.5t34.5 94.5q0 63 -37.5 95t-97.5 32t-97.5 -32t-37.5 -95z" />
<glyph horiz-adv-x="591" d="M48 355q0 105 70 166t172 61q125 0 189 -88.5t64 -256.5q0 -197 -69 -291.5t-195 -94.5q-98 0 -156 47t-65 137h103q15 -112 118 -112q37 0 63.5 12.5t49 44t34.5 90t13 145.5q-30 -38 -78 -61.5t-101 -23.5q-98 0 -155 56.5t-57 168.5zM152 357q0 -153 128 -153 q47 0 89.5 25t67.5 62q-12 219 -147 219q-138 0 -138 -153z" />
<glyph d="M47 350q0 169 65 267t188 98q122 0 187.5 -98t65.5 -267t-65.5 -267t-187.5 -98q-123 0 -188 98t-65 267zM154 350q0 -144 38.5 -215.5t107.5 -71.5t107.5 71.5t38.5 215.5t-38.5 215.5t-107.5 71.5t-107.5 -71.5t-38.5 -215.5z" />
<glyph d="M47 350q0 169 65 267t188 98q122 0 187.5 -98t65.5 -267t-65.5 -267t-187.5 -98q-123 0 -188 98t-65 267zM149 350q0 -106 21 -172l208 432q-33 27 -78 27q-71 0 -111 -71.5t-40 -215.5zM222 91q32 -28 78 -28q71 0 111 71.5t40 215.5q0 107 -21 173z" />
<glyph d="M98 0v78h168v532l-168 -88v88l168 90h101v-622h166v-78h-267h-168z" />
<glyph d="M74 488q5 109 68 168t170 59q101 0 159 -52t58 -148q0 -89 -73 -185t-239 -252h324v-78h-451v78q175 166 225 222q109 126 110 215q0 61 -30.5 92t-82.5 31q-119 0 -130 -150h-108z" />
<glyph d="M64 187h108q11 -125 139 -125q59 0 97.5 37.5t38.5 100.5q0 55 -41 89t-123 34h-70v77h70q70 0 107.5 35.5t37.5 89.5q0 55 -32.5 84t-84.5 29q-116 0 -133 -125h-107q8 95 71 148.5t169 53.5q100 0 160.5 -50.5t60.5 -139.5q0 -52 -33.5 -97t-91.5 -62 q73 -11 108.5 -58.5t35.5 -107.5q0 -96 -69 -155.5t-171 -59.5q-118 0 -180 52.5t-67 149.5z" />
<glyph d="M57 137v77l208 486h99l-209 -486h200v176h98v-176h97v-77h-97v-137h-98v137h-298z" />
<glyph d="M74 170h108q11 -108 124 -108q58 0 92 42t34 122q0 163 -120 163q-86 0 -132 -70h-88v381h403v-78h-315v-231q56 75 152 75q93 0 149 -60t56 -180q0 -113 -65.5 -177t-165.5 -64q-109 0 -168 47.5t-64 137.5z" />
<glyph d="M56 311q0 193 70.5 298.5t192.5 105.5q95 0 149.5 -44t62.5 -122h-107q-9 47 -34.5 68t-70.5 21q-142 0 -154 -268q31 38 77 61.5t97 23.5q97 0 154 -60t57 -174q0 -106 -70.5 -171t-170.5 -65q-123 0 -188 86t-65 240zM164 300q3 -238 145 -238q62 0 99.5 42t37.5 117 t-32.5 115.5t-95.5 40.5q-96 0 -154 -77z" />
<glyph d="M77 622v78h438v-78l-268 -622h-97l272 622h-345z" />
<glyph d="M48 187q0 64 37.5 112t101.5 64q-120 41 -120 160q0 90 63.5 141t169.5 51t169.5 -51t63.5 -141q0 -119 -120 -160q64 -16 101.5 -64t37.5 -112q0 -102 -69.5 -152t-182.5 -50t-182.5 50t-69.5 152zM151 188q0 -64 40.5 -95t108.5 -31t108.5 31t40.5 95q0 60 -37 95.5 t-112 35.5t-112 -35.5t-37 -95.5zM170 521q0 -56 32 -90t98 -34t98 34t32 90q0 57 -36 87t-94 30t-94 -30t-36 -87z" />
<glyph d="M56 486q0 104 70.5 166.5t171.5 62.5q123 0 187.5 -86t64.5 -241q0 -195 -68 -299t-195 -104q-99 0 -157 47.5t-64 136.5h107q13 -107 114 -107q78 0 115 66.5t41 221.5q-31 -38 -77.5 -62t-97.5 -24q-98 0 -155 56t-57 166zM160 486q0 -145 128 -145q97 0 154 78 q-8 219 -144 219q-63 0 -100.5 -40t-37.5 -112z" />
<glyph d="M62 284q0 136 62 217t176 81t176 -81t62 -217q0 -137 -62 -218t-176 -81t-176 81t-62 218zM165 284q0 -228 135 -228t135 228t-135 228t-135 -228z" />
<glyph d="M62 284q0 136 62 217t176 81t176 -81t62 -217q0 -137 -62 -218t-176 -81t-176 81t-62 218zM161 284q0 -95 24 -149l175 363q-26 14 -60 14q-139 0 -139 -228zM240 70q26 -14 60 -14q139 0 139 228q0 95 -24 149z" />
<glyph d="M94 0v79h178v397l-178 -90v91l178 90h98v-488h168v-79h-266h-178z" />
<glyph d="M84 381q5 98 62 149.5t162 51.5q99 0 153 -46t54 -130q0 -41 -15 -76.5t-54.5 -76.5t-84.5 -77.5t-126 -96.5h296v-79h-431v79q178 128 228 175q84 79 84 152q0 50 -27 77t-77 27q-110 0 -121 -129h-103z" />
<glyph d="M56 53h105q6 -71 41 -100.5t102 -29.5q62 0 99 34.5t37 108.5q0 126 -163 126h-72v73h72q71 0 107.5 33.5t36.5 93.5q0 61 -32.5 89.5t-86.5 28.5q-61 0 -94.5 -29.5t-41.5 -100.5h-103q8 95 71 148.5t169 53.5q100 0 160.5 -50t60.5 -140q0 -52 -33.5 -97t-91.5 -62 q73 -12 108.5 -59.5t35.5 -107.5q0 -96 -69 -155.5t-170 -59.5q-119 0 -181 52.5t-67 149.5z" />
<glyph d="M57 0v79l208 488h97l-209 -488h198v182h96v-182h103v-79h-103v-134h-96v134h-294z" />
<glyph d="M66 38h104q10 -115 128 -115q127 0 127 170q0 91 -33.5 129t-94.5 38q-79 0 -127 -73h-87v380h404v-79h-317v-220q58 66 147 66q94 0 152.5 -61t58.5 -180q0 -113 -65.5 -177.5t-164.5 -64.5q-109 0 -168 48.5t-64 138.5z" />
<glyph d="M48 332q0 217 69 322t195 105q97 0 154 -48t65 -138h-103q-15 114 -116 114q-74 0 -115 -69.5t-46 -245.5q31 39 78.5 62.5t100.5 23.5q97 0 154.5 -60.5t57.5 -175.5q0 -107 -70.5 -172t-171.5 -65q-124 0 -188 89t-64 258zM152 296q8 -239 148 -239q64 0 101 41t37 123 q0 163 -128 163q-47 0 -90 -25.5t-68 -62.5z" />
<glyph d="M73 488v79h455v-79l-267 -622h-98l272 622h-362z" />
<glyph d="M43 203q0 66 40 120.5t104 71.5q-56 20 -90.5 62.5t-34.5 103.5q0 90 66 144t172 54t172 -54t66 -144q0 -61 -34.5 -103.5t-90.5 -62.5q64 -17 104 -71.5t40 -120.5q0 -103 -73 -160.5t-184 -57.5t-184 57.5t-73 160.5zM146 204q0 -72 43 -109.5t111 -37.5t111 37.5 t43 109.5q0 63 -40.5 106t-113.5 43t-113.5 -43t-40.5 -106zM165 560q0 -57 34.5 -94.5t100.5 -37.5t100.5 37.5t34.5 94.5q0 63 -37.5 95t-97.5 32t-97.5 -32t-37.5 -95z" />
<glyph d="M48 355q0 105 70 166t172 61q124 0 188 -88.5t64 -256.5q0 -197 -69 -291.5t-195 -94.5q-98 0 -155.5 47t-65.5 137h103q15 -112 118 -112q37 0 63.5 12.5t49 44t34.5 90t13 145.5q-30 -38 -78 -61.5t-101 -23.5q-98 0 -154.5 56t-56.5 169zM151 357q0 -153 129 -153 q47 0 89 25t67 62q-12 219 -146 219q-139 0 -139 -153z" />
<glyph horiz-adv-x="546" d="M48 271q0 130 60.5 208t164.5 78t164.5 -78t60.5 -208q0 -129 -61 -207.5t-164 -78.5t-164 78.5t-61 207.5zM148 271q0 -104 34.5 -159.5t90.5 -55.5t90.5 55.5t34.5 159.5t-34.5 159.5t-90.5 55.5t-90.5 -55.5t-34.5 -159.5z" />
<glyph horiz-adv-x="546" d="M48 271q0 130 60.5 208t164.5 78t164.5 -78t60.5 -208t-60.5 -208t-164.5 -78q-103 0 -164 78.5t-61 207.5zM145 271q0 -77 21 -132l164 331q-26 17 -57 17q-57 0 -92.5 -55t-35.5 -161zM216 72q26 -17 57 -17q57 0 93 55t36 161q0 80 -22 132z" />
<glyph horiz-adv-x="353" d="M38 393v80l132 70h96v-543h-96v460z" />
<glyph horiz-adv-x="458" d="M48 379q4 84 56 131t137 47q81 0 128.5 -40.5t47.5 -114.5q0 -69 -55.5 -142t-184.5 -189h243v-71h-359v71q146 134 182 173q80 89 80 158q0 40 -23.5 62t-59.5 22q-83 0 -93 -107h-99z" />
<glyph horiz-adv-x="492" d="M47 145h99q11 -90 106 -90q47 0 75 25.5t28 72.5q0 42 -32 67t-97 25h-57v71h57q56 0 85 25.5t29 66.5q0 36 -24 57.5t-64 21.5q-86 0 -101 -90h-99q6 74 60 117t140 43q88 0 136.5 -38.5t48.5 -109.5q0 -41 -27 -77t-74 -49q59 -8 87.5 -46t28.5 -84q0 -75 -56 -121.5 t-144 -46.5q-95 0 -148 42.5t-57 117.5z" />
<glyph horiz-adv-x="479" d="M33 105v71l166 367h93l-167 -367h148v126h93v-126h76v-71h-76v-105h-93v105h-240z" />
<glyph horiz-adv-x="473" d="M48 132h99q10 -77 94 -77q44 0 69 30t25 87q0 119 -94 119q-55 0 -95 -45h-84v297h338v-71h-254v-160q41 49 113 49q80 0 127 -48t47 -140q0 -89 -53.5 -138.5t-138.5 -49.5q-88 0 -138 39t-55 108z" />
<glyph horiz-adv-x="507" d="M48 241q0 151 57.5 233.5t160.5 82.5q76 0 123.5 -36t53.5 -95h-99q-12 61 -79 61q-102 0 -115 -186q55 52 129 52q83 0 131.5 -47t48.5 -135q0 -82 -60 -134t-142 -52q-100 0 -154.5 68.5t-54.5 187.5zM148 237q1 -94 27.5 -138t81.5 -44q48 0 76.5 32t28.5 84 t-26.5 82.5t-75.5 30.5q-67 0 -112 -47z" />
<glyph horiz-adv-x="416" d="M38 472v71h348v-71l-198 -472h-91l201 472h-260z" />
<glyph horiz-adv-x="517" d="M48 144q0 50 30.5 87t80.5 50q-95 33 -95 125q0 69 54 110t140 41t140.5 -41t54.5 -110q0 -92 -96 -125q51 -13 81 -50t30 -87q0 -79 -58.5 -119t-151.5 -40q-92 0 -151 40.5t-59 118.5zM146 146q0 -91 112 -91t112 91q0 45 -29.5 71t-82.5 26q-54 0 -83 -26t-29 -71z M161 404q0 -42 25 -66.5t72 -24.5t72.5 24.5t25.5 66.5t-28 62.5t-70 20.5t-69.5 -20.5t-27.5 -62.5z" />
<glyph horiz-adv-x="507" d="M48 375q0 84 59.5 133t143.5 49q99 0 153.5 -68.5t54.5 -187.5q0 -151 -57.5 -233.5t-160.5 -82.5q-80 0 -130 37.5t-57 108.5h99q13 -76 89 -76q107 0 117 203q-56 -54 -130 -54q-85 0 -133 43t-48 128zM145 375q0 -49 26 -75.5t76 -26.5q67 0 113 48q-6 166 -109 166 q-49 0 -77.5 -30t-28.5 -82z" />
<glyph horiz-adv-x="427" d="M28 650q0 99 51 159t134 60t134 -60t51 -159t-51 -159t-134 -60t-134 60t-51 159zM117 650q0 -78 26 -116t70 -38t70 38t26 116t-26 116t-70 38t-70 -38t-26 -116z" />
<glyph horiz-adv-x="251" d="M18 732v75l103 53h85v-420h-85v345z" />
<glyph horiz-adv-x="369" d="M28 733q3 65 46 100.5t113 35.5q68 0 110 -33t42 -96q0 -28 -9 -51.5t-39.5 -56.5t-54 -53.5t-86.5 -74.5h192v-64h-304v64q22 19 53 45t48 40.5t38.5 34t33 32t23 28t16 29t4.5 27.5q0 65 -67 65q-64 0 -71 -72h-88z" />
<glyph horiz-adv-x="389" d="M28 552h88q7 -57 81 -57q78 0 78 64q0 66 -93 66h-54v64h54q81 0 81 61q0 55 -69 55q-64 0 -74 -57h-88q5 57 48.5 89t113.5 32t112 -32t42 -86q0 -31 -21.5 -56.5t-60.5 -34.5q49 -7 72 -36t23 -65q0 -56 -48.5 -92t-115.5 -36q-77 0 -121.5 32t-47.5 89z" />
<glyph horiz-adv-x="365" d="M18 512v66l136 282h83l-137 -282h107v96h82v-96h66v-66h-66v-72h-82v72h-189z" />
<glyph horiz-adv-x="364" d="M28 542h88q8 -47 67 -47q76 0 76 81q0 86 -73 86q-47 0 -72 -32h-74v230h275v-65h-201v-102q32 32 93 32q60 0 99 -39t39 -110q0 -67 -48 -106t-114 -39q-71 0 -111.5 29t-43.5 82z" />
<glyph horiz-adv-x="383" d="M27 627q0 116 48 179t129 63q63 0 103 -27.5t45 -72.5h-88q-13 36 -60 36q-77 0 -87 -130q40 38 98 38q71 0 110.5 -36t39.5 -105q0 -64 -48 -102.5t-115 -38.5q-82 0 -128.5 52t-46.5 144zM115 617q3 -122 87 -122q77 0 77 77q0 35 -19 56.5t-58 21.5q-51 0 -87 -33z " />
<glyph horiz-adv-x="317" d="M18 795v65h280v-65l-161 -355h-82l163 355h-200z" />
<glyph horiz-adv-x="393" d="M27 552q0 38 24.5 67t66.5 39q-78 24 -78 96q0 53 43.5 84t112.5 31q70 0 113.5 -31t43.5 -84q0 -72 -78 -96q42 -10 66.5 -39t24.5 -67q0 -61 -47.5 -91t-122.5 -30t-122 30t-47 91zM114 561q0 -66 82 -66q83 0 83 66q0 63 -83 63q-82 0 -82 -63zM126 745q0 -58 70 -58 q71 0 71 58q0 31 -20.5 45.5t-50.5 14.5t-50 -14.5t-20 -45.5z" />
<glyph horiz-adv-x="383" d="M18 728q0 64 48 102.5t115 38.5q82 0 128.5 -52t46.5 -144q0 -116 -48 -179t-129 -63q-65 0 -106.5 29.5t-45.5 80.5h88q13 -46 64 -46q77 0 87 130q-40 -38 -97 -38q-71 0 -111 36t-40 105zM104 728q0 -34 19.5 -56t57.5 -22q51 0 87 33q-3 122 -87 122q-77 0 -77 -77z " />
<glyph horiz-adv-x="361" d="M28 626v66h118v109h68v-109h118v-66h-118v-109h-68v109h-118z" />
<glyph horiz-adv-x="361" d="M28 626v66h304v-66h-304z" />
<glyph horiz-adv-x="361" d="M28 563v66h304v-66h-304zM28 689v66h304v-66h-304z" />
<glyph horiz-adv-x="152" d="M28 327l13 174h83l-25 -174h-71z" />
<glyph horiz-adv-x="165" d="M28 484q0 23 16 38.5t39 15.5q22 0 38 -15.5t16 -38.5q0 -22 -16 -37.5t-38 -15.5q-23 0 -39 15.5t-16 37.5z" />
<glyph horiz-adv-x="241" d="M28 650q0 91 37.5 165t92.5 120h77q-54 -50 -86 -128t-32 -157t32 -157t86 -128h-77q-55 46 -92.5 120t-37.5 165z" />
<glyph horiz-adv-x="241" d="M5 365q54 50 86 128t32 157t-32 157t-86 128h78q54 -46 91.5 -120t37.5 -165t-37.5 -165t-91.5 -120h-78z" />
<glyph horiz-adv-x="427" d="M28 90q0 99 51 159t134 60t134 -60t51 -159t-51 -159t-134 -60t-134 60t-51 159zM117 90q0 -78 26 -116t70 -38t70 38t26 116t-26 116t-70 38t-70 -38t-26 -116z" />
<glyph horiz-adv-x="251" d="M18 172v75l103 53h85v-420h-85v345z" />
<glyph horiz-adv-x="369" d="M28 173q3 65 46 100.5t113 35.5q68 0 110 -33t42 -96q0 -28 -9 -51.5t-39.5 -56.5t-54 -53.5t-86.5 -74.5h192v-64h-304v64q22 19 53 45t48 40.5t38.5 34t33 32t23 28t16 29t4.5 27.5q0 65 -67 65q-64 0 -71 -72h-88z" />
<glyph horiz-adv-x="389" d="M28 -8h88q7 -57 81 -57q78 0 78 64q0 66 -93 66h-54v64h54q81 0 81 61q0 55 -69 55q-64 0 -74 -57h-88q5 57 48.5 89t113.5 32t112 -32t42 -86q0 -31 -21.5 -56.5t-60.5 -34.5q49 -7 72 -36t23 -65q0 -56 -48.5 -92t-115.5 -36q-77 0 -121.5 32t-47.5 89z" />
<glyph horiz-adv-x="365" d="M18 18l136 282h83l-137 -282h107v96h82v-96h66v-66h-66v-72h-82v72h-189v66z" />
<glyph horiz-adv-x="364" d="M28 -18h88q8 -47 67 -47q76 0 76 81q0 86 -73 86q-47 0 -72 -32h-74v230h275v-65h-201v-102q32 32 93 32q60 0 99 -39t39 -110q0 -67 -48 -106t-114 -39q-71 0 -111.5 29t-43.5 82z" />
<glyph horiz-adv-x="383" d="M27 67q0 116 48 179t129 63q63 0 103 -27.5t45 -72.5h-88q-13 36 -60 36q-77 0 -87 -130q40 38 98 38q71 0 110.5 -36t39.5 -105q0 -64 -48 -102.5t-115 -38.5q-82 0 -128.5 52t-46.5 144zM115 57q3 -122 87 -122q77 0 77 77q0 35 -19 56.5t-58 21.5q-51 0 -87 -33z" />
<glyph horiz-adv-x="317" d="M18 235v65h280v-65l-161 -355h-82l163 355h-200z" />
<glyph horiz-adv-x="393" d="M27 -8q0 38 24.5 67t66.5 39q-78 24 -78 96q0 53 43.5 84t112.5 31q70 0 113.5 -31t43.5 -84q0 -72 -78 -96q42 -10 66.5 -39t24.5 -67q0 -61 -47.5 -91t-122.5 -30t-122 30t-47 91zM114 1q0 -66 82 -66q83 0 83 66q0 63 -83 63q-82 0 -82 -63zM126 185q0 -58 70 -58 q71 0 71 58q0 31 -20.5 45.5t-50.5 14.5t-50 -14.5t-20 -45.5z" />
<glyph horiz-adv-x="383" d="M18 168q0 64 48 102.5t115 38.5q82 0 128.5 -52t46.5 -144q0 -116 -48 -179t-129 -63q-65 0 -106.5 29.5t-45.5 80.5h88q13 -46 64 -46q77 0 87 130q-40 -38 -97 -38q-71 0 -111 36t-40 105zM104 168q0 -34 19.5 -56t57.5 -22q51 0 87 33q-3 122 -87 122q-77 0 -77 -77z " />
<glyph horiz-adv-x="361" d="M28 66v66h118v109h68v-109h118v-66h-118v-109h-68v109h-118z" />
<glyph horiz-adv-x="361" d="M28 66v66h304v-66h-304z" />
<glyph horiz-adv-x="361" d="M28 3v66h304v-66h-304zM28 129v66h304v-66h-304z" />
<glyph horiz-adv-x="152" d="M28 -233l13 174h83l-25 -174h-71z" />
<glyph horiz-adv-x="168" d="M28 -76q0 23 16 38.5t39 15.5q22 0 38 -15.5t16 -38.5q0 -22 -16 -37.5t-38 -15.5q-23 0 -39 15.5t-16 37.5z" />
<glyph horiz-adv-x="241" d="M28 90q0 91 37.5 165t92.5 120h77q-54 -50 -86 -128t-32 -157t32 -157t86 -128h-77q-55 46 -92.5 120t-37.5 165z" />
<glyph horiz-adv-x="241" d="M5 -195q54 50 86 128t32 157t-32 157t-86 128h78q54 -46 91.5 -120t37.5 -165t-37.5 -165t-91.5 -120h-78z" />
<glyph horiz-adv-x="427" d="M28 490q0 99 51 159t134 60t134 -60t51 -159t-51 -159t-134 -60t-134 60t-51 159zM117 490q0 -78 26 -116t70 -38t70 38t26 116t-26 116t-70 38t-70 -38t-26 -116z" />
<glyph horiz-adv-x="251" d="M18 572v75l103 53h85v-420h-85v345z" />
<glyph horiz-adv-x="369" d="M28 573q3 65 46 100.5t113 35.5q68 0 110 -33t42 -96q0 -28 -9 -51.5t-39.5 -56.5t-54 -53.5t-86.5 -74.5h192v-64h-304v64q22 19 53 45t48 40.5t38.5 34t33 32t23 28t16 29t4.5 27.5q0 65 -67 65q-64 0 -71 -72h-88z" />
<glyph horiz-adv-x="389" d="M28 392h88q7 -57 81 -57q78 0 78 64q0 66 -93 66h-54v64h54q81 0 81 61q0 55 -69 55q-64 0 -74 -57h-88q5 57 48.5 89t113.5 32t112 -32t42 -86q0 -31 -21.5 -56.5t-60.5 -34.5q49 -7 72 -36t23 -65q0 -56 -48.5 -92t-115.5 -36q-77 0 -121.5 32t-47.5 89z" />
<glyph horiz-adv-x="365" d="M18 352v66l136 282h83l-137 -282h107v96h82v-96h66v-66h-66v-72h-82v72h-189z" />
<glyph horiz-adv-x="364" d="M28 382h88q8 -47 67 -47q76 0 76 81q0 86 -73 86q-47 0 -72 -32h-74v230h275v-65h-201v-102q32 32 93 32q60 0 99 -39t39 -110q0 -67 -48 -106t-114 -39q-71 0 -111.5 29t-43.5 82z" />
<glyph horiz-adv-x="383" d="M27 467q0 116 48 179t129 63q63 0 103 -27.5t45 -72.5h-88q-13 36 -60 36q-77 0 -87 -130q40 38 98 38q71 0 110.5 -36t39.5 -105q0 -64 -48 -102.5t-115 -38.5q-82 0 -128.5 52t-46.5 144zM115 457q3 -122 87 -122q77 0 77 77q0 35 -19 56.5t-58 21.5q-51 0 -87 -33z " />
<glyph horiz-adv-x="317" d="M18 635v65h280v-65l-161 -355h-82l163 355h-200z" />
<glyph horiz-adv-x="393" d="M27 392q0 38 24.5 67t66.5 39q-78 24 -78 96q0 53 43.5 84t112.5 31q70 0 113.5 -31t43.5 -84q0 -72 -78 -96q42 -10 66.5 -39t24.5 -67q0 -61 -47.5 -91t-122.5 -30t-122 30t-47 91zM114 401q0 -66 82 -66q83 0 83 66q0 63 -83 63q-82 0 -82 -63zM126 585q0 -58 70 -58 q71 0 71 58q0 31 -20.5 45.5t-50.5 14.5t-50 -14.5t-20 -45.5z" />
<glyph horiz-adv-x="383" d="M18 568q0 64 48 102.5t115 38.5q82 0 128.5 -52t46.5 -144q0 -116 -48 -179t-129 -63q-65 0 -106.5 29.5t-45.5 80.5h88q13 -46 64 -46q77 0 87 130q-40 -38 -97 -38q-71 0 -111 36t-40 105zM104 568q0 -34 19.5 -56t57.5 -22q51 0 87 33q-3 122 -87 122q-77 0 -77 -77z " />
<glyph horiz-adv-x="427" d="M28 210q0 99 51 159t134 60t134 -60t51 -159t-51 -159t-134 -60t-134 60t-51 159zM117 210q0 -78 26 -116t70 -38t70 38t26 116t-26 116t-70 38t-70 -38t-26 -116z" />
<glyph horiz-adv-x="251" d="M18 292v75l103 53h85v-420h-85v345z" />
<glyph horiz-adv-x="369" d="M28 293q3 65 46 100.5t113 35.5q68 0 110 -33t42 -96q0 -28 -9 -51.5t-39.5 -56.5t-54 -53.5t-86.5 -74.5h192v-64h-304v64q22 19 53 45t48 40.5t38.5 34t33 32t23 28t16 29t4.5 27.5q0 65 -67 65q-64 0 -71 -72h-88z" />
<glyph horiz-adv-x="389" d="M28 112h88q7 -57 81 -57q78 0 78 64q0 66 -93 66h-54v64h54q81 0 81 61q0 55 -69 55q-64 0 -74 -57h-88q5 57 48.5 89t113.5 32t112 -32t42 -86q0 -31 -21.5 -56.5t-60.5 -34.5q49 -7 72 -36t23 -65q0 -56 -48.5 -92t-115.5 -36q-77 0 -121.5 32t-47.5 89z" />
<glyph horiz-adv-x="365" d="M18 72v66l136 282h83l-137 -282h107v96h82v-96h66v-66h-66v-72h-82v72h-189z" />
<glyph horiz-adv-x="364" d="M28 102h88q8 -47 67 -47q76 0 76 81q0 86 -73 86q-47 0 -72 -32h-74v230h275v-65h-201v-102q32 32 93 32q60 0 99 -39t39 -110q0 -67 -48 -106t-114 -39q-71 0 -111.5 29t-43.5 82z" />
<glyph horiz-adv-x="383" d="M27 187q0 116 48 179t129 63q63 0 103 -27.5t45 -72.5h-88q-13 36 -60 36q-77 0 -87 -130q40 38 98 38q71 0 110.5 -36t39.5 -105q0 -64 -48 -102.5t-115 -38.5q-82 0 -128.5 52t-46.5 144zM115 177q3 -122 87 -122q77 0 77 77q0 35 -19 56.5t-58 21.5q-51 0 -87 -33z " />
<glyph horiz-adv-x="317" d="M18 355v65h280v-65l-161 -355h-82l163 355h-200z" />
<glyph horiz-adv-x="393" d="M27 112q0 38 24.5 67t66.5 39q-78 24 -78 96q0 53 43.5 84t112.5 31q70 0 113.5 -31t43.5 -84q0 -72 -78 -96q42 -10 66.5 -39t24.5 -67q0 -61 -47.5 -91t-122.5 -30t-122 30t-47 91zM114 121q0 -66 82 -66q83 0 83 66q0 63 -83 63q-82 0 -82 -63zM126 305q0 -58 70 -58 q71 0 71 58q0 31 -20.5 45.5t-50.5 14.5t-50 -14.5t-20 -45.5z" />
<glyph horiz-adv-x="383" d="M18 288q0 64 48 102.5t115 38.5q82 0 128.5 -52t46.5 -144q0 -116 -48 -179t-129 -63q-65 0 -106.5 29.5t-45.5 80.5h88q13 -46 64 -46q77 0 87 130q-40 -38 -97 -38q-71 0 -111 36t-40 105zM104 288q0 -34 19.5 -56t57.5 -22q51 0 87 33q-3 122 -87 122q-77 0 -77 -77z " />
<glyph horiz-adv-x="760" d="M50 91l275 274l-275 275l55 55l274 -275l276 275l55 -54l-276 -276l276 -275l-55 -55l-276 275l-274 -274z" />
<glyph horiz-adv-x="1000" d="M40 327v78h920v-78h-920z" />
<glyph horiz-adv-x="500" d="M40 327v78h420v-78h-420z" />
<glyph horiz-adv-x="341" d="M50 327v78h241v-78h-241z" />
<glyph horiz-adv-x="340" d="M50 317v85l240 197v-107l-160 -130l160 -130v-112z" />
<glyph horiz-adv-x="340" d="M50 120v107l159 131l-159 129v112l240 -197v-85z" />
<glyph horiz-adv-x="559" d="M50 317v85l240 197v-107l-160 -130l160 -130v-112zM269 317v85l240 197v-107l-160 -130l160 -130v-112z" />
<glyph horiz-adv-x="559" d="M50 120v107l159 131l-159 129v112l240 -197v-85zM269 120v107l159 131l-159 129v112l240 -197v-85z" />
<glyph horiz-adv-x="523" d="M40 166q0 47 16 83t39 55.5t49 39.5t45.5 36t29 44.5t-0.5 64.5h99q10 -47 1 -82t-28 -53t-44.5 -37t-48 -35t-38 -46t-15.5 -70q0 -51 30.5 -77.5t82.5 -26.5q49 0 82 30t39 90h107q-5 -91 -67 -144t-161 -53q-100 0 -158.5 48t-58.5 133zM201 649q0 29 19 47.5t47 18.5 t47 -18.5t19 -47.5t-19 -47.5t-47 -18.5t-47 18.5t-19 47.5z" />
<glyph horiz-adv-x="320" d="M94 649q0 29 19 47.5t47 18.5t47 -18.5t19 -47.5t-19 -47.5t-47 -18.5t-47 18.5t-19 47.5zM104 0l19 489h74l19 -489h-112z" />
<glyph horiz-adv-x="1058" d="M60 263q0 152 69 272.5t197.5 190t294.5 69.5q157 0 266 -95.5t109 -250.5q0 -76 -19 -140.5t-50 -108.5t-70 -75t-78.5 -45.5t-76.5 -14.5q-42 0 -69.5 19t-31.5 57q-82 -76 -173 -76q-62 0 -105.5 53.5t-43.5 153.5q0 84 24.5 151t64.5 107.5t88 61.5t98 21 q34 0 65 -17t49 -44l-3 -18l11 63h95l-71 -404q-10 -61 30 -61q70 0 121.5 90t51.5 216q0 127 -79 209t-223 82q-188 0 -317.5 -126.5t-129.5 -323.5q0 -174 94.5 -265t252.5 -91q60 0 133 13t116 29l-11 -65q-47 -17 -122.5 -30t-141.5 -13q-82 0 -155.5 25.5t-132 74 t-93 128t-34.5 178.5zM380 283q0 -71 27 -106.5t65 -35.5q73 0 133 55v-4l52 294q-41 52 -105 52q-68 0 -120 -65.5t-52 -189.5z" />
<glyph horiz-adv-x="844" d="M50 250v70h744v-70h-744z" />
<glyph horiz-adv-x="439" d="M50 250v70h339v-70h-339z" />
<glyph horiz-adv-x="308" d="M50 250v70h208v-70h-208z" />
<glyph horiz-adv-x="446" d="M38 401q4 71 56.5 113.5t132.5 42.5t129.5 -38.5t49.5 -104.5q0 -42 -17.5 -72.5t-41.5 -47.5t-46.5 -33t-34 -39.5t-2.5 -56.5h-93q-9 43 2 72t33.5 45t46 30.5t41 39.5t17.5 62q0 72 -84 72q-81 0 -90 -85h-99zM156 42q0 25 16.5 41t41.5 16q26 0 42 -16t16 -41 t-16.5 -41t-41.5 -16t-41.5 16t-16.5 41z" />
<glyph horiz-adv-x="446" d="M40 128q0 42 17.5 72.5t41.5 47.5t46.5 33t34 39.5t2.5 56.5h93q9 -43 -2 -72t-33.5 -45t-46 -30.5t-41 -39.5t-17.5 -62q0 -72 84 -72q80 0 90 85h98q-4 -71 -56 -113.5t-132 -42.5t-129.5 38.5t-49.5 104.5zM173 500q0 25 16.5 41t41.5 16t42 -16t17 -41t-17 -41 t-42 -16t-41.5 16t-16.5 41z" />
<glyph horiz-adv-x="305" d="M94 42q0 25 17 41t41 16q26 0 42.5 -16t16.5 -41t-16.5 -41t-42.5 -16q-24 0 -41 16.5t-17 40.5zM102 543h101l-14 -378h-73z" />
<glyph horiz-adv-x="305" d="M94 501q0 24 17 40.5t41 16.5q26 0 42.5 -16t16.5 -41t-16.5 -41t-42.5 -16q-24 0 -41 16t-17 41zM102 0l14 378h73l14 -378h-101z" />
<glyph horiz-adv-x="362" d="M50 430q0 55 37.5 91t93.5 36t93.5 -36t37.5 -91t-37.5 -91t-93.5 -36t-93.5 36t-37.5 91zM116 430q0 -28 18 -47t47 -19t47 19t18 47t-18 47t-47 19t-47 -19t-18 -47z" />
<glyph horiz-adv-x="190" d="M50 543h90l-12 -200h-66z" />
<glyph horiz-adv-x="322" d="M50 543h90l-12 -200h-66zM183 543h89l-11 -200h-67z" />
<glyph horiz-adv-x="249" d="M54 470l57 197h94l-72 -197h-79z" />
<glyph horiz-adv-x="380" d="M54 470l57 197h94l-72 -197h-79zM196 470l57 197h94l-72 -197h-79z" />
<glyph horiz-adv-x="249" d="M54 470l72 197h79l-57 -197h-94z" />
<glyph horiz-adv-x="380" d="M54 470l72 197h79l-57 -197h-94zM196 470l72 197h79l-58 -197h-93z" />
<glyph horiz-adv-x="481" d="M50 246v73h153v144h74v-144h154v-73h-154v-144h-74v144h-153z" />
<glyph horiz-adv-x="481" d="M50 246v73h381v-73h-381z" />
<glyph horiz-adv-x="481" d="M50 166v73h381v-73h-381zM50 326v73h381v-73h-381z" />
<glyph horiz-adv-x="311" d="M60 271q0 117 46.5 213t112.5 155h87q-66 -64 -105.5 -165t-39.5 -203t39.5 -203t105.5 -165h-87q-67 60 -113 155.5t-46 212.5z" />
<glyph horiz-adv-x="311" d="M5 -97q66 64 105.5 165t39.5 203t-39.5 203t-105.5 165h88q66 -59 112 -155t46 -213t-46 -212.5t-112 -155.5h-88z" />
<glyph horiz-adv-x="306" d="M120 -97v736h166v-62h-71v-612h71v-62h-166z" />
<glyph horiz-adv-x="306" d="M20 -35h71v612h-71v62h166v-736h-166v62z" />
<glyph horiz-adv-x="320" d="M54 239v64q80 0 80 66v150q0 56 38.5 88t105.5 32h22v-62h-12q-29 0 -44 -18t-15 -40v-143q0 -38 -20 -67.5t-51 -37.5q31 -8 51 -38t20 -68v-142q0 -22 15 -40t44 -18h12v-62h-22q-67 0 -105.5 32t-38.5 88v150q0 66 -80 66z" />
<glyph horiz-adv-x="320" d="M20 -35h12q29 0 44 18t15 40v142q0 38 20 68t51 38q-31 8 -51 37.5t-20 67.5v143q0 22 -15 40t-44 18h-12v62h23q67 0 105 -32t38 -88v-150q0 -66 80 -66v-64q-80 0 -80 -66v-150q0 -56 -38 -88t-105 -32h-23v62z" />
<glyph horiz-adv-x="384" d="M20 -31l252 605h92l-252 -605h-92z" />
<glyph horiz-adv-x="384" d="M20 574h92l252 -605h-92z" />
<glyph horiz-adv-x="596" d="M55 144q0 90 91 151q-49 58 -49 117t47.5 102t120.5 43q81 0 130.5 -39.5t53.5 -112.5h-99q-4 47 -26 64t-59 17q-32 0 -53 -18t-21 -51q0 -52 56 -105l158 -148q19 51 19 121h93q0 -98 -51 -178l115 -107h-121l-48 44q-69 -59 -161 -59q-89 0 -142.5 42.5t-53.5 116.5z M146 152q0 -45 32 -71t77 -26q64 0 105 38l-170 158q-44 -38 -44 -99z" />
<glyph horiz-adv-x="879" d="M40 369l369 369l56 -55l-276 -276h650v-77h-649l275 -274l-56 -55z" />
<glyph horiz-adv-x="879" d="M40 330v77h649l-275 276l56 55l369 -369l-369 -368l-56 55l274 274h-648z" />
<glyph horiz-adv-x="817" d="M40 400l369 369l368 -369l-55 -56l-274 274v-648h-77v649l-276 -275z" />
<glyph horiz-adv-x="817" d="M40 339l55 55l276 -275v650h77v-649l274 274l55 -55l-368 -369z" />
<glyph horiz-adv-x="712" d="M80 140v522h521v-78h-389l460 -460l-55 -55l-459 460v-389h-78z" />
<glyph horiz-adv-x="712" d="M40 124l459 460h-389v78h522v-522h-78v389l-459 -460z" />
<glyph horiz-adv-x="712" d="M40 607l55 55l459 -461v390h78v-522h-522v78h389z" />
<glyph horiz-adv-x="712" d="M80 69v522h78v-390l459 461l55 -55l-460 -460h389v-78h-521z" />
<glyph horiz-adv-x="1649" d="M40 369l369 369l56 -55l-276 -276h1420v-77h-1419l275 -274l-56 -55z" />
<glyph horiz-adv-x="1649" d="M40 330v77h1419l-275 276l56 55l369 -369l-369 -368l-56 55l274 274h-1418z" />
<glyph horiz-adv-x="188" d="M50 580v223h88l-21 -223h-67z" />
<glyph horiz-adv-x="364" d="M50 752l132 140h132l-175 -140h-89z" />
<glyph horiz-adv-x="399" d="M50 892h69q0 -32 20 -51t60 -19t60.5 19.5t20.5 50.5h69q0 -71 -41 -109.5t-109 -38.5t-108.5 38.5t-40.5 109.5z" />
<glyph horiz-adv-x="486" d="M50 892h92l100 -68l102 68h92l-148 -140h-90z" />
<glyph horiz-adv-x="486" d="M50 752l148 140h90l148 -140h-92l-102 68l-100 -68h-92z" />
<glyph horiz-adv-x="438" d="M50 827q0 25 18 42.5t44 17.5t44 -17.5t18 -42.5t-18 -43t-44 -18t-44 18t-18 43zM265 827q0 25 18 42.5t44 17.5q25 0 43 -17.5t18 -42.5t-18 -43t-43 -18q-26 0 -44 18t-18 43z" />
<glyph horiz-adv-x="225" d="M50 826q0 26 18.5 43.5t44.5 17.5t44 -17.5t18 -43.5q0 -25 -18 -43t-44 -18t-44.5 18t-18.5 43z" />
<glyph horiz-adv-x="364" d="M50 892h132l132 -140h-89z" />
<glyph horiz-adv-x="520" d="M50 752l110 140h125l-152 -140h-83zM234 752l111 140h125l-152 -140h-84z" />
<glyph horiz-adv-x="417" d="M50 785v71h317v-71h-317z" />
<glyph horiz-adv-x="325" d="M50 821q0 44 32.5 70.5t80.5 26.5t80 -26.5t32 -70.5t-32 -70.5t-80 -26.5q-49 0 -81 26t-32 71zM122 815q6 -43 47 -36q40 5 34 48q-5 42 -47 35q-40 -5 -34 -47z" />
<glyph horiz-adv-x="461" d="M50 795q19 46 48.5 70t62.5 24q29 0 79.5 -23t63.5 -23q34 0 54 42l53 -26q-18 -46 -47.5 -69.5t-62.5 -23.5q-29 0 -80 23t-65 23q-31 0 -54 -43z" />
<glyph horiz-adv-x="324" d="M50 583l106 109h118l-140 -109h-84z" />
<glyph horiz-adv-x="352" d="M50 692h67q0 -46 60 -46q58 0 58 46h67q0 -55 -35 -85.5t-90 -30.5q-57 0 -92 30.5t-35 85.5z" />
<glyph horiz-adv-x="420" d="M50 692h85l75 -44l75 44h85l-123 -109h-73z" />
<glyph horiz-adv-x="420" d="M50 583l124 109h73l123 -109h-85l-75 44l-75 -44h-85z" />
<glyph horiz-adv-x="381" d="M50 641q0 22 16 37t38 15t38.5 -15t16.5 -37t-16.5 -36.5t-38.5 -14.5t-38 14.5t-16 36.5zM222 641q0 22 16 37t38 15t38.5 -15t16.5 -37t-16.5 -36.5t-38.5 -14.5t-38 14.5t-16 36.5z" />
<glyph horiz-adv-x="210" d="M50 641q0 22 16.5 37t38.5 15t38.5 -15t16.5 -37t-16.5 -37t-38.5 -15t-38.5 15t-16.5 37z" />
<glyph horiz-adv-x="324" d="M50 692h119l105 -109h-84z" />
<glyph horiz-adv-x="461" d="M50 583l89 109h112l-122 -109h-79zM211 583l87 109h113l-121 -109h-79z" />
<glyph horiz-adv-x="354" d="M50 603v65h254v-65h-254z" />
<glyph horiz-adv-x="281" d="M50 638q0 34 25.5 54.5t64.5 20.5q40 0 65.5 -20t25.5 -55q0 -34 -25.5 -54t-65.5 -20q-39 0 -64.5 20t-25.5 54zM107 638q0 -33 33 -33q34 0 34 33t-34 33q-33 0 -33 -33z" />
<glyph horiz-adv-x="397" d="M50 619q30 72 89 72q23 0 65 -16t54 -16q22 0 38 29l51 -25q-29 -72 -88 -72q-23 0 -66 15.5t-54 15.5q-23 0 -39 -28z" />
</font>
</defs>
</svg>
